osu file format v14

[General]
AudioFilename: audio.mp3
AudioLeadIn: 0
PreviewTime: 45637
Countdown: 0
SampleSet: Soft
StackLeniency: 0.7
Mode: 0
LetterboxInBreaks: 0
WidescreenStoryboard: 1

[Editor]
Bookmarks: 15755,30755,45755,79505,94505,109505,139505,154505,169505,184505,199505
DistanceSpacing: 1.2
BeatDivisor: 4
GridSize: 4
TimelineZoom: 2

[Metadata]
Title:Alive
TitleUnicode:Alive
Artist:Krewella
ArtistUnicode:Krewella
Creator:Mao
Version:Plaudible's Normal
Source:
Tags:Jahan Jasmine Yousaf Get Wet Desperate-kun Plaudible Gero Kristopher Trindl Rain Man
BeatmapID:1391130
BeatmapSetID:532713

[Difficulty]
HPDrainRate:4
CircleSize:3
OverallDifficulty:4
ApproachRate:5
SliderMultiplier:1.4
SliderTickRate:2

[Events]
//Background and Video events
0,0,"bg.jpg",0,0
//Break Periods
2,75720,78305
//Storyboard Layer 0 (Background)
//Storyboard Layer 1 (Fail)
//Storyboard Layer 2 (Pass)
//Storyboard Layer 3 (Foreground)
//Storyboard Sound Samples

[TimingPoints]
755,468.75,4,2,0,45,1,0
15755,-100,4,2,0,45,0,0
19505,-100,4,2,0,35,0,0
19622,-100,4,2,0,45,0,0
22786,-100,4,2,0,40,0,0
23255,-100,4,2,0,45,0,0
27005,-100,4,2,0,35,0,0
27122,-100,4,2,0,45,0,0
30286,-100,4,2,0,40,0,0
30755,-100,4,2,0,60,0,0
32161,-100,4,2,0,50,0,0
32278,-100,4,2,0,60,0,0
34036,-100,4,2,0,50,0,0
34153,-100,4,2,0,60,0,0
34505,-100,4,2,0,50,0,0
34622,-100,4,2,0,60,0,0
36145,-100,4,2,0,50,0,0
36497,-100,4,2,0,60,0,0
38020,-100,4,2,0,50,0,0
38255,-100,4,2,0,60,0,0
39661,-100,4,2,0,50,0,0
39778,-100,4,2,0,60,0,0
41536,-100,4,2,0,50,0,0
41653,-100,4,2,0,60,0,0
43880,-100,4,2,0,70,0,0
45286,-100,4,2,0,50,0,0
45755,-100,4,2,0,80,0,0
48567,-100,4,2,0,65,0,0
48684,-100,4,2,0,80,0,0
52317,-100,4,2,0,65,0,0
52434,-100,4,2,0,80,0,0
53255,-100,4,1,0,70,0,0
58880,-100,4,1,0,60,0,0
60755,-100,4,1,0,80,0,1
68255,-100,4,1,0,85,0,1
72005,-100,4,1,0,90,0,1
74817,-100,4,1,0,70,0,1
75051,-100,4,1,0,80,0,1
75286,-100,4,1,0,90,0,1
75696,-100,4,2,0,70,0,0
81380,-100,4,2,0,60,0,0
81497,-100,4,2,0,70,0,0
83255,-100,4,2,0,60,0,0
83372,-100,4,2,0,70,0,0
85130,-100,4,2,0,60,0,0
85247,-100,4,2,0,70,0,0
88880,-100,4,2,0,60,0,0
88997,-100,4,2,0,70,0,0
90755,-100,4,2,0,60,0,0
90872,-100,4,2,0,70,0,0
92630,-100,4,2,0,60,0,0
92747,-100,4,2,0,70,0,0
102005,-100,4,2,0,80,0,0
109505,-100,4,2,0,80,0,0
117005,-100,4,1,0,70,0,0
122630,-100,4,1,0,60,0,0
124505,-100,4,1,0,80,0,1
132005,-100,4,1,0,85,0,1
135755,-100,4,1,0,90,0,1
138567,-100,4,1,0,70,0,1
138801,-100,4,1,0,80,0,1
139036,-100,4,1,0,90,0,1
139505,-100,4,2,0,80,0,0
141380,-100,4,2,0,80,0,0
143255,-100,4,2,0,80,0,0
145130,-100,4,2,0,80,0,0
147005,-100,4,2,0,80,0,0
148880,-100,4,2,0,80,0,0
150755,-100,4,1,0,80,0,0
153567,-100,4,1,0,70,0,0
154505,-100,4,2,0,40,0,0
156380,-100,4,2,0,50,0,0
158255,-100,4,2,0,60,0,0
160130,-100,4,2,0,70,0,0
162005,-100,4,1,0,70,0,0
163880,-100,4,1,0,75,0,0
165755,-100,4,1,0,80,0,0
167630,-100,4,1,0,70,0,0
168567,-100,4,1,0,80,0,0
169505,-100,4,1,0,80,0,1
199505,-100,4,2,0,40,0,0
199622,-100,4,2,0,5,0,0

[Colours]
Combo1 : 36,251,198
Combo2 : 188,145,253
Combo3 : 242,132,57
Combo4 : 249,83,129
Combo5 : 255,211,79
Combo6 : 132,83,232
SliderBorder : 255,255,255
SliderTrackOverride : 0,0,0

[HitObjects]
225,191,15755,6,0,L|213:63,2,105,0|0|0,0:0|0:0|0:0,0:0:0:0:
275,258,16692,2,0,P|359:274|421:233,1,140,2|0,0:0|0:0,0:0:0:0:
509,120,17630,1,0,0:0:0:0:
341,109,18098,1,0,0:0:0:0:
275,258,18567,2,0,L|128:250,1,140,2|0,0:0|0:0,0:0:0:0:
74,308,19270,1,0,0:0:0:0:
74,308,19505,6,0,B|29:245|76:186|76:186|119:130|77:80|77:80|41:117,1,280,4|0,0:0|0:0,0:0:0:0:
142,253,21145,1,0,0:0:0:0:
142,253,21380,2,0,P|190:260|227:247,1,70,2|0,0:0|0:0,0:0:0:0:
292,270,21848,2,0,P|322:231|329:193,1,70,0|2,0:0|0:0,0:0:0:0:
394,159,22317,2,0,P|376:113|346:88,1,70,2|0,0:0|0:0,0:0:0:0:
337,18,22786,1,2,0:0:0:0:
199,115,23255,6,0,L|185:-12,2,105,0|0|0,0:0|0:0|0:0,0:0:0:0:
259,173,24192,2,0,B|301:209|301:209|403:205,1,140,2|0,0:0|0:0,0:0:0:0:
478,65,25130,1,0,0:0:0:0:
469,234,25598,1,0,0:0:0:0:
317,307,26067,2,0,L|161:295,1,140,2|0,0:0|0:0,0:0:0:0:
139,221,26770,1,0,0:0:0:0:
139,221,27005,6,0,B|197:188|198:82|142:42|142:42|136:84|98:110,1,280,4|0,0:0|0:0,0:0:0:0:
181,301,28645,1,0,0:0:0:0:
181,301,28880,2,0,P|221:313|253:307,1,70,2|0,0:0|0:0,0:0:0:0:
328,333,29348,2,0,P|358:304|369:273,1,70,0|2,0:0|0:0,0:0:0:0:
438,230,29817,2,0,P|428:189|407:163,2,70,2|0|2,0:0|0:0|0:0,0:0:0:0:
328,333,30755,6,0,L|441:341,2,105,0|0|0,3:0|0:0|0:0,0:0:0:0:
278,265,31692,2,0,P|214:232|140:266,1,140,2|2,3:2|3:0,0:0:0:0:
95,313,32395,1,0,0:0:0:0:
95,313,32630,2,0,P|137:335|200:320,2,105,0|0|0,3:0|0:0|0:0,0:0:0:0:
57,237,33567,1,2,3:2:0:0:
146,46,34270,1,0,0:0:0:0:
215,93,34505,6,0,B|287:97|287:97|329:88,2,105,4|0|0,3:2|0:0|0:0,0:0:0:0:
140,131,35442,2,0,B|68:135|68:135|26:126,2,105,2|0|2,3:0|0:0|0:3,0:0:0:0:
209,179,36380,2,0,B|281:183|281:183|323:174,2,105,4|0|0,3:2|0:0|0:0,0:0:0:0:
133,216,37317,2,0,B|61:220|61:220|19:211,2,105,2|0|2,3:0|0:0|0:3,0:0:0:0:
209,179,38255,6,0,P|223:126|203:75,2,105,0|0|0,3:0|0:0|0:0,0:0:0:0:
133,216,39192,2,0,L|144:372,1,140,2|2,3:2|3:0,0:0:0:0:
220,323,39895,1,0,0:0:0:0:
296,361,40130,2,0,P|364:371|406:350,2,105,0|0|0,3:0|0:0|0:0,0:0:0:0:
220,323,41067,1,2,3:2:0:0:
422,173,41770,1,0,0:0:0:0:
375,102,42005,6,0,P|365:57|378:-8,2,105,4|0|0,3:2|0:0|0:0,0:0:0:0:
340,178,42942,2,0,P|330:223|343:288,2,105,2|0|2,3:0|0:0|0:3,0:0:0:0:
287,111,43880,2,0,P|277:66|286:0,2,105,4|0|0,3:2|0:0|0:0,0:0:0:0:
340,178,44817,1,2,3:0:0:0:
245,316,45286,1,0,0:0:0:0:
88,253,45755,6,0,L|97:101,1,140,4|2,3:2|3:0,0:0:0:0:
166,66,46458,1,2,0:0:0:0:
232,116,46692,2,0,P|276:124|312:113,1,70,4|0,3:0|0:0,0:0:0:0:
374,78,47161,2,0,P|408:72|442:80,1,70,2|0,3:0|0:0,0:0:0:0:
495,145,47630,6,0,L|489:225,2,70,2|0|2,3:2|0:0|3:0,0:0:0:0:
442,80,48333,1,2,0:0:0:0:
374,129,48567,2,0,P|316:132|288:119,1,70,4|2,3:0|0:0,0:0:0:0:
245,68,49036,1,2,3:0:0:0:
157,211,49505,6,0,B|229:246|229:185|322:227,1,140,4|2,3:2|3:0,0:0:0:0:
342,284,50208,1,2,0:0:0:0:
302,358,50442,2,0,P|243:366|216:359,1,70,4|0,3:0|0:0,0:0:0:0:
149,375,50911,2,0,P|112:327|105:301,1,70,2|0,3:0|0:0,0:0:0:0:
49,259,51380,6,0,L|54:176,2,70,2|0|2,3:2|0:0|3:0,0:0:0:0:
109,318,52083,1,2,0:0:0:0:
176,268,52317,2,0,P|223:263|261:284,1,70,4|2,3:0|0:0,0:0:0:0:
299,333,52786,1,2,3:0:0:0:
426,222,53255,6,0,L|502:227,2,70,0|0|0,0:0|0:0|0:0,0:0:0:0:
355,175,53958,1,0,0:0:0:0:
286,126,54192,2,0,L|210:131,2,70,0|0|0,0:0|0:0|0:0,0:0:0:0:
361,87,54895,1,0,0:0:0:0:
437,51,55130,6,0,P|443:109|430:135,1,70,0|0,0:0|0:0,0:0:0:0:
396,190,55598,2,0,P|390:248|403:274,1,70,0|0,0:0|0:0,0:0:0:0:
420,337,56067,2,0,L|328:333,2,70,0|0|0,0:0|0:0|0:0,0:0:0:0:
256,296,57005,6,0,P|248:351|264:382,2,70,2|0|2,0:2|0:0|0:2,0:0:0:0:
305,227,57708,1,0,0:0:0:0:
258,156,57942,2,0,L|174:152,1,70,2|0,0:2|0:0,0:0:0:0:
114,111,58411,2,0,P|103:165|117:197,1,70,2|0,0:2|0:0,0:0:0:0:
169,236,58880,5,4,0:2:0:0:
194,316,59114,1,0,0:0:0:0:
277,312,59348,1,0,0:0:0:0:
305,233,59583,1,0,0:0:0:0:
236,181,59817,2,0,P|226:146|229:112,2,70,0|0|0,0:0|0:0|0:0,0:0:0:0:
375,273,60755,6,0,B|401:248|401:248|406:165,2,105,4|2|2,0:0|0:2|0:2,0:0:0:0:
311,327,61692,1,0,0:0:0:0:
235,291,61926,2,0,P|227:346|236:371,2,70,2|4|2,0:3|0:3|0:3,0:0:0:0:
301,238,62630,2,0,L|307:107,2,105,4|2|2,0:2|0:2|0:2,0:0:0:0:
235,291,63567,1,0,0:0:0:0:
168,239,63801,2,0,P|131:233|92:246,2,70,2|4|2,0:3|0:3|0:3,0:0:0:0:
235,291,64505,6,0,L|359:285,2,105,4|2|2,0:2|0:2|0:2,0:0:0:0:
168,239,65442,1,0,0:0:0:0:
101,187,65676,2,0,L|29:183,2,70,2|4|2,0:3|0:3|0:3,0:0:0:0:
139,111,66380,2,0,B|143:42|143:42|124:9,2,105,4|2|2,0:2|0:2|0:2,0:0:0:0:
101,187,67317,1,0,0:0:0:0:
160,245,67551,1,2,0:3:0:0:
232,202,67786,2,0,P|279:196|318:207,1,70,4|2,0:3|0:3,0:0:0:0:
360,260,68255,6,0,L|485:253,2,105,4|2|2,0:0|0:2|0:2,0:0:0:0:
300,200,69192,1,0,0:0:0:0:
345,129,69426,2,0,L|433:123,2,70,2|4|2,0:3|0:3|0:3,0:0:0:0:
292,63,70130,2,0,P|247:49|191:66,2,105,4|2|2,0:2|0:2|0:2,0:0:0:0:
345,129,71067,1,0,0:0:0:0:
303,201,71301,2,0,L|308:294,2,70,2|4|2,0:3|0:3|0:3,0:0:0:0:
219,187,72005,6,0,B|189:204|189:204|102:199,2,105,4|2|4,0:2|0:2|0:2,0:0:0:0:
303,201,72942,1,0,0:0:0:0:
345,129,73176,2,0,L|343:48,2,70,2|4|2,0:3|0:3|0:3,0:0:0:0:
303,201,73880,6,0,P|312:250|290:285,1,70,4|0,0:0|0:0,0:0:0:0:
221,269,74348,2,0,P|212:220|234:185,1,70,4|0,0:3|0:0,0:0:0:0:
260,129,74817,1,4,0:2:0:0:
216,57,75051,1,0,0:0:0:0:
133,72,75286,2,0,L|55:69,1,70,4|0,0:3|0:0,0:0:0:0:
40,312,79505,6,0,B|91:281|133:305|133:305|141:309|141:309|149:314|149:314|194:340|251:311,1,210,4|2,3:2|0:0,0:0:0:0:
339,182,80676,1,2,0:0:0:0:
339,182,80911,2,0,L|249:177,1,70,2|0,3:0|0:0,0:0:0:0:
199,129,81380,2,0,P|189:83|235:9,2,105,4|2|2,3:0|0:0|0:0,0:0:0:0:
283,273,82551,1,2,0:0:0:0:
283,273,82786,2,0,L|373:278,1,70,2|0,3:0|0:0,0:0:0:0:
415,220,83255,6,0,B|408:147|408:147|367:105,2,105,4|0|2,3:0|0:0|0:0,0:0:0:0:
316,355,84426,2,0,P|268:362|236:348,1,70,2|2,0:0|3:0,0:0:0:0:
188,296,84895,1,0,0:0:0:0:
188,296,85130,2,0,L|110:300,2,70,4|2|2,3:0|0:0|3:0,0:0:0:0:
243,232,85833,1,2,0:0:0:0:
243,232,86067,2,0,L|321:236,2,70,0|0|2,3:0|0:0|3:0,0:0:0:0:
186,169,86770,1,0,0:0:0:0:
186,169,87005,6,0,B|132:101|186:41|186:41|277:37,1,210,4|2,3:2|0:0,0:0:0:0:
387,139,88176,1,2,0:0:0:0:
387,139,88411,2,0,P|390:173|385:208,1,70,2|0,3:0|0:0,0:0:0:0:
320,261,88880,2,0,B|242:254|242:254|194:220,2,105,4|2|2,3:0|0:0|0:0,0:0:0:0:
258,104,90051,1,2,0:0:0:0:
258,104,90286,2,0,P|201:96|173:107,1,70,2|0,3:0|0:0,0:0:0:0:
126,153,90755,6,0,P|82:139|19:165,2,105,4|0|2,3:0|0:0|0:0,0:0:0:0:
236,279,91926,1,2,0:0:0:0:
236,279,92161,2,0,L|318:274,1,70,2|0,3:0|0:0,0:0:0:0:
365,215,92630,2,0,L|447:220,2,70,4|2|2,3:0|0:0|3:0,0:0:0:0:
324,142,93333,1,2,0:0:0:0:
324,142,93567,2,0,L|242:147,2,70,0|0|2,3:0|0:0|3:0,0:0:0:0:
452,106,94505,6,0,P|466:166|450:198,1,70,4|0,3:2|0:0,0:0:0:0:
498,248,94973,2,0,P|453:290|417:292,1,70,2|0,3:0|0:0,0:0:0:0:
385,349,95442,2,0,P|326:331|306:301,1,70,4|0,3:0|0:0,0:0:0:0:
239,307,95911,2,0,P|225:247|241:215,1,70,2|0,3:0|0:0,0:0:0:0:
183,168,96380,2,0,L|197:25,2,140,4|2|4,3:2|3:0|3:0,0:0:0:0:
348,194,97786,2,0,P|359:232|353:273,1,70
330,344,98255,6,0,L|428:353,2,70,4|0|2,3:2|0:0|3:0,0:0:0:0:
247,359,98958,1,0,0:0:0:0:
190,296,99192,2,0,P|186:245|198:215,1,70,4|0,3:0|0:0,0:0:0:0:
153,152,99661,2,0,P|195:123|227:118,1,70,2|0,3:0|0:0,0:0:0:0:
279,68,100130,2,0,L|434:58,2,140,4|2|4,3:2|3:0|3:0,0:0:0:0:
271,235,101536,2,0,P|211:240|179:230,1,70
116,235,102005,6,0,B|106:197|106:197|116:158,1,70,4|0,3:2|0:0,0:0:0:0:
73,93,102473,2,0,B|100:65|100:65|139:54,1,70,2|0,3:0|0:0,0:0:0:0:
201,12,102942,2,0,L|346:22,1,140,4|2,3:0|3:0,0:0:0:0:
408,71,103645,1,0,0:0:0:0:
408,71,103880,2,0,B|400:178|400:178|375:209,1,140,4|2,3:2|3:0,0:0:0:0:
284,341,104817,2,0,L|214:336,1,70,4|2,3:0|0:0,0:0:0:0:
154,277,105286,2,0,P|108:281|81:271,1,70,0|0,0:0|0:0,0:0:0:0:
6,245,105755,6,0,P|2:199|12:172,2,70,4|0|2,3:2|0:0|3:0,0:0:0:0:
86,273,106458,1,0,0:0:0:0:
126,199,106692,2,0,B|164:170|164:170|287:180,1,140,4|2,3:0|3:0,0:0:0:0:
339,165,107395,1,0,0:0:0:0:
409,118,107630,2,0,P|357:83|274:108,1,140,4|2,3:2|3:0,0:0:0:0:
131,159,108567,2,0,P|182:193|265:168,1,140,4|2,3:0|3:0,0:0:0:0:
376,60,109505,6,0,P|318:24|252:41,1,140,4|0,0:2|0:0,0:0:0:0:
202,109,110208,1,2,0:0:0:0:
208,192,110442,2,0,L|213:266,1,70,2|0,0:3|0:0,0:0:0:0:
268,325,110911,2,0,L|341:332,1,70,2|0,0:0|0:0,0:0:0:0:
404,286,111380,6,0,P|452:295|488:284,2,70,4|0|2,0:0|0:0|0:0,0:0:0:0:
330,243,112083,1,0,0:0:0:0:
295,166,112317,2,0,L|302:88,1,70,2|2,0:3|0:0,0:0:0:0:
311,12,112786,1,2,0:0:0:0:
156,78,113255,6,0,B|117:112|117:112|129:229,1,140,4|0,0:2|0:0,0:0:0:0:
133,284,113958,1,2,0:0:0:0:
202,330,114192,2,0,P|256:337|293:326,1,70,2|0,0:3|0:0,0:0:0:0:
343,292,114661,2,0,P|377:288|411:296,1,70,2|0,0:0|0:0,0:0:0:0:
494,283,115130,6,0,L|498:365,2,70,4|0|2,0:0|0:0|0:0,0:0:0:0:
447,212,115833,1,0,0:0:0:0:
490,140,116067,2,0,P|433:129|396:145,1,70,2|2,0:3|0:0,0:0:0:0:
364,192,116536,2,0,P|329:194|296:183,1,70,2|0,0:0|0:0,0:0:0:0:
258,108,117005,6,0,L|263:32,2,70,0|0|0,0:0|0:0|0:0,0:0:0:0:
211,179,117708,1,0,0:0:0:0:
162,248,117942,2,0,L|167:324,2,70,0|0|0,0:0|0:0|0:0,0:0:0:0:
123,173,118645,1,0,0:0:0:0:
104,90,118880,6,0,P|161:97|184:115,1,70,0|0,0:0|0:0,0:0:0:0:
211,179,119348,2,0,P|243:191|278:188,1,70,0|0,0:0|0:0,0:0:0:0:
341,132,119817,2,0,P|375:129|408:141,2,70,0|0|0,0:0|0:0|0:0,0:0:0:0:
192,52,120755,6,0,L|105:43,2,70,2|0|2,0:2|0:0|0:2,0:0:0:0:
252,111,121458,1,0,0:0:0:0:
210,183,121692,2,0,P|206:238|219:263,1,70,2|0,0:2|0:0,0:0:0:0:
273,307,122161,2,0,L|171:302,1,70,2|0,0:2|0:0,0:0:0:0:
146,366,122630,5,4,0:2:0:0:
62,360,122864,1,0,0:0:0:0:
24,285,123098,1,0,0:0:0:0:
76,218,123333,1,0,0:0:0:0:
159,223,123567,2,0,P|154:183|127:150,2,70,0|0|0,0:0|0:0|0:0,0:0:0:0:
322,262,124505,6,0,B|297:288|297:288|214:293,2,105,4|2|2,0:0|0:2|0:2,0:0:0:0:
377,199,125442,1,0,0:0:0:0:
432,135,125676,2,0,P|473:125|507:135,2,70,2|4|2,0:3|0:3|0:3,0:0:0:0:
348,119,126380,2,0,B|330:64|330:64|361:8,2,105,4|2|2,0:2|0:2|0:2,0:0:0:0:
377,199,127317,1,0,0:0:0:0:
444,249,127551,2,0,P|460:211|460:179,2,70,2|4|2,0:3|0:3|0:3,0:0:0:0:
379,303,128255,6,0,B|400:330|400:330|499:339,2,105,4|2|2,0:2|0:2|0:2,0:0:0:0:
308,257,129192,1,0,0:0:0:0:
237,211,129426,2,0,P|224:243|227:278,2,70,2|4|2,0:3|0:3|0:3,0:0:0:0:
311,171,130130,2,0,B|393:175|393:175|442:150,2,105,4|2|2,0:2|0:2|0:2,0:0:0:0:
291,89,131067,1,0,0:0:0:0:
207,80,131301,1,2,0:3:0:0:
165,153,131536,2,0,L|171:243,1,70,4|2,0:3|0:3,0:0:0:0:
122,292,132005,6,0,P|71:279|22:296,2,105,4|2|2,0:0|0:2|0:2,0:0:0:0:
171,359,132942,1,0,0:0:0:0:
254,348,133176,2,0,L|336:356,2,70,2|4|2,0:3|0:3|0:3,0:0:0:0:
206,278,133880,2,0,B|225:250|225:250|217:166,2,105,4|2|2,0:2|0:2|0:2,0:0:0:0:
122,292,134817,1,0,0:0:0:0:
73,223,135051,2,0,L|65:137,2,70,2|4|2,0:3|0:3|0:3,0:0:0:0:
122,292,135755,6,0,P|72:310|3:273,2,105,4|2|4,0:2|0:2|0:2,0:0:0:0:
192,246,136692,1,0,0:0:0:0:
260,293,136926,2,0,L|256:379,2,70,2|4|2,0:3|0:3|0:3,0:0:0:0:
278,210,137630,6,0,P|269:161|291:126,1,70,4|0,0:2|0:0,0:0:0:0:
360,142,138098,2,0,P|369:191|347:226,1,70,4|0,0:3|0:0,0:0:0:0:
321,282,138567,1,4,0:2:0:0:
237,290,138801,1,0,0:0:0:0:
190,219,139036,2,0,L|115:214,1,70,4|0,0:3|0:0,0:0:0:0:
52,163,139505,6,0,P|40:110|71:52,2,105,4|2|2,0:0|0:0|0:0,0:0:0:0:
155,295,140676,2,0,L|72:291,2,70,2|2|2,0:3|0:0|0:3,0:0:0:0:
226,250,141380,2,0,P|241:303|208:363,2,105,0|2|2,3:0|0:0|0:0,0:0:0:0:
123,117,142551,2,0,L|206:121,2,70,2|2|2,0:3|0:0|0:3,0:0:0:0:
56,169,143255,6,0,B|38:133|38:133|45:44,2,105,4|2|2,0:0|0:0|0:0,0:0:0:0:
192,265,144426,2,0,L|114:261,2,70,2|2|2,0:3|0:0|0:3,0:0:0:0:
262,217,145130,2,0,B|279:252|279:252|273:342,2,105,0|2|2,3:0|0:0|0:0,0:0:0:0:
126,121,146301,2,0,L|204:125,2,70,2|2|2,0:3|0:0|0:3,0:0:0:0:
149,39,147005,6,0,P|99:38|50:78,2,105,4|2|2,3:2|3:2|3:2,0:0:0:0:
279,145,148176,2,0,L|275:226,2,70,2|2|2,3:0|3:2|3:0,0:0:0:0:
252,64,148880,2,0,P|302:62|351:102,2,105,0|2|2,3:0|0:0|0:0,0:0:0:0:
122,170,150051,2,0,L|126:251,2,70,2|2|2,0:3|3:2|0:3,0:0:0:0:
164,96,150755,6,8,B|116:82|116:82|60:103,2,105,4|2|2,0:2|0:2|0:2,0:0:0:0:
228,149,151692,2,0,L|307:143,1,70,2|0,0:3|0:0,0:0:0:0:
371,103,152161,2,0,P|382:154|375:178,1,70,2|0,0:3|0:0,0:0:0:0:
315,226,152630,5,2,0:2:0:0:
318,309,152864,1,0,0:0:0:0:
392,348,153098,1,2,0:2:0:0:
464,305,153333,1,0,0:0:0:0:
459,221,153567,2,0,P|467:185|488:156,2,70,4|0|0,0:2|0:0|0:0,0:0:0:0:
318,309,154505,5,4,1:2:0:0:
256,192,156380,12,2,160130,0:0:0:0:
147,227,162005,6,0,B|121:248|121:248|128:331,2,105,2|0|2,0:2|0:0|0:2,0:0:0:0:
222,190,162942,1,0,0:0:0:0:
222,190,163176,2,0,P|266:183|296:191,2,70,0|2|0,0:0|0:2|0:0,0:0:0:0:
256,267,163880,6,0,P|334:277|368:261,2,105,2|0|2,0:2|0:0|0:2,0:0:0:0:
222,190,164817,1,0,0:0:0:0:
222,190,165051,2,0,L|226:109,2,70,0|2|0,0:0|0:2|0:0,0:0:0:0:
171,257,165755,6,0,P|131:262|87:247,2,70,2|0|2,0:2|0:0|0:2,0:0:0:0:
244,297,166458,1,0,0:0:0:0:
318,336,166692,2,0,L|398:330,1,70,2|0,0:2|0:0,0:0:0:0:
440,264,167161,2,0,P|430:226|439:188,1,70,2|0,0:2|0:0,0:0:0:0:
498,140,167630,5,4,0:2:0:0:
472,60,167864,1,0,0:0:0:0:
388,63,168098,1,0,0:0:0:0:
369,145,168333,1,0,0:0:0:0:
435,196,168567,2,0,P|444:229|439:263,2,70
374,353,169505,6,0,B|401:372|401:372|484:376,2,105,4|2|2,0:0|0:2|0:2,0:0:0:0:
327,282,170442,1,0,0:0:0:0:
280,211,170676,2,0,P|328:197|373:214,2,70,2|4|2,0:3|0:3|0:3,0:0:0:0:
196,223,171380,2,0,B|176:186|176:186|181:94,2,105,4|2|2,0:2|0:2|0:2,0:0:0:0:
185,306,172317,1,0,0:0:0:0:
105,332,172551,2,0,P|46:340|18:323,2,70,2|4|2,0:3|0:3|0:3,0:0:0:0:
185,306,173255,6,0,B|240:288|240:288|303:315,2,105,4|2|2,0:2|0:2|0:2,0:0:0:0:
105,332,174192,1,0,0:0:0:0:
51,267,174426,2,0,P|41:219|47:194,2,70,2|4|2,0:3|0:3|0:3,0:0:0:0:
125,226,175130,2,0,B|171:230|171:230|185:224|185:224|245:229,2,105,4|2|2,0:2|0:2|0:2,0:0:0:0:
45,199,176067,1,0,0:0:0:0:
45,115,176301,1,2,0:3:0:0:
124,86,176536,2,0,P|167:83|204:98,1,70,4|2,0:3|0:3,0:0:0:0:
248,153,177005,6,0,B|240:180|249:204|249:204|241:217|241:217|244:250|235:281,2,105,4|2|2,0:0|0:2|0:2,0:0:0:0:
311,98,177942,1,0,0:0:0:0:
380,145,178176,2,0,P|421:155|456:146,2,70,2|4|2,0:3|0:3|0:3,0:0:0:0:
417,69,178880,2,0,B|432:42|432:42|528:32,2,105,4|2|2,0:2|0:2|0:2,0:0:0:0:
380,145,179817,1,0,0:0:0:0:
341,219,180051,2,0,P|276:223|258:216,2,70,2|4|2,0:3|0:3|0:3,0:0:0:0:
380,145,180755,6,0,B|376:101|376:101|382:88|382:88|377:41,2,105,4|2|2,0:2|0:2|0:2,0:0:0:0:
460,168,181692,1,0,0:0:0:0:
469,251,181926,2,0,P|467:302|461:319,2,70,2|4|2,0:3|0:3|0:3,0:0:0:0:
390,218,182630,2,0,P|375:188|403:105,2,105,4|2|2,0:2|0:2|0:2,0:0:0:0:
469,251,183567,1,0,0:0:0:0:
462,334,183801,1,2,0:3:0:0:
381,357,184036,2,0,L|303:349,1,70,4|2,0:3|0:3,0:0:0:0:
238,307,184505,6,0,B|163:312|163:312|130:301,2,105,4|2|2,0:0|0:2|0:2,0:0:0:0:
286,238,185442,1,0,0:0:0:0:
363,206,185676,2,0,P|370:255|359:285,2,70,2|4|2,0:3|0:3|0:3,0:0:0:0:
368,121,186380,2,0,B|394:100|394:100|471:102,2,105,4|2|2,0:2|0:2|0:2,0:0:0:0:
289,150,187317,1,0,0:0:0:0:
220,101,187551,2,0,P|226:62|220:24,2,70,2|4|2,0:3|0:3|0:3,0:0:0:0:
156,157,188255,6,0,B|110:152|110:152|87:140|87:140|42:137,2,105,4|2|2,0:2|0:2|0:2,0:0:0:0:
183,236,189192,1,0,0:0:0:0:
208,315,189426,2,0,P|151:317|125:302,2,70,2|4|2,0:3|0:3|0:3,0:0:0:0:
266,253,190130,2,0,B|294:281|294:281|290:372,2,105,4|2|2,0:2|0:2|0:2,0:0:0:0:
183,236,191067,1,0,0:0:0:0:
176,152,191301,1,2,0:3:0:0:
251,114,191536,2,0,L|324:110,1,70,4|2,0:3|0:3,0:0:0:0:
393,153,192005,6,0,P|405:94|383:53,2,105,4|2|2,0:2|0:2|0:2,0:0:0:0:
321,197,192942,1,0,0:0:0:0:
341,278,193176,2,0,L|337:351,2,70,2|4|2,0:3|0:3|0:3,0:0:0:0:
321,197,193880,2,0,B|274:179|274:179|208:195,2,105,4|2|2,0:2|0:2|0:2,0:0:0:0:
402,215,194817,1,0,0:0:0:0:
446,143,195051,2,0,P|451:98|444:72,2,70,2|4|2,0:3|0:3|0:3,0:0:0:0:
402,215,195755,6,0,B|396:301|396:301|420:334,2,105,4|2|2,0:2|0:2|0:2,0:0:0:0:
333,166,196692,1,0,0:0:0:0:
266,114,196926,2,0,P|257:76|266:43,2,70,2|4|2,0:3|0:3|0:3,0:0:0:0:
333,166,197630,2,0,L|461:173,2,105,4|2|2,0:2|0:2|0:2,0:0:0:0:
255,197,198567,1,0,0:0:0:0:
263,280,198801,1,2,0:3:0:0:
185,314,199036,2,0,L|103:308,1,70,4|2,0:3|0:3,0:0:0:0:
31,304,199505,5,4,0:1:0:0:
