osu file format v14

[General]
AudioFilename: audio.mp3
AudioLeadIn: 0
PreviewTime: 45637
Countdown: 0
SampleSet: Normal
StackLeniency: 0.3
Mode: 0
LetterboxInBreaks: 0
WidescreenStoryboard: 1

[Editor]
Bookmarks: 12005,75755,77630,154505,162005,205598
DistanceSpacing: 1.1
BeatDivisor: 4
GridSize: 4
TimelineZoom: 2

[Metadata]
Title:Alive
TitleUnicode:Alive
Artist:Krewella
ArtistUnicode:Krewella
Creator:Mao
Version:Gero's Hard
Source:
Tags:Jahan Jasmine Yousaf Get Wet Desperate-kun Plaudible Gero Kristopher Trindl Rain Man
BeatmapID:1269444
BeatmapSetID:532713

[Difficulty]
HPDrainRate:6
CircleSize:4
OverallDifficulty:6
ApproachRate:7
SliderMultiplier:1.6
SliderTickRate:2

[Events]
//Background and Video events
0,0,"bg.jpg",0,0
//Break Periods
2,75955,76730
2,154705,161105
//Storyboard Layer 0 (Background)
//Storyboard Layer 1 (Fail)
//Storyboard Layer 2 (Pass)
//Storyboard Layer 3 (Foreground)
//Storyboard Sound Samples

[TimingPoints]
755,468.75,4,2,0,25,1,0
15755,-125,4,2,0,45,0,0
19505,-125,4,2,0,35,0,0
19622,-125,4,2,0,45,0,0
22786,-125,4,2,0,40,0,0
23255,-125,4,2,0,45,0,0
27005,-125,4,2,0,35,0,0
27122,-125,4,2,0,45,0,0
30286,-125,4,2,0,40,0,0
30755,-125,4,2,0,60,0,0
32161,-125,4,2,0,50,0,0
32278,-125,4,2,0,60,0,0
34036,-125,4,2,0,50,0,0
34153,-125,4,2,0,60,0,0
34505,-125,4,2,0,50,0,0
34622,-125,4,2,0,60,0,0
36145,-125,4,2,0,50,0,0
36497,-125,4,2,0,60,0,0
38020,-125,4,2,0,50,0,0
38255,-125,4,2,0,60,0,0
39661,-125,4,2,0,50,0,0
39778,-125,4,2,0,60,0,0
41536,-125,4,2,0,50,0,0
41653,-125,4,2,0,60,0,0
43880,-125,4,2,0,70,0,0
45286,-125,4,2,0,50,0,0
45755,-100,4,2,0,80,0,0
48567,-100,4,2,0,65,0,0
48684,-100,4,2,0,80,0,0
52317,-100,4,2,0,65,0,0
52434,-100,4,2,0,80,0,0
53255,-100,4,1,0,70,0,0
58880,-100,4,1,0,60,0,0
60755,-83.3333333333333,4,1,0,80,0,1
68255,-83.3333333333333,4,1,0,85,0,1
72005,-83.3333333333333,4,1,0,90,0,1
74817,-83.3333333333333,4,1,0,70,0,1
75051,-83.3333333333333,4,1,0,80,0,1
75286,-83.3333333333333,4,1,0,90,0,1
75696,-100,4,2,0,50,0,0
77630,-100,4,2,0,5,0,0
78098,-100,4,2,0,15,0,0
78567,-100,4,2,0,20,0,0
79036,-100,4,2,0,25,0,0
79505,-100,4,2,0,70,0,0
81380,-100,4,2,0,60,0,0
81497,-100,4,2,0,70,0,0
83255,-100,4,2,0,60,0,0
83372,-100,4,2,0,70,0,0
85130,-100,4,2,0,60,0,0
85247,-100,4,2,0,70,0,0
88880,-100,4,2,0,60,0,0
88997,-100,4,2,0,70,0,0
90755,-100,4,2,0,60,0,0
90872,-100,4,2,0,70,0,0
92630,-100,4,2,0,60,0,0
92747,-100,4,2,0,70,0,0
102005,-100,4,2,0,80,0,0
109505,-100,4,2,0,80,0,0
117005,-100,4,1,0,70,0,0
122630,-100,4,1,0,60,0,0
124505,-83.3333333333333,4,1,0,80,0,1
132005,-83.3333333333333,4,1,0,85,0,1
135755,-83.3333333333333,4,1,0,90,0,1
138567,-83.3333333333333,4,1,0,70,0,1
138801,-83.3333333333333,4,1,0,80,0,1
139036,-83.3333333333333,4,1,0,90,0,1
139505,-100,4,2,0,80,0,0
150755,-100,4,1,0,80,0,0
153567,-100,4,1,0,70,0,0
154505,-125,4,2,0,40,0,0
156380,-125,4,2,0,50,0,0
158255,-111.111111111111,4,2,0,60,0,0
160130,-111.111111111111,4,2,0,70,0,0
162005,-100,4,1,0,70,0,0
163880,-100,4,1,0,75,0,0
165755,-100,4,1,0,80,0,0
167630,-100,4,1,0,70,0,0
168567,-100,4,1,0,80,0,0
169505,-76.9230769230769,4,1,0,80,0,1
199505,-100,4,2,0,40,0,0
199622,-100,4,2,0,5,0,0

[Colours]
Combo1 : 36,251,198
Combo2 : 188,145,253
Combo3 : 242,132,57
Combo4 : 249,83,129
Combo5 : 255,211,79
Combo6 : 132,83,232
SliderBorder : 255,255,255
SliderTrackOverride : 0,0,0

[HitObjects]
256,192,12005,12,2,15286,0:0:0:0:
256,128,15755,6,0,L|256:32,2,96,2|0|0,0:0|0:0|0:0,0:0:0:0:
200,192,16692,2,0,B|236:192|256:218|256:218|276:192|312:192,1,128,2|0,0:0|0:0,0:0:0:0:
368,256,17395,1,0,0:0:0:0:
424,192,17630,2,0,P|436:163|424:134,1,64,2|0,0:0|0:0,0:0:0:0:
368,256,18098,2,0,P|356:285|368:314,1,64,0|0,0:0|0:0,0:0:0:0:
424,377,18567,2,0,P|368:350|312:377,1,128,2|0,0:0|0:0,0:0:0:0:
256,313,19270,1,0,0:0:0:0:
199,249,19505,6,0,P|256:158|313:249,1,256,4|2,0:0|0:0,0:0:0:0:
256,313,20676,1,0,0:0:0:0:
199,249,20911,2,0,L|153:203,1,64,0|0,0:0|0:0,0:0:0:0:
212,144,21380,2,0,B|201:114|201:114|212:84,1,64,2|0,0:0|0:0,0:0:0:0:
300,84,21848,2,0,B|311:114|311:114|300:144,1,64,0|2,0:0|0:0,0:0:0:0:
358,203,22317,2,0,L|313:249,1,64,2|0,0:0|0:0,0:0:0:0:
256,313,22786,1,2,0:0:0:0:
256,313,23255,6,0,B|228:313|228:313|192:313|169:342,2,96,2|0|0,0:0|0:0|0:0,0:0:0:0:
256,229,24192,2,0,B|278:273|326:273|326:273|366:273,1,128,2|0,0:0|0:0,0:0:0:0:
388,192,24895,1,0,0:0:0:0:
366,110,25130,2,0,B|326:110|326:110|278:110|256:155,1,128,2|0,0:0|0:0,0:0:0:0:
180,192,25833,1,0,0:0:0:0:
104,155,26067,2,0,B|52:192|52:192|104:229,1,128,2|0,0:0|0:0,0:0:0:0:
180,192,26770,1,0,0:0:0:0:
256,229,27005,6,0,P|349:192|256:155,1,256,4|2,0:0|0:0,0:0:0:0:
180,192,28176,1,0,0:0:0:0:
256,229,28411,2,0,L|301:274,1,64,0|0,0:0|0:0,0:0:0:0:
256,155,28880,2,0,L|301:109,1,64,2|0,0:0|0:0,0:0:0:0:
348,192,29348,2,0,L|424:192,1,64,0|2,0:0|0:0,0:0:0:0:
470,133,29817,1,2,0:0:0:0:
412,192,30051,1,0,0:0:0:0:
470,251,30286,1,2,0:0:0:0:
470,251,30755,6,0,B|439:281|439:281|433:281|433:281|428:281|428:281|398:311,1,96,0|0,3:0|0:0,0:0:0:0:
369,339,31223,2,0,B|346:316|346:316|314:316,1,64,0|0,3:0|0:0,0:0:0:0:
249,369,31692,2,0,B|225:348|215:316|215:316|225:284|249:263,1,128,2|2,3:2|3:0,0:0:0:0:
204,192,32395,1,0,0:0:0:0:
249,121,32630,2,0,P|293:104|337:121,1,96,0|0,3:0|0:0,0:0:0:0:
360,156,33098,2,0,P|391:163|422:156,1,64,0|0,3:0|0:0,0:0:0:0:
480,97,33567,2,0,L|344:232,1,192,2|0,3:2|0:0,0:0:0:0:
388,301,34505,6,0,P|344:318|300:301,2,96,4|0|0,3:2|0:0|0:0,0:0:0:0:
432,232,35442,2,0,P|388:249|344:232,2,96,2|0|2,3:0|0:0|0:3,0:0:0:0:
432,152,36380,2,0,P|388:135|344:152,2,96,4|0|0,3:2|0:0|0:0,0:0:0:0:
388,83,37317,2,0,P|344:66|300:83,2,96,2|0|2,3:0|0:0|0:3,0:0:0:0:
344,151,38255,5,0,3:0:0:0:
464,192,38606,1,0,0:0:0:0:
344,233,38958,1,0,0:0:0:0:
421,263,39192,2,0,B|397:313|340:313|340:313|313:313,1,128,2|2,3:2|3:0,0:0:0:0:
240,272,39895,1,0,0:0:0:0:
168,233,40130,5,0,3:0:0:0:
48,192,40481,1,0,0:0:0:0:
168,151,40833,1,0,0:0:0:0:
91,121,41067,2,0,B|115:71|172:71|172:71|198:71,1,128,2|2,3:2|3:0,0:0:0:0:
272,112,41770,1,0,0:0:0:0:
344,151,42005,6,0,B|372:151|372:151|406:151|429:120,2,96,4|0|0,3:2|0:0|0:0,0:0:0:0:
272,192,42942,2,0,L|176:192,2,96,2|0|0,3:0|0:0|0:0,0:0:0:0:
344,233,43880,2,0,B|372:233|372:233|406:233|429:264,2,96,4|0|0,3:2|0:0|0:0,0:0:0:0:
272,272,44817,2,0,B|236:240|221:192|221:192|236:144|272:112,1,192,2|0,3:0|0:0,0:0:0:0:
344,151,45755,6,0,B|352:176|384:192|407:192|407:192|384:192|352:208|344:233,1,160,4|2,3:2|3:0,0:0:0:0:
276,192,46458,1,2,0:0:0:0:
344,151,46692,2,0,B|356:151|356:151|388:151|411:117,1,80,4|0,3:0|0:0,0:0:0:0:
344,233,47161,2,0,B|356:233|356:233|388:233|411:267,1,80,2|0,3:0|0:0,0:0:0:0:
467,323,47630,5,2,3:2:0:0:
410,379,47864,1,0,0:0:0:0:
353,322,48098,2,0,L|295:378,1,80,2|2,3:0|0:0,0:0:0:0:
238,322,48567,2,0,L|180:378,1,80,4|2,3:0|0:0,0:0:0:0:
123,322,49036,1,2,3:0:0:0:
180,266,49270,1,0,0:0:0:0:
123,210,49505,6,0,B|180:153|180:153|180:73,1,160,4|2,3:2|3:0,0:0:0:0:
256,44,50208,1,2,0:0:0:0:
332,73,50442,2,0,B|332:153|332:153|389:210,1,160,4|2,3:0|3:0,0:0:0:0:
332,266,51145,1,0,0:0:0:0:
389,322,51380,6,0,B|416:322|416:322|424:318|424:318|424:326|424:326|432:322|432:322|459:322,1,80,2|0,3:2|0:0,0:0:0:0:
332,266,51848,2,0,B|305:266|305:266|297:262|297:262|297:270|297:270|289:266|289:266|262:266,1,80,2|2,3:0|0:0,0:0:0:0:
389,210,52317,2,0,B|416:210|416:210|424:206|424:206|424:214|424:214|432:210|432:210|459:210,1,80,4|2,3:0|0:0,0:0:0:0:
332,154,52786,2,0,B|305:154|305:154|297:158|297:158|297:150|297:150|289:154|289:154|262:154,1,80,2|0,3:0|0:0,0:0:0:0:
389,98,53255,6,0,B|428:110|441:154|441:154|428:198|389:210,1,160,0|0,0:0|0:0,0:0:0:0:
332,154,53958,1,0,0:0:0:0:
275,210,54192,2,0,B|236:198|223:154|223:154|236:110|275:98,1,160
332,42,54895,1,0,0:0:0:0:
389,98,55130,6,0,L|445:154,1,80,0|0,0:0|0:0,0:0:0:0:
389,210,55598,2,0,L|445:266,1,80,0|0,0:0|0:0,0:0:0:0:
389,322,56067,1,0,0:0:0:0:
332,266,56301,1,0,0:0:0:0:
275,322,56536,2,0,B|234:322|234:322|206:349,1,80,0|0,0:0|0:0,0:0:0:0:
149,292,57005,6,0,L|120:263,7,40,2|0|0|0|2|0|0|0,0:2|0:0|0:0|0:0|0:2|0:0|0:0|0:0,0:0:0:0:
92,235,57942,2,0,L|63:206,7,40,2|0|0|0|2|0|0|0,0:2|0:0|0:0|0:0|0:2|0:0|0:0|0:0,0:0:0:0:
35,178,58880,5,4,1:0:0:0:
256,192,58997,12,4,60286,0:0:0:0:
440,120,60755,6,0,B|440:184|440:184|436:192|436:192|432:200|432:200|432:262,1,143.999995605469,4|2,0:0|0:2,0:0:0:0:
394,299,61223,1,4,0:3:0:0:
319,224,61458,2,0,B|272:200|256:155|256:155|240:200|193:224,1,191.999994140625,2|2,0:2|0:3,0:0:0:0:
118,299,62161,1,4,0:3:0:0:
43,224,62395,1,2,0:3:0:0:
118,149,62630,6,0,B|16:47,1,143.999995605469,4|2,0:2|0:2,0:0:0:0:
53,9,63098,1,4,0:3:0:0:
151,47,63333,2,0,B|208:47|240:96|240:96|328:96,1,191.999994140625,2|2,0:2|0:3,0:0:0:0:
372,192,64036,1,4,0:3:0:0:
325,288,64270,1,2,0:3:0:0:
278,192,64505,6,0,B|208:192|208:192|155:244,1,143.999995605469,4|2,0:2|0:2,0:0:0:0:
118,281,64973,1,4,0:3:0:0:
43,355,65208,2,0,B|-2:333|-12:281|-12:281|-2:229|43:207,1,191.999994140625,2|2,0:2|0:3,0:0:0:0:
118,133,65911,1,4,0:3:0:0:
43,206,66145,1,2,0:3:0:0:
118,133,66380,6,0,B|184:133|184:133|188:129|188:129|192:125|192:125|258:125,1,143.999995605469,4|2,0:2|0:2,0:0:0:0:
295,87,66848,1,4,0:3:0:0:
369,161,67083,2,0,L|233:297,1,191.999994140625,2|2,0:2|0:3,0:0:0:0:
308,368,67786,2,0,B|352:387|352:387|396:368,1,95.9999970703126,4|2,0:3|0:3,0:0:0:0:
352,275,68255,6,0,B|422:275|422:275|474:222,1,143.999995605469,4|2,0:0|0:2,0:0:0:0:
511,185,68723,1,4,0:3:0:0:
432,113,68958,2,0,B|390:85|340:103|340:103|305:62|256:66,1,191.999994140625,2|2,0:2|0:3,0:0:0:0:
187,0,69661,1,4,0:3:0:0:
256,66,69895,1,2,0:3:0:0:
187,135,70130,6,0,B|156:160|156:160|156:224|156:224|187:249,1,143.999995605469,4|2,0:2|0:2,0:0:0:0:
153,283,70598,1,4,0:3:0:0:
221,351,70833,2,0,B|264:374|305:351|313:347|313:347|321:343|362:320|405:343,1,191.999994140625,2|2,0:2|0:3,0:0:0:0:
476,280,71536,2,0,B|495:236|495:236|476:192,1,95.9999970703126,4|2,0:3|0:3,0:0:0:0:
404,41,72005,6,0,B|385:85|385:85|404:129,1,95.9999970703126,4|2,0:2|0:3,0:0:0:0:
404,129,72356,1,2,0:2:0:0:
404,129,72473,1,4,0:3:0:0:
333,192,72708,2,0,B|250:192|250:192|242:196|242:196|242:188|242:188|234:192|234:192|151:192,1,191.999994140625,4|2,0:2|0:3,0:0:0:0:
64,148,73411,2,0,P|47:192|64:236,1,95.9999970703126,4|2,0:3|0:3,0:0:0:0:
151,280,73880,5,4,0:2:0:0:
172,292,73997,1,0,0:0:0:0:
193,304,74114,1,0,0:0:0:0:
214,316,74231,1,0,0:0:0:0:
235,328,74348,5,4,0:3:0:0:
256,340,74465,1,0,0:0:0:0:
277,352,74583,1,0,0:0:0:0:
298,364,74700,1,0,0:0:0:0:
319,376,74817,6,0,L|357:346,3,47.9999985351563,4|0|0|0,0:2|0:0|0:0|0:0,0:0:0:0:
396,318,75286,5,0,0:0:0:0:
464,250,75520,1,0,0:0:0:0:
396,182,75755,5,2,0:0:0:0:
256,192,77630,12,2,79036,0:0:0:0:
216,120,79505,6,0,P|186:192|216:264,1,160,4|6,3:2|3:0,0:0:0:0:
296,264,80208,2,0,P|326:192|296:120,1,160,2|2,0:0|0:0,0:0:0:0:
256,48,80911,1,6,3:0:0:0:
216,120,81145,1,2,0:0:0:0:
256,48,81380,6,0,L|376:48,1,120,4|2,3:0|0:0,0:0:0:0:
404,19,81848,1,6,3:0:0:0:
460,75,82083,2,0,B|460:115|460:115|484:146,1,80,2|4,0:0|3:0,0:0:0:0:
420,192,82551,1,2,0:0:0:0:
484,238,82786,2,0,B|460:269|460:269|460:309,1,80,6|2,3:0|0:0,0:0:0:0:
404,365,83255,6,0,P|348:384|292:365,1,120,4|2,3:0|0:0,0:0:0:0:
256,352,83723,1,6,3:0:0:0:
199,294,83958,2,0,P|265:253|292:179,1,160,2|2,0:0|0:0,0:0:0:0:
256,108,84661,1,6,3:0:0:0:
219,179,84895,2,0,P|246:253|312:294,1,160,2|2,0:0|0:0,0:0:0:0:
256,352,85598,1,6,3:0:0:0:
256,352,85833,1,2,0:0:0:0:
199,294,86067,6,0,L|142:238,1,80,4|2,3:0|0:0,0:0:0:0:
312,294,86536,2,0,L|369:238,1,80,6|2,3:0|0:0,0:0:0:0:
256,236,87005,6,0,L|256:76,1,160,4|6,3:2|3:0,0:0:0:0:
184,108,87708,2,0,B|256:143|256:143|328:108,1,160,2|2,0:0|0:0,0:0:0:0:
384,51,88411,1,6,3:0:0:0:
441,109,88645,1,2,0:0:0:0:
384,167,88880,6,0,L|468:251,1,120,4|2,3:0|0:0,0:0:0:0:
497,280,89348,1,6,3:0:0:0:
440,336,89583,2,0,B|384:336|384:336|332:336|300:284,1,160,2|2,0:0|0:0,0:0:0:0:
256,216,90286,1,6,3:0:0:0:
300,148,90520,1,2,0:0:0:0:
256,80,90755,5,4,3:0:0:0:
212,148,90989,2,0,B|256:215|256:215|300:148,1,160,2|2,0:0|0:0,0:0:0:0:
344,80,91692,1,4,3:0:0:0:
388,148,91926,2,0,L|299:282,1,160,2|2,0:0|0:0,0:0:0:0:
256,348,92630,1,4,3:0:0:0:
213,282,92864,2,0,L|124:148,1,160,2|2,0:0|0:0,0:0:0:0:
168,80,93567,5,4,3:0:0:0:
212,148,93801,1,2,0:0:0:0:
256,80,94036,1,6,3:0:0:0:
300,148,94270,1,2,0:0:0:0:
344,80,94505,6,0,B|383:80|383:80|412:109,1,80,4|2,3:2|0:0,0:0:0:0:
476,156,94973,2,0,B|458:192|458:192|476:228,1,80,6|2,3:0|0:0,0:0:0:0:
412,275,95442,2,0,B|383:304|383:304|344:304,1,80,4|2,3:0|0:0,0:0:0:0:
300,236,95911,1,6,3:0:0:0:
364,192,96145,1,2,0:0:0:0:
300,148,96380,6,0,P|228:118|156:148,1,160,4|6,3:2|3:0,0:0:0:0:
88,192,97083,1,2,0:0:0:0:
156,236,97317,1,4,3:0:0:0:
156,236,97551,2,0,P|228:266|300:236,1,160,2|2,0:0|0:0,0:0:0:0:
364,192,98255,6,0,L|444:192,1,80,4|2,3:2|0:0,0:0:0:0:
300,236,98723,2,0,L|356:292,1,80,6|2,3:0|0:0,0:0:0:0:
256,300,99192,2,0,L|256:380,1,80,4|2,3:0|0:0,0:0:0:0:
212,236,99661,2,0,L|155:292,1,80,6|2,3:0|0:0,0:0:0:0:
148,192,100130,6,0,L|68:192,1,80,4|2,3:2|0:0,0:0:0:0:
212,148,100598,2,0,L|155:91,1,80,6|2,3:0|0:0,0:0:0:0:
256,84,101067,2,0,L|256:4,1,80,4|2,3:0|0:0,0:0:0:0:
300,148,101536,2,0,L|356:91,1,80,4|2,3:0|0:0,0:0:0:0:
364,192,102005,5,4,3:2:0:0:
300,236,102239,1,2,0:0:0:0:
256,300,102473,1,6,3:0:0:0:
212,236,102708,1,2,0:0:0:0:
148,192,102942,6,0,B|192:140|192:140|168:94|192:52,1,160,4|6,3:0|3:0,0:0:0:0:
256,96,103645,1,2,0:0:0:0:
320,52,103880,2,0,B|344:94|320:140|320:140|364:192,1,160,4|6,3:2|3:0,0:0:0:0:
428,236,104583,1,0,0:0:0:0:
492,192,104817,2,0,B|533:148|533:148|492:104,1,120,4|2,3:0|0:0,0:0:0:0:
472,72,105286,2,0,B|432:72|432:72|403:100,1,80,4|2,3:0|0:0,0:0:0:0:
344,151,105755,5,4,3:2:0:0:
296,88,105989,1,2,0:0:0:0:
216,88,106223,1,6,3:0:0:0:
168,151,106458,1,2,0:0:0:0:
108,100,106692,2,0,B|80:72|80:72|40:72,2,80,4|2|6,3:0|0:0|3:0,0:0:0:0:
168,151,107395,1,2,0:0:0:0:
216,88,107630,5,4,3:2:0:0:
256,244,108098,1,6,3:0:0:0:
296,88,108567,2,0,L|314:10,1,80,4|2,3:0|0:0,0:0:0:0:
197,10,109036,2,0,L|216:88,1,80,6|2,3:0|0:0,0:0:0:0:
168,151,109505,6,0,B|160:176|128:192|105:192|105:192|128:192|160:208|168:233,1,160,4|2,3:2|3:0,0:0:0:0:
236,192,110208,1,2,0:0:0:0:
168,151,110442,2,0,B|156:151|156:151|124:151|101:117,1,80,4|0,3:0|0:0,0:0:0:0:
168,233,110911,2,0,B|156:233|156:233|124:233|101:267,1,80,2|0,3:0|0:0,0:0:0:0:
45,323,111380,5,2,3:2:0:0:
102,379,111614,1,0,0:0:0:0:
159,322,111848,2,0,L|217:378,1,80,2|2,3:0|0:0,0:0:0:0:
274,322,112317,2,0,L|332:378,1,80,4|2,3:0|0:0,0:0:0:0:
389,322,112786,1,2,3:0:0:0:
332,266,113020,1,0,0:0:0:0:
389,210,113255,6,0,B|332:153|332:153|332:73,1,160,4|2,3:2|3:0,0:0:0:0:
256,44,113958,1,2,0:0:0:0:
180,73,114192,2,0,B|180:153|180:153|123:210,1,160,4|2,3:0|3:0,0:0:0:0:
180,266,114895,1,0,0:0:0:0:
123,322,115130,6,0,B|96:322|96:322|88:318|88:318|88:326|88:326|80:322|80:322|53:322,1,80,2|0,3:2|0:0,0:0:0:0:
180,266,115598,2,0,B|207:266|207:266|215:262|215:262|215:270|215:270|223:266|223:266|250:266,1,80,2|2,3:0|0:0,0:0:0:0:
123,210,116067,2,0,B|96:210|96:210|88:206|88:206|88:214|88:214|80:210|80:210|53:210,1,80,4|2,3:0|0:0,0:0:0:0:
180,154,116536,2,0,B|207:154|207:154|215:158|215:158|215:150|215:150|223:154|223:154|250:154,1,80,2|0,3:0|0:0,0:0:0:0:
123,98,117005,6,0,B|84:110|71:154|71:154|84:198|123:210,1,160,0|0,0:0|0:0,0:0:0:0:
180,154,117708,1,0,0:0:0:0:
237,210,117942,2,0,B|276:198|289:154|289:154|276:110|237:98,1,160
180,42,118645,1,0,0:0:0:0:
123,98,118880,6,0,L|67:154,1,80,0|0,0:0|0:0,0:0:0:0:
123,210,119348,2,0,L|67:266,1,80,0|0,0:0|0:0,0:0:0:0:
123,322,119817,1,0,0:0:0:0:
180,266,120051,1,0,0:0:0:0:
237,322,120286,2,0,B|278:322|278:322|306:349,1,80,0|0,0:0|0:0,0:0:0:0:
363,292,120755,6,0,L|392:263,7,40,2|0|0|0|2|0|0|0,0:2|0:0|0:0|0:0|0:2|0:0|0:0|0:0,0:0:0:0:
420,235,121692,2,0,L|449:206,7,40,2|0|0|0|2|0|0|0,0:2|0:0|0:0|0:0|0:2|0:0|0:0|0:0,0:0:0:0:
477,178,122630,5,4,0:2:0:0:
256,192,122747,12,4,124036,0:0:0:0:
72,120,124505,6,0,B|72:184|72:184|76:192|76:192|80:200|80:200|80:262,1,143.999995605469,4|2,0:0|0:2,0:0:0:0:
118,299,124973,1,4,0:3:0:0:
193,224,125208,2,0,B|240:200|256:155|256:155|272:200|319:224,1,191.999994140625,2|2,0:2|0:3,0:0:0:0:
394,299,125911,1,4,0:3:0:0:
469,224,126145,1,2,0:3:0:0:
394,149,126380,6,0,B|496:47,1,143.999995605469,4|2,0:2|0:2,0:0:0:0:
459,9,126848,1,4,0:3:0:0:
361,47,127083,2,0,B|304:47|272:96|272:96|184:96,1,191.999994140625,2|2,0:2|0:3,0:0:0:0:
140,192,127786,1,4,0:3:0:0:
187,288,128020,1,2,0:3:0:0:
234,192,128255,6,0,B|304:192|304:192|357:244,1,143.999995605469,4|2,0:2|0:2,0:0:0:0:
394,281,128723,1,4,0:3:0:0:
469,355,128958,2,0,B|514:333|524:281|524:281|514:229|469:207,1,191.999994140625,2|2,0:2|0:3,0:0:0:0:
394,133,129661,1,4,0:3:0:0:
469,206,129895,1,2,0:3:0:0:
394,133,130130,6,0,B|328:133|328:133|324:129|324:129|320:125|320:125|254:125,1,143.999995605469,4|2,0:2|0:2,0:0:0:0:
217,87,130598,1,4,0:3:0:0:
143,161,130833,2,0,L|279:297,1,191.999994140625,2|2,0:2|0:3,0:0:0:0:
204,368,131536,2,0,B|160:387|160:387|116:368,1,95.9999970703126,4|2,0:3|0:3,0:0:0:0:
160,275,132005,6,0,B|90:275|90:275|38:222,1,143.999995605469,4|2,0:0|0:2,0:0:0:0:
1,185,132473,1,4,0:3:0:0:
80,113,132708,2,0,B|122:85|172:103|172:103|207:62|256:66,1,191.999994140625,2|2,0:2|0:3,0:0:0:0:
325,0,133411,1,4,0:3:0:0:
256,66,133645,1,2,0:3:0:0:
325,135,133880,6,0,B|356:160|356:160|356:224|356:224|325:249,1,143.999995605469,4|2,0:2|0:2,0:0:0:0:
359,283,134348,1,4,0:3:0:0:
291,351,134583,2,0,B|248:374|207:351|199:347|199:347|191:343|150:320|107:343,1,191.999994140625,2|2,0:2|0:3,0:0:0:0:
36,280,135286,2,0,B|17:236|17:236|36:192,1,95.9999970703126,4|2,0:3|0:3,0:0:0:0:
108,41,135755,6,0,B|127:85|127:85|108:129,1,95.9999970703126,4|2,0:2|0:3,0:0:0:0:
108,129,136106,1,2,0:2:0:0:
108,129,136223,1,4,0:3:0:0:
179,192,136458,2,0,B|262:192|262:192|270:196|270:196|270:188|270:188|278:192|278:192|361:192,1,191.999994140625,4|2,0:2|0:3,0:0:0:0:
448,148,137161,2,0,P|465:192|448:236,1,95.9999970703126,4|2,0:3|0:3,0:0:0:0:
361,280,137630,5,4,0:2:0:0:
340,292,137747,1,0,0:0:0:0:
319,304,137864,1,0,0:0:0:0:
298,316,137981,1,0,0:0:0:0:
277,328,138098,5,4,0:3:0:0:
256,340,138215,1,0,0:0:0:0:
235,352,138333,1,0,0:0:0:0:
214,364,138450,1,0,0:0:0:0:
193,376,138567,6,0,L|155:346,3,47.9999985351563,4|0|0|0,0:2|0:0|0:0|0:0,0:0:0:0:
116,318,139036,5,0,0:0:0:0:
48,250,139270,1,0,0:0:0:0:
116,182,139505,6,0,B|146:130|146:130|116:78,1,120,4|2,0:0|0:0,0:0:0:0:
216,182,140208,2,0,P|190:234|216:286,2,120,2|2|2,0:0|0:0|0:0,0:0:0:0:
256,112,141145,1,2,0:3:0:0:
296,182,141380,6,0,P|322:234|296:286,1,120,4|2,3:0|0:0,0:0:0:0:
396,182,142083,2,0,B|366:130|366:130|396:78,2,120,2|2|2,0:0|0:0|0:0,0:0:0:0:
456,130,143020,1,2,0:3:0:0:
396,182,143255,6,0,B|396:236|396:236|400:240|400:240|404:244|404:244|404:298,1,120,4|2,0:0|0:0,0:0:0:0:
336,130,143958,2,0,B|336:76|336:76|340:72|340:72|344:68|344:68|344:13,2,120,2|2|2,0:0|0:0|0:0,0:0:0:0:
256,130,144895,1,2,0:3:0:0:
176,130,145130,6,0,B|176:76|176:76|172:72|172:72|168:68|168:68|168:13,1,120,4|2,3:0|0:0,0:0:0:0:
116,182,145833,2,0,B|116:236|116:236|112:240|112:240|108:244|108:244|108:298,2,120,2|2|2,0:0|0:0|0:0,0:0:0:0:
56,130,146770,1,2,0:3:0:0:
116,78,147005,6,0,B|136:32|188:32|188:32|216:32,1,120,4|2,3:2|3:2,0:0:0:0:
396,78,147708,2,0,B|376:32|324:32|324:32|295:32,2,120,2|2|2,3:2|0:0|0:0,0:0:0:0:
456,130,148645,1,2,3:0:0:0:
396,182,148880,6,0,B|376:228|324:228|324:228|295:228,1,120,4|2,3:0|0:0,0:0:0:0:
116,182,149583,2,0,B|136:228|188:228|188:228|216:228,2,120,2|2|2,0:0|0:0|0:0,0:0:0:0:
56,130,150520,1,2,0:3:0:0:
116,78,150755,5,4,0:2:0:0:
216,228,151223,1,2,0:2:0:0:
256,296,151458,1,2,0:2:0:0:
295,228,151692,1,2,0:3:0:0:
396,78,152161,1,2,0:3:0:0:
256,152,152630,6,0,L|256:192,7,40,6|0|0|0|2|0|0|0,0:2|0:0|0:0|0:0|0:2|0:0|0:0|0:0,0:0:0:0:
256,232,153567,2,0,L|256:272,7,40,4|0|0|0|2|0|0|0,0:2|0:0|0:0|0:0|0:2|0:0|0:0|0:0,0:0:0:0:
256,312,154505,5,4,1:0:0:0:
256,192,162005,12,4,169036,0:0:0:0:
186,120,169505,6,0,P|160:192|186:263,1,155.999992858887,4|2,0:0|0:2,0:0:0:0:
208,315,169973,1,4,0:3:0:0:
99,291,170208,2,0,P|71:191|98:92,1,207.999990478516,2|2,0:2|0:3,0:0:0:0:
160,192,170911,2,0,B|188:192|208:209|208:209|228:192|256:192,1,103.999995239258,4|2,0:3|0:3,0:0:0:0:
326,264,171380,6,0,P|352:191|326:120,1,155.999992858887,4|2,0:2|0:2,0:0:0:0:
304,69,171848,1,4,0:3:0:0:
413,93,172083,2,0,P|440:192|413:291,1,207.999990478516,2|2,0:2|0:3,0:0:0:0:
352,192,172786,2,0,B|324:192|304:175|304:175|284:192|256:192,1,103.999995239258,4|2,0:3|0:3,0:0:0:0:
186,120,173255,6,0,B|112:120|112:120|54:177,1,155.999992858887,4|2,0:2|0:2,0:0:0:0:
94,218,173723,1,4,0:3:0:0:
186,285,173958,2,0,B|232:308|256:359|256:359|280:308|326:285,1,207.999990478516,2|2,0:2|0:3,0:0:0:0:
256,203,174661,1,4,0:3:0:0:
325,120,174895,1,2,0:3:0:0:
325,120,175012,1,0,0:0:0:0:
326,120,175130,6,0,B|400:120|400:120|457:177,1,155.999992858887,4|2,0:2|0:2,0:0:0:0:
418,218,175598,1,4,0:3:0:0:
326,285,175833,2,0,B|280:308|256:359|256:359|232:308|186:285,1,207.999990478516,2|2,0:2|0:3,0:0:0:0:
256,203,176536,1,4,0:3:0:0:
187,120,176770,1,2,0:3:0:0:
187,120,176887,1,0,0:0:0:0:
187,120,177005,6,0,P|256:89|325:120,1,155.999992858887,4|2,0:0|0:2,0:0:0:0:
365,160,177473,1,4,0:3:0:0:
256,203,177708,2,0,L|122:43,1,207.999990478516,2|2,0:2|0:3,0:0:0:0:
32,112,178411,2,0,L|98:191,1,103.999995239258,4|2,0:3|0:3,0:0:0:0:
187,264,178880,6,0,P|256:295|325:264,1,155.999992858887,4|2,0:2|0:2,0:0:0:0:
365,224,179348,1,4,0:3:0:0:
256,181,179583,2,0,L|122:340,1,207.999990478516,2|2,0:2|0:3,0:0:0:0:
32,272,180286,2,0,L|98:192,1,103.999995239258,4|2,0:3|0:3,0:0:0:0:
187,120,180755,6,0,B|228:120|256:89|256:89|284:120|325:120,1,155.999992858887,4|2,0:2|0:2,0:0:0:0:
365,160,181223,1,4,0:3:0:0:
446,78,181458,2,0,B|446:173|446:173|450:181|450:181|454:189|454:189|454:285,1,207.999990478516,2|2,0:2|0:3,0:0:0:0:
372,365,182161,1,4,0:3:0:0:
291,284,182395,1,2,0:3:0:0:
291,284,182512,1,0,0:0:0:0:
291,284,182630,6,0,B|260:260|256:217|256:217|252:260|221:284,1,155.999992858887,4|2,0:2|0:2,0:0:0:0:
256,328,183098,1,4,0:3:0:0:
348,212,183333,2,0,B|256:164|256:164|164:212,1,207.999990478516,2|2,0:2|0:3,0:0:0:0:
208,104,184036,2,0,B|256:84|256:84|304:104,1,103.999995239258,4|2,0:3|0:3,0:0:0:0:
326,81,184387,1,0,0:0:0:0:
348,58,184505,6,0,P|412:96|476:58,1,155.999992858887,4|2,0:0|0:2,0:0:0:0:
508,12,184973,1,4,0:3:0:0:
412,96,185208,2,0,B|372:192|372:192|412:288,1,207.999990478516,2|2,0:2|0:3,0:0:0:0:
508,372,185911,1,4,0:3:0:0:
412,288,186145,1,2,0:3:0:0:
316,371,186380,6,0,L|191:277,1,155.999992858887,4|2,0:2|0:2,0:0:0:0:
151,236,186848,1,4,0:3:0:0:
264,236,187083,2,0,L|98:111,1,207.999990478516,2|2,0:2|0:3,0:0:0:0:
16,192,187786,1,4,0:3:0:0:
98,111,188020,1,2,0:3:0:0:
196,13,188255,6,0,L|321:107,1,155.999992858887,4|2,0:2|0:2,0:0:0:0:
361,148,188723,1,4,0:3:0:0:
248,148,188958,2,0,L|414:273,1,207.999990478516,2|2,0:2|0:3,0:0:0:0:
496,192,189661,1,4,0:3:0:0:
414,273,189895,1,2,0:3:0:0:
316,371,190130,6,0,B|280:316|224:316|224:316|180:316,1,155.999992858887,4|2,0:2|0:2,0:0:0:0:
140,276,190598,1,4,0:3:0:0:
60,192,190833,2,0,B|88:144|140:130|140:130|192:144|220:192,1,207.999990478516,2|2,0:2|0:3,0:0:0:0:
256,84,191536,1,4,0:3:0:0:
291,192,191770,1,2,0:3:0:0:
291,192,191887,1,0,0:0:0:0:
291,192,192005,6,0,L|402:81,1,155.999992858887,4|2,0:2|0:2,0:0:0:0:
442,41,192473,1,4,0:3:0:0:
508,136,192708,2,0,B|472:184|424:192|424:192|472:200|508:248,1,207.999990478516,2|2,0:2|0:3,0:0:0:0:
442,343,193411,1,4,0:3:0:0:
376,248,193645,1,2,0:3:0:0:
310,343,193880,6,0,P|256:296|202:343,1,155.999992858887,4|2,0:2|0:2,0:0:0:0:
161,302,194348,1,4,0:3:0:0:
79,220,194583,2,0,B|48:172|80:104|148:104|148:104|189:104,1,207.999990478516,2|2,0:2|0:3,0:0:0:0:
256,8,195286,1,4,0:3:0:0:
322,104,195520,1,2,0:3:0:0:
256,200,195755,6,0,L|366:310,1,155.999992858887,4|2,0:2|0:2,0:0:0:0:
400,356,196223,1,4,0:3:0:0:
488,280,196458,2,0,B|504:240|480:204|454:192|454:192|480:180|504:144|488:104,1,207.999990478516,2|2,0:2|0:3,0:0:0:0:
400,28,197161,1,4,0:3:0:0:
322,104,197395,1,2,0:3:0:0:
322,104,197512,1,0,0:0:0:0:
322,104,197630,6,0,P|256:140|190:104,2,155.999992858887,4|2|2,0:2|0:2|0:2,0:0:0:0:
396,192,198567,1,0,0:0:0:0:
396,192,198684,1,2,0:2:0:0:
396,192,198801,1,2,0:3:0:0:
322,280,199036,1,4,0:3:0:0:
248,192,199270,1,2,0:3:0:0:
248,192,199387,1,0,0:0:0:0:
248,192,199505,5,4,0:1:0:0:
256,192,199622,12,0,205598,0:0:0:0:
