osu file format v14

[General]
AudioFilename: audio.mp3
AudioLeadIn: 0
PreviewTime: 45637
Countdown: 0
SampleSet: Soft
StackLeniency: 0.7
Mode: 0
LetterboxInBreaks: 0
WidescreenStoryboard: 1

[Editor]
Bookmarks: 15755,30755,45755,79505,94505,109505,139505,154505,169505,184505,199505
DistanceSpacing: 1
BeatDivisor: 4
GridSize: 4
TimelineZoom: 2

[Metadata]
Title:Alive
TitleUnicode:Alive
Artist:Krewella
ArtistUnicode:Krewella
Creator:Mao
Version:Easy
Source:
Tags:Jahan Jasmine Yousaf Get Wet Desperate-kun Plaudible Gero Kristopher Trindl Rain Man
BeatmapID:1484344
BeatmapSetID:532713

[Difficulty]
HPDrainRate:2
CircleSize:3
OverallDifficulty:2
ApproachRate:3
SliderMultiplier:1.1
SliderTickRate:1

[Events]
//Background and Video events
0,0,"bg.jpg",0,0
//Break Periods
2,76223,78065
2,155911,160565
//Storyboard Layer 0 (Background)
//Storyboard Layer 1 (Fail)
//Storyboard Layer 2 (Pass)
//Storyboard Layer 3 (Foreground)
//Storyboard Sound Samples

[TimingPoints]
755,468.75,4,2,0,25,1,0
15755,-100,4,2,0,25,0,0
19505,-100,4,2,0,35,0,0
19622,-100,4,2,0,25,0,0
22786,-100,4,2,0,30,0,0
23255,-100,4,2,0,25,0,0
27005,-100,4,2,0,35,0,0
27122,-100,4,2,0,25,0,0
30286,-100,4,2,0,30,0,0
30755,-100,4,2,0,60,0,0
32161,-100,4,2,0,50,0,0
32278,-100,4,2,0,60,0,0
34036,-100,4,2,0,50,0,0
34153,-100,4,2,0,60,0,0
34505,-100,4,2,0,50,0,0
34622,-100,4,2,0,60,0,0
36145,-100,4,2,0,50,0,0
36497,-100,4,2,0,60,0,0
38020,-100,4,2,0,50,0,0
38255,-100,4,2,0,60,0,0
39661,-100,4,2,0,50,0,0
39778,-100,4,2,0,60,0,0
41536,-100,4,2,0,50,0,0
41653,-100,4,2,0,60,0,0
43880,-100,4,2,0,70,0,0
45286,-100,4,2,0,50,0,0
45755,-100,4,2,0,80,0,0
48567,-100,4,2,0,65,0,0
48684,-100,4,2,0,80,0,0
52317,-100,4,2,0,65,0,0
52434,-100,4,2,0,80,0,0
53255,-100,4,1,0,70,0,0
58880,-100,4,1,0,60,0,0
60755,-100,4,1,0,80,0,1
68255,-100,4,1,0,85,0,1
72005,-100,4,1,0,90,0,1
74817,-100,4,1,0,70,0,1
75051,-100,4,1,0,80,0,1
75286,-100,4,1,0,90,0,1
75696,-100,4,2,0,40,0,0
79505,-100,4,2,0,70,0,0
81380,-100,4,2,0,60,0,0
81497,-100,4,2,0,70,0,0
83255,-100,4,2,0,60,0,0
83372,-100,4,2,0,70,0,0
85130,-100,4,2,0,60,0,0
85247,-100,4,2,0,70,0,0
88880,-100,4,2,0,60,0,0
88997,-100,4,2,0,70,0,0
90755,-100,4,2,0,60,0,0
90872,-100,4,2,0,70,0,0
92630,-100,4,2,0,60,0,0
92747,-100,4,2,0,70,0,0
102005,-100,4,2,0,80,0,0
109505,-100,4,2,0,80,0,0
117005,-100,4,1,0,70,0,0
122630,-100,4,1,0,60,0,0
124505,-100,4,1,0,80,0,1
132005,-100,4,1,0,85,0,1
135755,-100,4,1,0,90,0,1
138567,-100,4,1,0,70,0,1
138801,-100,4,1,0,80,0,1
139036,-100,4,1,0,90,0,1
139505,-100,4,2,0,80,0,0
141380,-100,4,2,0,80,0,0
143255,-100,4,2,0,80,0,0
145130,-100,4,2,0,80,0,0
147005,-100,4,2,0,80,0,0
148880,-100,4,2,0,80,0,0
150755,-100,4,1,0,80,0,0
153567,-100,4,1,0,70,0,0
154505,-100,4,2,0,40,0,0
156380,-100,4,2,0,50,0,0
158255,-100,4,2,0,60,0,0
160130,-100,4,2,0,70,0,0
162005,-100,4,1,0,70,0,0
163880,-100,4,1,0,75,0,0
165755,-100,4,1,0,80,0,0
167630,-100,4,1,0,70,0,0
168567,-100,4,1,0,80,0,0
169505,-100,4,1,0,80,0,1
199505,-100,4,2,0,40,0,0
199622,-100,4,2,0,5,0,0

[Colours]
Combo1 : 36,251,198
Combo2 : 188,145,253
Combo3 : 242,132,57
Combo4 : 249,83,129
Combo5 : 255,211,79
Combo6 : 132,83,232
SliderBorder : 255,255,255
SliderTrackOverride : 0,0,0

[HitObjects]
54,45,15755,6,0,P|109:37|206:171,1,220,0|2,0:0|0:0,0:0:0:0:
148,240,17161,1,0,0:0:0:0:
181,344,17630,2,0,P|235:336|293:332,1,110
392,373,18567,1,2,0:0:0:0:
466,291,19036,1,0,0:0:0:0:
362,253,19505,6,0,B|334:226|344:174|383:159|386:160|389:161|428:146|439:94|410:68,1,220,4|0,0:0|0:0,0:0:0:0:
191,49,21380,2,0,P|134:39|68:35,1,110,2|0,0:0|0:0,0:0:0:0:
18,125,22317,1,2,0:0:0:0:
116,173,22786,1,2,0:0:0:0:
47,259,23255,6,0,P|75:308|235:311,1,220,0|2,0:0|0:0,0:0:0:0:
293,234,24661,1,0,0:0:0:0:
213,157,25130,2,0,P|194:106|209:54,1,110,0|0,0:0|0:0,0:0:0:0:
312,16,26067,2,0,L|423:34,1,110,2|0,0:0|0:0,0:0:0:0:
493,116,27005,6,0,B|520:142|510:194|471:209|468:208|465:207|426:222|415:274|444:300,1,220,4|0,0:0|0:0,0:0:0:0:
227,340,28880,2,0,P|177:331|113:337,1,110,2|0,0:0|0:0,0:0:0:0:
14,372,29817,1,2,0:0:0:0:
3,262,30286,1,2,0:0:0:0:
106,223,30755,6,0,P|150:200|196:97,1,165,0|0,3:0|0:0,0:0:0:0:
182,45,31692,1,2,3:2:0:0:
75,18,32161,1,2,3:0:0:0:
4,102,32630,2,0,L|17:273,1,165,0|0,3:0|0:0,0:0:0:0:
25,320,33567,2,0,P|71:324|155:349,1,110,2|2,3:2|3:0,0:0:0:0:
239,366,34505,6,0,P|270:341|232:187,1,220,4|2,3:2|3:0,0:0:0:0:
131,152,35911,1,2,3:2:0:0:
207,73,36380,2,0,P|303:70|437:59,1,220,4|2,3:2|3:0,0:0:0:0:
476,274,38255,6,0,P|431:250|324:276,1,165,0|0,3:0|0:0,0:0:0:0:
285,313,39192,1,2,3:2:0:0:
197,380,39661,1,2,3:0:0:0:
118,302,40130,2,0,L|91:134,1,165,0|0,3:0|0:0,0:0:0:0:
84,84,41067,2,0,P|141:82|200:74,1,110,2|2,3:2|3:0,0:0:0:0:
287,17,42005,6,0,P|314:42|278:206,1,220,4|2,3:2|3:0,0:0:0:0:
193,263,43411,1,2,3:2:0:0:
267,343,43880,2,0,P|378:349|488:321,1,220,4|2,3:2|3:0,0:0:0:0:
493,103,45755,6,0,P|474:74|350:57,1,165,4|2,3:2|0:0,0:0:0:0:
316,94,46692,1,4,3:0:0:0:
255,186,47161,1,2,3:0:0:0:
196,94,47630,2,0,P|138:75|87:60,1,110,2|2,3:2|3:0,0:0:0:0:
23,148,48567,2,0,P|81:167|132:182,1,110,4|2,3:0|3:0,0:0:0:0:
232,216,49505,6,0,P|226:274|254:337,1,110,4|2,3:2|3:0,0:0:0:0:
290,350,50208,1,2,0:0:0:0:
343,360,50442,2,0,L|464:346,1,110,4|2,3:0|3:0,0:0:0:0:
500,251,51380,2,0,P|480:214|412:194,1,110,2|2,3:2|3:0,0:0:0:0:
309,210,52317,2,0,P|256:196|227:151,1,110,4|2,3:0|3:0,0:0:0:0:
209,42,53255,5,0,0:0:0:0:
102,13,53723,1,0,0:0:0:0:
20,87,54192,2,0,L|10:211,1,110,0|0,0:0|0:0,0:0:0:0:
0,306,55130,1,0,0:0:0:0:
95,359,55598,1,0,0:0:0:0:
110,249,56067,2,0,L|118:139,1,110,0|0,0:0|0:0,0:0:0:0:
215,86,57005,6,0,B|206:197|206:197|290:263|290:263|281:381,1,330,2|2,0:2|0:2,0:0:0:0:
377,328,58880,2,0,B|382:271|382:271|425:240|425:240|430:189|430:189|473:154|473:154|483:107|483:107|448:51,1,330,4|0,0:2|0:0,0:0:0:0:
341,25,60755,6,0,P|308:40|279:160,1,165,4|2,0:0|0:2,0:0:0:0:
298,205,61692,1,0,0:0:0:0:
402,240,62161,1,4,0:3:0:0:
320,313,62630,2,0,P|232:293|146:285,2,165,4|2|4,0:2|0:2|0:3,0:0:0:0:
410,375,64505,6,0,P|437:344|432:222,1,165,4|2,0:2|0:2,0:0:0:0:
387,198,65442,1,0,0:0:0:0:
279,219,65911,1,4,0:3:0:0:
313,114,66380,2,0,P|364:94|481:78,2,165,4|2|4,0:2|0:2|0:3,0:0:0:0:
279,219,68255,6,0,P|239:232|133:182,1,165,4|2,0:0|0:2,0:0:0:0:
112,132,69192,1,0,0:0:0:0:
5,104,69661,1,4,0:3:0:0:
36,209,70130,2,0,P|53:268|62:370,2,165,4|2|4,0:2|0:2|0:3,0:0:0:0:
5,104,72005,6,0,P|23:76|159:64,1,165,4|4,0:2|0:2,0:0:0:0:
185,89,72942,1,0,0:0:0:0:
237,185,73411,1,4,0:3:0:0:
171,273,73880,2,0,B|282:282|282:282|348:198|348:198|466:207,1,330,4|4,0:0|0:3,0:0:0:0:
497,309,75755,5,0,0:0:0:0:
20,161,79505,6,0,P|32:124|101:94,1,110,4|2,3:2|3:0,0:0:0:0:
144,111,80208,2,0,L|118:278,1,165,2|2,0:0|3:0,0:0:0:0:
214,327,81380,2,0,L|240:160,1,165,4|2,3:0|0:0,0:0:0:0:
250,110,82317,1,0,3:0:0:0:
308,16,82786,1,2,3:0:0:0:
410,57,83255,6,0,P|417:103|413:126,1,55,4|2,3:0|0:0,0:0:0:0:
363,207,83958,1,2,0:0:0:0:
466,245,84427,1,2,0:0:0:0:
461,353,84896,1,0,0:0:0:0:
355,384,85364,1,2,0:0:0:0:
294,294,85833,2,0,P|246:268|137:302,1,165,2|2,0:0|3:0,0:0:0:0:
50,353,87005,6,0,P|20:315|23:240,1,110,4|2,3:2|3:0,0:0:0:0:
38,204,87708,2,0,L|208:161,1,165,2|2,0:0|3:0,0:0:0:0:
283,94,88880,2,0,P|322:147|313:255,1,165,4|2,3:0|0:0,0:0:0:0:
256,333,90051,2,0,L|179:316,1,55,2|2,0:0|3:0,0:0:0:0:
96,352,90755,6,0,P|89:306|93:283,1,55,4|2,3:0|0:0,0:0:0:0:
143,202,91458,1,2,0:0:0:0:
40,164,91927,1,2,0:0:0:0:
45,56,92396,1,0,0:0:0:0:
151,25,92864,1,2,0:0:0:0:
212,115,93333,2,0,P|257:134|369:80,1,165,2|2,0:0|3:0,0:0:0:0:
458,44,94505,6,0,L|484:167,1,110,4|2,3:2|3:0,0:0:0:0:
391,216,95442,2,0,L|365:339,1,110,4|2,3:0|3:0,0:0:0:0:
267,367,96380,1,4,3:2:0:0:
215,270,96848,2,0,P|219:216|254:171,1,110,2|4,3:0|3:0,0:0:0:0:
303,153,97551,1,2,0:0:0:0:
203,21,98255,6,0,L|85:35,1,110,4|2,3:2|3:0,0:0:0:0:
4,97,99192,2,0,P|8:155|46:207,1,110,4|2,3:0|3:0,0:0:0:0:
110,278,100130,1,4,3:2:0:0:
167,184,100598,2,0,P|208:175|274:210,1,110,2|4,3:0|3:0,0:0:0:0:
287,254,101301,1,2,0:0:0:0:
430,336,102005,6,0,L|454:226,1,110,4|2,3:2|3:0,0:0:0:0:
505,131,102942,2,0,P|494:96|419:61,1,110,4|2,3:0|3:0,0:0:0:0:
324,74,103880,1,4,3:2:0:0:
355,179,104348,1,2,3:0:0:0:
248,205,104817,2,0,P|203:209|121:192,1,110,4|4,3:0|0:3,0:0:0:0:
30,184,105755,6,0,L|38:309,1,110,4|2,3:2|3:0,0:0:0:0:
117,368,106692,2,0,P|158:356|226:341,1,110,4|2,3:0|3:0,0:0:0:0:
325,384,107630,1,4,3:2:0:0:
400,303,108098,1,2,3:0:0:0:
300,256,108567,1,4,3:0:0:0:
369,170,109036,1,2,3:0:0:0:
467,218,109505,6,0,P|487:182|462:62,1,165,4|2,0:2|0:0,0:0:0:0:
428,24,110442,1,2,0:3:0:0:
356,107,110911,1,2,0:0:0:0:
277,29,111380,2,0,L|162:12,1,110,4|2,0:0|0:0,0:0:0:0:
105,103,112317,2,0,L|213:119,1,110,2|2,0:3|0:0,0:0:0:0:
297,191,113255,6,0,P|314:254|296:314,1,110,4|0,0:2|0:0,0:0:0:0:
281,346,113958,1,2,0:0:0:0:
229,363,114192,2,0,L|120:346,1,110,2|2,0:3|0:0,0:0:0:0:
53,258,115130,2,0,P|72:213|134:190,1,110,4|2,0:0|0:0,0:0:0:0:
233,212,116067,2,0,P|282:192|305:143,1,110,2|2,0:3|0:0,0:0:0:0:
372,55,117005,5,0,0:0:0:0:
472,99,117473,1,0,0:0:0:0:
407,188,117942,2,0,L|435:304,1,110,0|0,0:0|0:0,0:0:0:0:
342,358,118880,1,0,0:0:0:0:
256,289,119348,1,0,0:0:0:0:
281,181,119817,2,0,L|306:74,1,110,0|0,0:0|0:0,0:0:0:0:
208,23,120755,6,0,B|182:133|182:133|101:201|101:201|77:312,1,330,2|2,0:2|0:2,0:0:0:0:
172,364,122630,2,0,B|184:308|184:308|231:283|231:283|243:233|243:233|291:205|291:205|307:159|307:159|375:134,1,330,4|0,0:2|0:0,0:0:0:0:
473,104,124505,6,0,P|501:154|478:260,1,165,4|2,0:0|0:2,0:0:0:0:
443,295,125442,1,0,0:0:0:0:
351,356,125911,1,4,0:3:0:0:
260,293,126380,2,0,P|212:284|96:311,2,165,4|2|4,0:2|0:2|0:3,0:0:0:0:
356,240,128255,6,0,P|378:201|345:83,1,165,4|2,0:2|0:2,0:0:0:0:
304,62,129192,1,0,0:0:0:0:
226,139,129661,1,4,0:3:0:0:
157,52,130130,2,0,P|59:58|-9:68,2,165,4|2|4,0:2|0:2|0:3,0:0:0:0:
219,142,132005,6,0,P|272:158|372:95,1,165,4|2,0:0|0:2,0:0:0:0:
389,60,132942,1,0,0:0:0:0:
496,36,133411,1,4,0:3:0:0:
464,141,133880,2,0,P|463:213|479:312,2,165,4|2|4,0:2|0:2|0:3,0:0:0:0:
495,35,135755,6,0,P|410:19|347:61,1,165,4|4,0:2|0:2,0:0:0:0:
323,109,136692,1,0,0:0:0:0:
374,206,137161,1,4,0:3:0:0:
297,284,137630,2,0,B|185:275|185:275|119:359|119:359|8:350,1,330,4|4,0:2|0:3,0:0:0:0:
6,240,139505,6,0,P|26:202|148:158,1,165,4|2,0:0|0:0,0:0:0:0:
256,265,140911,1,2,0:0:0:0:
339,336,141380,2,0,P|417:316|466:251,1,165,0|2,3:0|0:0,0:0:0:0:
450,87,142786,1,2,0:0:0:0:
346,123,143255,6,0,P|305:130|168:94,1,165,4|2,0:0|0:0,0:0:0:0:
44,20,144661,1,2,0:0:0:0:
6,123,145130,2,0,P|-1:164|35:301,1,165,0|2,3:0|0:0,0:0:0:0:
172,355,146536,1,2,0:0:0:0:
222,256,147005,6,0,L|201:91,1,165,4|2,3:2|3:2,0:0:0:0:
354,31,148411,1,2,3:2:0:0:
404,128,148880,2,0,L|383:291,1,165,0|2,3:0|0:0,0:0:0:0:
237,368,150286,1,2,3:2:0:0:
143,310,150755,6,0,L|134:193,1,110,4|0,0:2|0:0,0:0:0:0:
232,150,151692,2,0,L|241:267,1,110,2|2,0:3|0:3,0:0:0:0:
338,310,152630,2,0,B|331:198|331:198|416:133|416:133|392:84|392:84|420:30,1,330,2|0,0:2|0:0,0:0:0:0:
512,85,154505,5,4,1:2:0:0:
256,192,162005,12,4,167630,0:2:0:0:
31,75,169505,6,0,P|79:97|147:89,1,110,4|4,0:0|0:3,0:0:0:0:
179,60,170208,2,0,P|228:37|283:41,1,110,2|2,0:2|0:3,0:0:0:0:
329,71,170911,1,4,0:3:0:0:
433,37,171380,2,0,P|454:91|406:198,1,165,4|2,0:2|0:2,0:0:0:0:
369,212,172317,1,0,0:0:0:0:
442,294,172786,1,4,0:3:0:0:
350,355,173255,6,0,P|303:360|242:338,1,110,4|4,0:2|0:3,0:0:0:0:
205,301,173958,2,0,P|158:296|97:318,1,110,2|2,0:2|0:3,0:0:0:0:
68,361,174661,1,4,0:3:0:0:
13,265,175130,2,0,L|7:82,1,165,4|2,0:2|0:2,0:0:0:0:
5,46,176067,1,0,0:0:0:0:
112,24,176536,1,4,0:3:0:0:
175,114,177005,6,0,P|209:120|268:77,1,110,4|4,0:0|0:3,0:0:0:0:
296,31,177708,2,0,P|330:25|389:68,1,110,2|2,0:2|0:3,0:0:0:0:
404,119,178411,1,4,0:3:0:0:
352,216,178880,2,0,L|171:236,1,165,4|2,0:2|0:2,0:0:0:0:
133,243,179817,1,0,0:0:0:0:
100,348,180286,1,4,0:3:0:0:
205,378,180755,6,0,P|240:381|300:335,1,110,4|4,0:2|0:3,0:0:0:0:
322,289,181458,2,0,P|357:286|417:332,1,110,2|2,0:2|0:3,0:0:0:0:
435,379,182161,1,4,0:3:0:0:
493,285,182630,2,0,L|478:108,1,165,4|2,0:2|0:2,0:0:0:0:
474,65,183567,1,0,0:0:0:0:
369,31,184036,1,4,0:3:0:0:
335,135,184505,6,0,P|293:122|232:95,1,110,4|4,0:0|0:3,0:0:0:0:
187,64,185208,1,2,0:2:0:0:
82,29,185676,2,0,L|16:20,2,55,2|4|2,0:3|0:3|0:3,0:0:0:0:
104,79,186380,2,0,P|106:138|49:236,1,165,4|2,0:2|0:2,0:0:0:0:
5,248,187317,1,0,0:0:0:0:
58,344,187786,1,4,0:3:0:0:
158,299,188255,6,0,P|182:272|204:191,1,110,4|4,0:2|0:3,0:0:0:0:
193,148,188958,2,0,P|205:94|239:51,1,110,2|2,0:2|0:3,0:0:0:0:
291,34,189661,1,4,0:3:0:0:
356,122,190130,2,0,L|322:294,1,165,4|2,0:2|0:2,0:0:0:0:
316,338,191067,1,0,0:0:0:0:
420,373,191536,1,4,0:3:0:0:
485,284,192005,6,0,P|498:238|507:177,1,110,4|4,0:2|0:3,0:0:0:0:
495,122,192708,1,2,0:2:0:0:
409,52,193176,2,0,L|347:37,2,55,2|4|2,0:3|0:3|0:3,0:0:0:0:
414,107,193880,2,0,P|401:147|294:198,1,165,4|2,0:2|0:2,0:0:0:0:
244,185,194817,1,0,0:0:0:0:
266,77,195286,1,4,0:3:0:0:
163,36,195755,6,0,P|124:35|56:74,1,110,4|4,0:2|0:3,0:0:0:0:
39,117,196458,2,0,P|38:156|77:224,1,110,2|2,0:2|0:3,0:0:0:0:
117,246,197161,1,4,0:3:0:0:
207,183,197630,2,0,P|235:169|360:227,1,165,4|2,0:2|0:2,0:0:0:0:
366,264,198567,1,0,0:0:0:0:
403,367,199036,1,4,0:3:0:0:
501,317,199505,5,4,0:1:0:0:
