osu file format v14

[General]
AudioFilename: audio.mp3
AudioLeadIn: 0
PreviewTime: 45637
Countdown: 0
SampleSet: Soft
StackLeniency: 0.7
Mode: 0
LetterboxInBreaks: 0
WidescreenStoryboard: 0

[Editor]
Bookmarks: 15755,30755,45755,79505,94505,109505,139505,154505,169505,184505,199505
DistanceSpacing: 0.6
BeatDivisor: 4
GridSize: 4
TimelineZoom: 2

[Metadata]
Title:Alive
TitleUnicode:Alive
Artist:Krewella
ArtistUnicode:Krewella
Creator:Mao
Version:Collab Insane
Source:
Tags:Jahan Jasmine Yousaf Get Wet Desperate-kun Plaudible Gero Kristopher Trindl Rain Man
BeatmapID:1128725
BeatmapSetID:532713

[Difficulty]
HPDrainRate:7
CircleSize:4
OverallDifficulty:7
ApproachRate:8
SliderMultiplier:1.8
SliderTickRate:2

[Events]
//Background and Video events
0,0,"bg.jpg",0,0
//Break Periods
2,76223,78755
//Storyboard Layer 0 (Background)
//Storyboard Layer 1 (Fail)
//Storyboard Layer 2 (Pass)
//Storyboard Layer 3 (Foreground)
//Storyboard Sound Samples

[TimingPoints]
755,468.75,4,2,0,45,1,0
15755,-125,4,2,0,45,0,0
19505,-125,4,2,0,35,0,0
19622,-125,4,2,0,45,0,0
22786,-125,4,2,0,40,0,0
23255,-125,4,2,0,45,0,0
27005,-125,4,2,0,35,0,0
27122,-125,4,2,0,45,0,0
30286,-125,4,2,0,40,0,0
30755,-125,4,2,0,60,0,0
32161,-125,4,2,0,50,0,0
32278,-125,4,2,0,60,0,0
34036,-125,4,2,0,50,0,0
34153,-125,4,2,0,60,0,0
34505,-125,4,2,0,50,0,0
34622,-125,4,2,0,60,0,0
36145,-125,4,2,0,50,0,0
36497,-125,4,2,0,60,0,0
38020,-125,4,2,0,50,0,0
38255,-125,4,2,0,60,0,0
39661,-125,4,2,0,50,0,0
39778,-125,4,2,0,60,0,0
41536,-125,4,2,0,50,0,0
41653,-125,4,2,0,60,0,0
43880,-125,4,2,0,70,0,0
45286,-125,4,2,0,50,0,0
45755,-100,4,2,0,80,0,0
48567,-100,4,2,0,65,0,0
48684,-100,4,2,0,80,0,0
52317,-100,4,2,0,65,0,0
52434,-100,4,2,0,80,0,0
53255,-100,4,1,0,70,0,0
58880,-100,4,1,0,60,0,0
60755,-83.3333333333333,4,1,0,80,0,1
68255,-83.3333333333333,4,1,0,85,0,1
72005,-83.3333333333333,4,1,0,90,0,1
74817,-83.3333333333333,4,1,0,70,0,1
75051,-83.3333333333333,4,1,0,80,0,1
75286,-83.3333333333333,4,1,0,90,0,1
75696,-100,4,2,0,70,0,0
81380,-100,4,2,0,60,0,0
81497,-100,4,2,0,70,0,0
83255,-100,4,2,0,60,0,0
83372,-100,4,2,0,70,0,0
85130,-100,4,2,0,60,0,0
85247,-100,4,2,0,70,0,0
88880,-100,4,2,0,60,0,0
88997,-100,4,2,0,70,0,0
90755,-100,4,2,0,60,0,0
90872,-100,4,2,0,70,0,0
92630,-100,4,2,0,60,0,0
92747,-100,4,2,0,70,0,0
102005,-100,4,2,0,80,0,0
109505,-125,4,2,0,80,0,0
117005,-100,4,1,0,70,0,0
122630,-100,4,1,0,60,0,0
124505,-83.3333333333333,4,1,0,80,0,1
132005,-83.3333333333333,4,1,0,85,0,1
135755,-83.3333333333333,4,1,0,90,0,1
138567,-83.3333333333333,4,1,0,70,0,1
138801,-83.3333333333333,4,1,0,80,0,1
139036,-83.3333333333333,4,1,0,90,0,1
139505,-83.3333333333333,4,2,0,80,0,0
141380,-100,4,2,0,80,0,0
143255,-83.3333333333333,4,2,0,80,0,0
145130,-100,4,2,0,80,0,0
147005,-83.3333333333333,4,2,0,80,0,0
148880,-100,4,2,0,80,0,0
150755,-100,4,1,0,80,0,0
153567,-100,4,1,0,70,0,0
154505,-125,4,2,0,40,0,0
156380,-125,4,2,0,50,0,0
158255,-111.111111111111,4,2,0,60,0,0
160130,-111.111111111111,4,2,0,70,0,0
162005,-100,4,1,0,70,0,0
163880,-100,4,1,0,75,0,0
165755,-100,4,1,0,80,0,0
167630,-100,4,1,0,70,0,0
168567,-100,4,1,0,80,0,0
169505,-76.9230769230769,4,1,0,80,0,1
199505,-100,4,2,0,40,0,0
199622,-100,4,2,0,5,0,0

[Colours]
Combo1 : 36,251,198
Combo2 : 188,145,253
Combo3 : 242,132,57
Combo4 : 249,83,129
Combo5 : 255,211,79
Combo6 : 132,83,232
SliderBorder : 255,255,255
SliderTrackOverride : 0,0,0

[HitObjects]
363,134,15755,6,0,P|324:141|255:161,2,108
446,50,16692,2,0,P|376:41|289:21,1,144,2|0,0:0|0:0,0:0:0:0:
474,168,17630,2,0,P|487:227|432:298,1,144
370,360,18333,1,0,0:0:0:0:
306,286,18567,2,0,P|248:267|172:316,1,144,2|0,0:0|0:0,0:0:0:0:
99,365,19270,1,0,0:0:0:0:
35,290,19505,6,0,B|-1:255|12:187|63:168|67:169|71:170|122:150|136:83|99:48,1,288,4|0,0:0|0:0,0:0:0:0:
39,92,20911,1,0,0:0:0:0:
182,54,21145,1,0,0:0:0:0:
143,196,21380,6,0,P|131:160|125:124,1,72,2|0,0:0|0:0,0:0:0:0:
270,78,21848,2,0,P|263:113|252:147,1,72,0|2,0:0|0:0,0:0:0:0:
180,284,22317,1,2,0:0:0:0:
281,254,22551,1,0,0:0:0:0:
256,356,22786,1,2,0:0:0:0:
415,149,23255,6,0,P|402:102|392:31,2,108
498,222,24192,2,0,P|455:270|416:346,1,144,2|0,0:0|0:0,0:0:0:0:
232,295,25130,2,0,P|167:291|111:352,1,144
113,343,25833,1,0,0:0:0:0:
30,298,26067,2,0,P|26:250|5:150,1,144,2|0,0:0|0:0,0:0:0:0:
61,70,26770,1,0,0:0:0:0:
156,98,27005,6,0,B|205:109|226:175|192:217|188:218|184:219|149:262|171:327|220:339,1,288,4|0,0:0|0:0,0:0:0:0:
257,270,28411,1,0,0:0:0:0:
337,380,28645,1,0,0:0:0:0:
392,253,28880,6,0,P|360:275|336:301,1,72,2|0,0:0|0:0,0:0:0:0:
316,178,29348,2,0,P|312:139|302:105,1,72,0|2,0:0|0:0,0:0:0:0:
397,41,29817,1,2,0:0:0:0:
429,138,30051,1,0,0:0:0:0:
496,61,30286,1,2,0:0:0:0:
211,65,30755,6,0,L|133:50,1,72,0|2,3:0|0:0,0:0:0:0:
27,141,31223,2,0,L|105:126,1,72,0|0,3:0|0:0,0:0:0:0:
231,202,31692,2,0,L|153:187,1,72,2|0,3:2|0:0,0:0:0:0:
47,277,32160,2,0,L|125:262,1,72,2|0,3:0|0:0,0:0:0:0:
313,293,32630,6,0,P|335:320|344:361,1,72,0|2,3:0|0:0,0:0:0:0:
366,232,33098,2,0,P|398:244|426:275,1,72,0|0,3:0|0:0,0:0:0:0:
381,152,33567,2,0,P|415:146|455:159,1,72,2|0,3:2|0:0,0:0:0:0:
353,74,34036,2,0,P|380:52|420:42,1,72,2|0,3:0|0:0,0:0:0:0:
280,204,34505,6,0,P|226:195|174:182,1,108,4|0,3:2|0:0,0:0:0:0:
152,171,34973,1,2,3:2:0:0:
66,253,35208,1,0,0:0:0:0:
32,40,35442,2,0,P|51:90|66:142,1,108,2|0,3:0|0:0,0:0:0:0:
67,167,35910,1,2,3:2:0:0:
150,258,36145,1,2,0:3:0:0:
231,82,36380,6,0,L|343:58,1,108,4|0,3:2|0:0,0:0:0:0:
363,52,36848,1,2,3:2:0:0:
489,16,37083,1,0,0:0:0:0:
507,182,37317,2,0,P|455:160|391:157,1,108,2|0,3:0|0:0,0:0:0:0:
378,166,37786,1,2,3:2:0:0:
428,281,38020,1,2,0:3:0:0:
237,349,38255,6,0,L|159:334,1,72,0|2,3:0|0:0,0:0:0:0:
217,255,38723,2,0,L|163:208,1,72,0|0,3:0|0:0,0:0:0:0:
248,165,39192,2,0,L|221:89,1,72,2|0,3:2|0:0,0:0:0:0:
319,101,39661,2,0,L|332:30,1,72,2|0,3:0|0:0,0:0:0:0:
419,245,40130,6,0,P|453:249|497:229,1,72,0|2,3:0|0:0,0:0:0:0:
347,288,40598,2,0,P|368:314|413:331,1,72,0|0,3:0|0:0,0:0:0:0:
265,267,41067,2,0,P|261:300|281:345,1,72,2|0,3:2|0:0,0:0:0:0:
221,194,41536,2,0,P|194:215|177:260,1,72,2|0,3:0|0:0,0:0:0:0:
20,151,42005,6,0,P|71:151|127:99,1,108,4|0,3:2|0:0,0:0:0:0:
129,95,42473,1,2,3:2:0:0:
39,32,42708,1,0,0:0:0:0:
214,18,42942,2,0,L|226:153,1,108,2|0,3:0|0:0,0:0:0:0:
227,151,43411,1,2,3:2:0:0:
238,254,43645,1,2,0:3:0:0:
455,190,43880,6,0,P|409:209|339:204,1,108,4|0,3:2|0:0,0:0:0:0:
328,195,44348,1,2,3:2:0:0:
359,57,44583,1,0,0:0:0:0:
506,121,44817,2,0,L|477:267,1,144,2|0,3:0|0:0,0:0:0:0:
476,275,45755,6,0,P|399:259|321:326,1,180,4|2,3:2|3:0,0:0:0:0:
220,370,46458,1,2,0:0:0:0:
220,370,46692,2,0,P|125:363|26:359,1,180,4|2,3:0|3:0,0:0:0:0:
11,262,47395,1,0,0:0:0:0:
103,221,47630,6,0,P|152:233|177:264,1,90,2|0,3:2|0:0,0:0:0:0:
129,115,48098,2,0,P|86:106|56:73,1,90,2|2,3:0|0:0,0:0:0:0:
222,51,48567,1,4,3:0:0:0:
234,162,48801,1,2,0:0:0:0:
325,95,49036,2,0,L|333:-1,1,90,2|0,3:0|0:0,0:0:0:0:
471,158,49505,6,0,L|455:353,1,180,4|2,3:2|3:0,0:0:0:0:
333,280,50208,1,2,0:0:0:0:
333,280,50442,2,0,P|257:273|194:358,1,180,4|2,3:0|3:0,0:0:0:0:
100,370,51145,1,0,0:0:0:0:
38,294,51380,6,0,P|30:248|18:203,1,90,2|0,3:2|0:0,0:0:0:0:
167,153,51848,2,0,P|155:196|147:240,1,90,2|2,3:0|0:0,0:0:0:0:
8,34,52317,1,4,3:0:0:0:
67,117,52551,1,2,0:0:0:0:
110,25,52786,2,0,P|154:20|198:11,1,90,2|0,3:0|0:0,0:0:0:0:
342,50,53255,5,0,0:0:0:0:
358,83,53489,1,0,0:0:0:0:
353,120,53723,1,0,0:0:0:0:
329,146,53958,1,0,0:0:0:0:
197,195,54192,5,0,0:0:0:0:
173,221,54427,1,0,0:0:0:0:
168,258,54661,1,0,0:0:0:0:
184,291,54895,1,0,0:0:0:0:
321,337,55130,5,0,0:0:0:0:
411,321,55364,1,0,0:0:0:0:
395,231,55598,1,0,0:0:0:0:
305,247,55833,1,0,0:0:0:0:
373,377,56067,5,0,0:0:0:0:
451,269,56301,1,0,0:0:0:0:
343,191,56536,1,0,0:0:0:0:
265,299,56770,1,0,0:0:0:0:
87,346,57005,5,2,0:2:0:0:
60,329,57122,1,0,0:0:0:0:
45,301,57239,1,0,0:0:0:0:
41,269,57356,1,0,0:0:0:0:
50,239,57473,1,2,0:2:0:0:
69,213,57590,1,0,0:0:0:0:
98,201,57708,1,0,0:0:0:0:
129,201,57825,1,0,0:0:0:0:
158,212,57942,5,2,0:2:0:0:
189,213,58059,1,0,0:0:0:0:
218,201,58176,1,0,0:0:0:0:
237,175,58294,1,0,0:0:0:0:
246,145,58411,1,2,0:2:0:0:
242,113,58528,1,0,0:0:0:0:
227,85,58645,1,0,0:0:0:0:
200,68,58762,1,0,0:0:0:0:
168,61,58880,6,0,L|141:65,23,22.5,4|0|0|0|0|0|0|0|0|0|0|0|0|0|0|0|0|0|0|0|0|0|0|0,0:2|0:0|0:0|0:0|0:0|0:0|0:0|0:0|0:0|0:0|0:0|0:0|0:0|0:0|0:0|0:0|0:0|0:0|0:0|0:0|0:0|0:0|0:0|0:0,0:0:0:0:
340,53,60755,6,0,P|329:131|375:199,1,161.999995056153,4|2,0:0|0:2,0:0:0:0:
373,198,61223,1,4,0:3:0:0:
481,299,61458,2,2,P|400:313|313:333,1,161.999995056153,2|0,0:2|0:2,0:2:0:0:
322,330,61926,1,2,0:3:0:0:
237,232,62161,1,4,0:3:0:0:
194,358,62395,1,2,0:3:0:0:
46,210,62630,6,0,P|33:132|16:42,1,161.999995056153,4|2,0:2|0:2,0:0:0:0:
17,50,63098,1,4,0:3:0:0:
177,110,63333,2,2,P|158:186|141:268,1,161.999995056153,2|0,0:2|0:2,0:2:0:0:
141,267,63801,1,2,0:3:0:0:
340,229,64036,1,4,0:3:0:0:
253,367,64270,1,2,0:3:0:0:
190,170,64505,6,0,P|110:165|48:213,1,161.999995056153,4|2,0:2|0:2,0:0:0:0:
48,213,64973,1,4,0:3:0:0:
199,321,65208,2,2,P|278:325|340:277,1,161.999995056153,2|0,0:2|0:2,0:2:0:0:
340,277,65676,1,2,0:3:0:0:
446,208,65911,1,4,0:3:0:0:
459,331,66145,1,2,0:3:0:0:
343,165,66380,6,0,L|320:1,1,161.999995056153,4|2,0:2|0:2,0:0:0:0:
320,4,66848,1,4,0:3:0:0:
475,113,67083,2,2,L|452:273,1,161.999995056153,2|0,0:2|0:2,0:2:0:0:
452,273,67551,1,2,0:3:0:0:
276,354,67786,1,4,0:3:0:0:
343,165,68020,1,2,0:3:0:0:
365,320,68255,6,0,P|284:309|204:302,1,161.999995056153,4|2,0:0|0:2,0:0:0:0:
204,302,68723,1,4,0:3:0:0:
88,354,68958,2,2,P|35:310|27:222,1,161.999995056153,2|0,0:2|0:2,0:2:0:0:
27,221,69426,1,2,0:3:0:0:
127,149,69661,1,4,0:3:0:0:
12,104,69895,1,2,0:3:0:0:
221,14,70130,6,0,L|205:184,1,161.999995056153,4|2,0:2|0:2,0:0:0:0:
205,175,70598,1,4,0:3:0:0:
192,341,70833,2,2,P|242:310|342:322,1,161.999995056153,2|0,0:2|0:2,0:2:0:0:
340,321,71301,1,2,0:3:0:0:
440,147,71536,1,4,0:3:0:0:
466,350,71770,1,2,0:3:0:0:
326,205,72005,6,0,P|286:163|279:110,1,107.999996704102,4|2,0:2|0:3,0:0:0:0:
285,83,72356,1,2,0:2:0:0:
291,51,72473,1,4,0:3:0:0:
133,16,72708,2,2,L|156:187,1,161.999995056153,4|0,0:2|0:2,0:2:0:0:
154,176,73176,1,2,0:3:0:0:
182,341,73411,1,4,0:3:0:0:
34,278,73645,1,2,0:3:0:0:
251,218,73880,5,4,0:0:0:0:
283,218,73997,1,0,0:0:0:0:
312,231,74114,1,0,0:0:0:0:
333,255,74231,1,0,0:0:0:0:
342,285,74348,1,4,0:3:0:0:
363,309,74465,1,0,0:0:0:0:
392,322,74582,1,0,0:0:0:0:
424,322,74699,1,0,0:0:0:0:
455,312,74817,6,0,L|474:286,15,26.9999991760254,4|0|0|0|0|0|0|0|4|0|0|0|0|0|0|0,0:2|0:0|0:0|0:0|0:0|0:0|0:0|0:0|0:3|0:0|0:0|0:0|0:0|0:0|0:0|1:0,0:0:0:0:
20,278,79505,6,0,P|90:289|186:358,1,180,4|2,3:2|3:0,0:0:0:0:
263,270,80208,2,0,L|249:89,1,180,2|2,0:0|0:0,0:0:0:0:
150,27,80911,2,0,P|101:18|51:42,1,90,2|0,3:0|0:0,0:0:0:0:
256,100,81380,6,0,P|321:106|397:84,1,135,4|2,3:0|0:0,0:0:0:0:
417,69,81848,1,2,0:3:0:0:
502,203,82083,2,0,P|459:191|399:205,1,90,2|0,0:0|3:0,0:0:0:0:
306,359,82551,1,2,0:0:0:0:
306,359,82786,2,0,L|319:259,1,90,2|0,3:0|0:0,0:0:0:0:
190,172,83255,6,0,P|196:224|180:273,1,90,4|2,3:0|0:0,0:0:0:0:
94,374,83723,1,2,3:0:0:0:
27,300,83958,2,0,P|17:256|23:212,1,90,2|0,0:0|3:0,0:0:0:0:
178,156,84426,2,0,L|276:169,1,90,2|2,0:0|3:0,0:0:0:0:
113,44,84895,2,0,L|15:31,1,90,0|4,0:0|3:0,0:0:0:0:
221,56,85364,6,0,P|259:34|304:35,1,90,2|2,0:0|3:0,0:0:0:0:
425,122,85833,2,0,L|433:212,2,90,2|0|0,0:0|3:0|0:0,0:0:0:0:
446,317,86536,1,2,3:0:0:0:
357,278,86770,1,0,0:0:0:0:
357,278,86887,1,0,0:0:0:0:
357,278,87005,6,0,P|275:266|198:336,1,180,4|2,3:2|3:0,0:0:0:0:
89,368,87708,2,0,L|67:186,1,180,2|2,0:0|0:0,0:0:0:0:
48,47,88411,1,2,3:0:0:0:
192,98,88645,1,0,0:0:0:0:
192,98,88762,1,0,0:0:0:0:
192,98,88880,6,0,L|179:232,1,135,4|2,3:0|0:0,0:0:0:0:
177,267,89348,1,2,3:0:0:0:
259,350,89583,2,0,P|315:362|424:300,1,180,2|2,0:0|0:0,0:0:0:0:
312,237,90286,2,0,P|352:203|377:106,1,135,2|0,3:0|0:0,0:0:0:0:
376,90,90755,5,4,3:0:0:0:
219,41,90989,2,0,L|127:24,1,90,2|2,0:0|3:0,0:0:0:0:
17,151,91458,2,0,L|109:134,1,90,2|0,0:0|3:0,0:0:0:0:
190,213,91926,2,0,P|199:261|176:303,1,90,2|2,0:0|3:0,0:0:0:0:
315,364,92395,2,0,P|306:316|329:274,1,90,0|4,0:0|3:0,0:0:0:0:
406,200,92864,6,0,L|496:193,1,90,2|2,0:0|3:0,0:0:0:0:
357,53,93333,2,0,L|267:60,2,90,2|0|0,0:0|3:0|0:0,0:0:0:0:
471,40,94036,1,2,3:0:0:0:
471,40,94270,1,0,0:0:0:0:
427,145,94505,6,0,P|392:177|381:227,1,90,4|0,3:2|0:0,0:0:0:0:
424,342,94973,2,0,P|459:310|470:260,1,90,2|0,3:0|0:0,0:0:0:0:
294,168,95442,2,0,P|279:213|295:262,1,90,4|0,3:0|0:0,0:0:0:0:
410,347,95911,2,0,P|368:355|319:372,1,90,2|0,3:0|0:0,0:0:0:0:
195,289,96380,6,0,P|131:281|6:249,1,180,4|2,3:2|3:0,0:0:0:0:
0,114,97083,1,0,0:0:0:0:
102,18,97317,1,4,3:0:0:0:
102,18,97551,2,0,P|146:58|123:174,1,180,2|0,0:0|0:0,0:0:0:0:
104,296,98255,6,0,P|147:289|198:282,1,90,4|0,3:2|0:0,0:0:0:0:
331,205,98723,2,0,P|286:198|242:191,1,90,2|0,3:0|0:0,0:0:0:0:
275,355,99192,2,0,P|318:348|369:341,1,90,4|0,3:0|0:0,0:0:0:0:
479,290,99661,2,0,P|456:248|459:195,1,90,2|0,3:0|0:0,0:0:0:0:
503,74,100130,6,0,P|415:91|298:103,1,180,4|2,3:2|3:0,0:0:0:0:
232,183,100833,1,0,0:0:0:0:
207,62,101067,1,4,3:0:0:0:
207,62,101301,2,0,P|121:41|49:113,1,180,2|0,0:0|0:0,0:0:0:0:
22,212,102005,5,4,3:2:0:0:
108,364,102239,1,0,0:0:0:0:
128,190,102473,1,2,3:0:0:0:
10,319,102708,1,0,0:0:0:0:
181,284,102942,2,0,B|270:268|266:329|357:313,1,180,4|2,3:0|3:0,0:0:0:0:
458,346,103645,1,0,0:0:0:0:
435,239,103880,6,0,P|431:191|450:156,1,90,4|0,3:2|0:0,0:0:0:0:
331,24,104348,2,0,P|341:68|349:112,1,90,2|0,3:0|0:0,0:0:0:0:
326,264,104817,1,4,3:0:0:0:
326,264,105051,2,0,P|291:206|174:212,1,180,2|0,0:0|0:0,0:0:0:0:
70,358,105755,5,4,3:2:0:0:
236,280,105989,1,0,0:0:0:0:
38,251,106223,1,2,3:0:0:0:
179,375,106458,1,0,0:0:0:0:
160,102,106692,2,0,P|146:192|139:281,1,180,4|2,3:0|3:0,0:0:0:0:
139,280,107395,1,0,0:0:0:0:
268,300,107630,5,4,3:2:0:0:
440,168,108099,1,2,3:0:0:0:
244,84,108567,1,4,3:0:0:0:
72,216,109036,1,2,3:0:0:0:
72,216,109270,1,0,0:0:0:0:
154,153,109505,6,0,L|138:328,1,144,4|0,0:2|0:0,0:0:0:0:
217,365,110208,1,2,0:0:0:0:
217,365,110442,2,0,P|271:358|330:292,1,144,2|2,0:3|0:0,0:0:0:0:
469,152,111380,6,0,L|457:238,1,72,4|0,0:0|0:0,0:0:0:0:
367,108,111848,2,0,L|357:36,1,72,2|0,0:0|0:0,0:0:0:0:
308,197,112317,1,2,0:3:0:0:
259,108,112551,1,2,0:0:0:0:
203,197,112786,2,0,L|212:268,1,72,2|0,0:0|0:0,0:0:0:0:
125,357,113255,6,0,P|80:356|27:263,1,144,4|0,0:2|0:0,0:0:0:0:
39,170,113958,1,2,0:0:0:0:
39,170,114192,2,0,P|91:169|187:105,1,144,2|2,0:3|0:0,0:0:0:0:
459,32,115130,6,0,P|438:72|436:107,1,72,4|0,0:0|0:0,0:0:0:0:
321,92,115598,2,0,P|342:132|344:167,1,72,2|0,0:0|0:0,0:0:0:0:
479,191,116067,2,0,P|458:231|456:266,1,72,2|2,0:3|0:0,0:0:0:0:
341,251,116535,2,0,P|362:291|364:326,1,72,2|0,0:0|0:0,0:0:0:0:
206,369,117005,5,0,0:0:0:0:
210,333,117239,1,0,0:0:0:0:
214,297,117473,1,0,0:0:0:0:
219,261,117708,1,0,0:0:0:0:
268,157,117942,5,0,0:0:0:0:
264,121,118176,1,0,0:0:0:0:
260,85,118410,1,0,0:0:0:0:
255,49,118645,1,0,0:0:0:0:
158,102,118880,5,0,0:0:0:0:
83,49,119114,1,0,0:0:0:0:
30,124,119348,1,0,0:0:0:0:
105,176,119583,1,0,0:0:0:0:
149,36,119817,5,0,0:0:0:0:
17,58,120051,1,0,0:0:0:0:
39,189,120286,1,0,0:0:0:0:
170,168,120520,1,0,0:0:0:0:
372,23,120755,5,2,0:2:0:0:
348,43,120872,1,0,0:0:0:0:
334,71,120989,1,0,0:0:0:0:
335,102,121106,1,0,0:0:0:0:
350,129,121223,1,2,0:2:0:0:
373,150,121340,1,0,0:0:0:0:
402,161,121458,1,0,0:0:0:0:
432,170,121575,1,0,0:0:0:0:
460,183,121692,5,2,0:2:0:0:
479,207,121809,1,0,0:0:0:0:
488,236,121926,1,0,0:0:0:0:
487,267,122044,1,0,0:0:0:0:
479,297,122161,1,2,0:2:0:0:
465,325,122278,1,0,0:0:0:0:
440,345,122395,1,0,0:0:0:0:
410,354,122512,1,0,0:0:0:0:
378,354,122630,6,0,L|342:344,23,22.5,4|0|0|0|0|0|0|0|0|0|0|0|0|0|0|0|0|0|0|0|0|0|0|0,0:2|0:0|0:0|0:0|0:0|0:0|0:0|0:0|0:0|0:0|0:0|0:0|0:0|0:0|0:0|0:0|0:0|0:0|0:0|0:0|0:0|0:0|0:0|0:0,0:0:0:0:
261,177,124505,6,0,L|239:354,1,161.999995056153,4|2,0:0|0:2,0:0:0:0:
241,337,124973,1,4,0:3:0:0:
86,362,125208,2,2,P|48:319|55:213,1,161.999995056153,2|0,0:2|0:2,0:2:0:0:
51,219,125676,1,2,0:3:0:0:
159,169,125911,1,4,0:3:0:0:
26,89,126145,1,2,0:3:0:0:
194,63,126380,6,0,L|360:44,1,161.999995056153,4|2,0:2|0:2,0:0:0:0:
354,44,126848,1,4,0:3:0:0:
490,162,127083,2,2,P|433:145|331:209,1,161.999995056153,2|0,0:2|0:2,0:2:0:0:
344,187,127551,1,2,0:3:0:0:
348,364,127786,1,4,0:3:0:0:
431,249,128020,1,2,0:3:0:0:
259,247,128255,6,0,P|226:171|223:82,1,161.999995056153,4|2,0:2|0:2,0:0:0:0:
221,92,128723,1,4,0:3:0:0:
82,20,128958,2,2,L|50:190,1,161.999995056153,2|0,0:2|0:2,0:2:0:0:
52,179,129426,1,2,0:3:0:0:
162,354,129661,1,4,0:3:0:0:
47,295,129895,1,2,0:3:0:0:
244,254,130130,6,0,P|287:246|383:323,1,161.999995056153,4|2,0:2|0:2,0:0:0:0:
378,309,130598,1,4,0:3:0:0:
486,203,130833,2,2,L|466:32,1,161.999995056153,2|0,0:2|0:2,0:2:0:0:
467,42,131301,1,2,0:3:0:0:
337,161,131536,1,4,0:3:0:0:
273,10,131770,1,2,0:3:0:0:
404,199,132005,6,0,P|329:194|242:233,1,161.999995056153,4|2,0:0|0:2,0:0:0:0:
250,226,132473,1,4,0:3:0:0:
138,362,132708,2,2,L|152:201,1,161.999995056153,2|0,0:2|0:2,0:2:0:0:
152,200,133176,1,2,0:3:0:0:
252,104,133411,1,4,0:3:0:0:
107,71,133645,1,2,0:3:0:0:
294,15,133880,6,0,P|292:100|308:202,1,161.999995056153,4|2,0:2|0:2,0:0:0:0:
301,176,134348,1,4,0:3:0:0:
460,165,134583,2,2,P|462:250|446:352,1,161.999995056153,2|0,0:2|0:2,0:2:0:0:
452,326,135051,1,2,0:3:0:0:
236,364,135286,1,4,0:3:0:0:
303,174,135520,1,2,0:3:0:0:
324,348,135755,6,0,P|296:302|249:277,1,107.999996704102,4|2,0:2|0:3,0:0:0:0:
218,288,136106,1,2,0:2:0:0:
187,299,136223,1,4,0:3:0:0:
37,159,136458,2,2,L|61:320,1,161.999995056153,4|0,0:2|0:2,0:2:0:0:
60,319,136926,1,2,0:3:0:0:
177,384,137161,1,4,0:3:0:0:
251,283,137395,1,2,0:3:0:0:
139,84,137629,5,4,0:0:0:0:
158,112,137746,1,0,0:0:0:0:
185,133,137864,1,0,0:0:0:0:
216,144,137981,1,0,0:0:0:0:
249,142,138098,1,4,0:3:0:0:
279,129,138215,1,0,0:0:0:0:
299,104,138332,1,0,0:0:0:0:
304,72,138449,1,0,0:0:0:0:
290,43,138567,6,0,L|244:32,14,26.9999991760254,4|0|0|0|0|0|0|0|4|0|0|0|0|0|0,0:2|0:0|0:0|0:0|0:0|0:0|0:0|0:0|0:3|0:0|0:0|0:0|0:0|0:0|0:0,0:0:0:0:
326,52,139505,5,4,0:0:0:0:
465,74,139856,1,2,0:0:0:0:
375,183,140208,1,2,0:0:0:0:
169,124,140559,5,0,0:0:0:0:
169,124,140676,2,0,P|122:123|70:159,2,107.999996704102,2|2|2,0:3|0:0|0:3,0:0:0:0:
259,194,141380,6,0,P|253:240|251:287,1,90,0|0,3:0|0:0,0:0:0:0:
269,316,141731,1,2,0:0:0:0:
269,316,141848,2,0,P|224:318|179:323,1,90,0|2,0:0|0:0,0:0:0:0:
78,362,142317,1,0,0:0:0:0:
17,258,142551,2,0,P|61:255|106:250,2,90,2|2|2,0:3|0:0|0:3,0:0:0:0:
124,145,143255,5,4,0:0:0:0:
215,269,143606,1,2,0:0:0:0:
274,129,143958,1,2,0:0:0:0:
465,247,144309,5,0,0:0:0:0:
465,247,144426,2,0,P|454:303|451:355,2,107.999996704102,2|2|2,0:3|0:0|0:3,0:0:0:0:
503,142,145130,6,0,P|455:132|427:101,1,90,0|0,3:0|0:0,0:0:0:0:
429,74,145481,1,2,0:0:0:0:
429,74,145598,2,0,P|390:96|346:92,1,90,0|2,0:0|0:0,0:0:0:0:
243,63,146067,1,0,0:0:0:0:
272,166,146301,2,0,P|223:170|173:180,2,90,2|2|2,0:3|0:0|0:3,0:0:0:0:
136,82,147005,5,4,3:2:0:0:
80,226,147356,1,2,3:2:0:0:
35,56,147708,1,2,3:2:0:0:
182,254,148059,5,0,0:0:0:0:
182,254,148176,2,0,P|179:309|144:351,2,107.999996704102,2|2|2,3:0|3:2|3:0,0:0:0:0:
133,158,148880,6,0,P|180:153|226:144,1,90,0|0,3:0|0:0,0:0:0:0:
250,124,149231,1,2,0:0:0:0:
250,124,149348,2,0,P|255:171|264:217,1,90,0|2,3:0|0:0,0:0:0:0:
295,317,149817,1,0,3:0:0:0:
369,238,150051,2,0,P|417:234|459:255,2,90,2|2|2,0:3|3:2|0:3,0:0:0:0:
329,98,150755,5,4,0:2:0:0:
421,154,150989,1,0,0:0:0:0:
421,154,151106,1,2,0:2:0:0:
421,154,151223,1,0,0:0:0:0:
475,61,151458,1,2,0:2:0:0:
383,5,151692,2,0,P|339:17|290:20,1,90,2|0,0:3|0:0,0:0:0:0:
236,123,152161,2,0,P|191:119|147:107,1,90,2|0,0:3|0:0,0:0:0:0:
41,43,152630,5,2,0:2:0:0:
26,70,152747,1,0,0:0:0:0:
19,100,152864,1,0,0:0:0:0:
24,130,152981,1,0,0:0:0:0:
36,158,153098,1,2,0:2:0:0:
60,177,153215,1,0,0:0:0:0:
72,205,153333,1,0,0:0:0:0:
77,235,153450,1,0,0:0:0:0:
70,265,153567,6,0,L|51:290,16,22.5,4|0|0|0|0|0|0|0|0|0|0|0|0|0|0|0|4,0:2|0:0|0:0|0:0|0:0|0:0|0:0|0:0|0:0|0:0|0:0|0:0|0:0|0:0|0:0|0:0|1:2,0:0:0:0:
384,323,155911,5,0,0:0:0:0:
464,282,156145,1,0,0:0:0:0:
389,237,156380,2,0,P|380:191|379:114,2,108,2|0|0,0:0|0:0|0:0,0:0:0:0:
128,323,157434,5,0,0:0:0:0:
128,323,157551,1,2,0:0:0:0:
44,344,157785,1,2,0:0:0:0:
4,266,158020,1,0,0:0:0:0:
92,237,158255,2,0,P|106:175|106:105,2,121.499996292114,2|2|0,0:0|0:0|0:0,0:0:0:0:
256,30,159309,5,0,0:0:0:0:
256,30,159426,1,2,0:0:0:0:
317,105,159661,1,2,0:0:0:0:
414,104,159895,1,0,0:0:0:0:
461,18,160130,2,0,P|506:71|504:141,2,121.499996292114,2|2|2,0:0|0:0|0:0,0:0:0:0:
364,200,161184,5,0,0:0:0:0:
364,200,161301,1,2,0:0:0:0:
448,249,161536,1,2,0:0:0:0:
358,286,161770,1,0,0:0:0:0:
442,335,162005,5,2,0:2:0:0:
442,335,162239,1,0,0:0:0:0:
280,323,162473,1,0,0:0:0:0:
280,323,162708,1,2,0:2:0:0:
292,161,162942,1,0,0:0:0:0:
292,161,163176,1,0,0:0:0:0:
454,173,163411,1,2,0:2:0:0:
454,173,163645,1,0,0:0:0:0:
360,276,163880,5,2,0:2:0:0:
360,276,164114,1,0,0:0:0:0:
198,264,164348,1,0,0:0:0:0:
198,264,164583,1,2,0:2:0:0:
210,102,164817,1,0,0:0:0:0:
210,102,165051,1,0,0:0:0:0:
372,114,165286,1,2,0:2:0:0:
372,114,165520,1,0,0:0:0:0:
351,323,165755,5,2,0:2:0:0:
336,294,165872,1,0,0:0:0:0:
312,272,165990,1,0,0:0:0:0:
282,259,166107,1,0,0:0:0:0:
251,252,166224,1,2,0:2:0:0:
219,254,166341,1,0,0:0:0:0:
181,263,166458,1,0,0:0:0:0:
153,277,166575,1,0,0:0:0:0:
126,293,166692,5,2,0:2:0:0:
95,298,166810,1,0,0:0:0:0:
65,293,166927,1,0,0:0:0:0:
38,279,167044,1,0,0:0:0:0:
15,257,167161,1,2,0:2:0:0:
2,227,167278,1,0,0:0:0:0:
5,195,167395,1,0,0:0:0:0:
21,168,167512,1,0,0:0:0:0:
40,142,167630,6,0,L|33:102,30,22.5,4|0|0|0|0|0|0|0|0|0|0|0|0|0|0|0|0|0|0|0|0|0|0|0|0|0|0|0|0|0|0,0:2|0:0|0:0|0:0|0:0|0:0|0:0|0:0|0:0|0:0|0:0|0:0|0:0|0:0|0:0|0:0|0:0|0:0|0:0|0:0|0:0|0:0|0:0|0:0|0:0|0:0|0:0|0:0|0:0|0:0|0:0,0:0:0:0:
54,155,169505,6,0,P|127:167|197:101,1,175.499991966248,4|2,0:0|0:2,0:0:0:0:
188,25,169973,1,4,0:3:0:0:
348,53,170208,2,2,P|334:126|320:233,1,175.499991966248,2|0,0:2|0:2,0:2:0:0:
316,303,170676,1,2,0:3:0:0:
495,220,170911,1,4,0:3:0:0:
438,368,171145,1,2,0:3:0:0:
378,153,171380,6,0,P|305:141|235:207,1,175.499991966248,4|2,0:2|0:2,0:0:0:0:
227,283,171848,1,4,0:3:0:0:
78,343,172083,2,2,L|51:156,1,175.499991966248,2|0,0:2|0:2,0:2:0:0:
42,91,172551,1,2,0:3:0:0:
36,56,172669,1,0,0:0:0:0:
30,21,172786,1,4,0:3:0:0:
218,65,173020,1,2,0:3:0:0:
212,100,173137,1,0,0:0:0:0:
206,135,173255,6,0,P|225:197|344:228,1,175.499991966248,4|2,0:2|0:2,0:0:0:0:
389,198,173723,1,4,0:3:0:0:
449,340,173958,2,2,P|458:254|469:160,1,175.499991966248,2|0,0:2|0:0,0:2:0:0:
476,89,174426,1,2,0:3:0:0:
275,37,174661,1,4,0:3:0:0:
365,216,174895,1,2,0:3:0:0:
370,7,175130,6,0,P|368:77|285:136,1,175.499991966248,4|2,0:2|0:2,0:0:0:0:
213,113,175598,1,4,0:3:0:0:
49,65,175833,2,2,P|61:150|71:243,1,175.499991966248,2|0,0:2|0:2,0:2:0:0:
82,318,176301,1,2,0:3:0:0:
107,341,176419,1,0,0:0:0:0:
132,364,176536,1,4,0:3:0:0:
307,272,176770,1,2,0:3:0:0:
293,304,176887,1,0,0:0:0:0:
277,336,177005,6,0,P|202:298|183:211,1,175.499991966248,4|2,0:0|0:2,0:0:0:0:
217,144,177473,1,4,0:3:0:0:
401,55,177708,2,2,L|383:237,1,175.499991966248,2|0,0:2|0:2,0:2:0:0:
375,306,178176,1,2,0:3:0:0:
502,192,178411,1,4,0:3:0:0:
269,241,178645,1,2,0:3:0:0:
465,346,178880,6,0,P|390:351|281:368,1,175.499991966248,4|2,0:2|0:2,0:0:0:0:
215,384,179348,1,4,0:3:0:0:
37,335,179583,2,2,P|105:330|160:239,1,175.499991966248,2|0,0:2|0:2,0:2:0:0:
130,172,180051,1,2,0:3:0:0:
117,138,180169,1,0,0:0:0:0:
104,105,180286,1,4,0:3:0:0:
277,28,180520,1,2,0:3:0:0:
274,62,180637,1,0,0:0:0:0:
271,97,180755,6,0,L|259:274,1,175.499991966248,4|2,0:2|0:2,0:0:0:0:
253,349,181223,1,4,0:3:0:0:
406,317,181458,2,2,P|448:239|418:162,1,175.499991966248,2|0,0:2|0:0,0:2:0:0:
347,128,181926,1,2,0:3:0:0:
330,332,182161,1,4,0:3:0:0:
194,165,182395,1,2,0:3:0:0:
351,233,182630,6,0,P|270:245|173:264,1,175.499991966248,4|2,0:2|0:2,0:0:0:0:
104,280,183098,1,4,0:3:0:0:
0,98,183333,2,2,P|81:110|178:129,1,175.499991966248,2|0,0:2|0:2,0:2:0:0:
255,146,183801,1,2,0:3:0:0:
248,111,183919,1,0,0:0:0:0:
242,76,184036,1,4,0:3:0:0:
419,36,184270,1,2,0:3:0:0:
413,71,184387,1,0,0:0:0:0:
406,106,184505,6,0,P|392:188|376:282,1,175.499991966248,4|2,0:0|0:2,0:0:0:0:
364,354,184973,1,4,0:3:0:0:
205,265,185208,2,2,P|175:193|219:88,1,175.499991966248,2|0,0:2|0:2,0:2:0:0:
251,40,185676,1,2,0:3:0:0:
418,118,185911,1,4,0:3:0:0:
291,182,186145,1,2,0:3:0:0:
435,25,186380,6,0,P|397:101|377:203,1,175.499991966248,4|2,0:2|0:2,0:0:0:0:
402,261,186848,1,4,0:3:0:0:
254,358,187083,2,2,L|280:170,1,175.499991966248,2|0,0:2|0:2,0:2:0:0:
291,110,187551,1,2,0:3:0:0:
298,75,187669,1,0,0:0:0:0:
306,40,187786,1,4,0:3:0:0:
120,19,188020,1,2,0:3:0:0:
124,56,188137,1,0,0:0:0:0:
128,92,188255,6,0,L|153:266,1,175.499991966248,4|2,0:2|0:2,0:0:0:0:
165,341,188723,1,4,0:3:0:0:
285,208,188958,2,2,P|351:183|451:252,1,175.499991966248,2|0,0:2|0:2,0:2:0:0:
470,300,189426,1,2,0:3:0:0:
279,374,189661,1,4,0:3:0:0:
413,383,189895,1,2,0:3:0:0:
243,278,190130,6,0,L|234:85,1,175.499991966248,4|2,0:2|0:2,0:0:0:0:
229,26,190598,1,4,0:3:0:0:
28,36,190833,2,2,P|1:111|78:194,1,175.499991966248,2|0,0:2|0:2,0:2:0:0:
111,137,191301,1,2,0:3:0:0:
126,168,191419,1,0,0:0:0:0:
126,203,191536,1,4,0:3:0:0:
217,352,191770,1,2,0:3:0:0:
202,321,191888,1,0,0:0:0:0:
202,286,192005,6,0,L|234:103,1,175.499991966248,4|2,0:2|0:2,0:0:0:0:
246,36,192473,1,4,0:3:0:0:
445,22,192708,2,2,P|379:41|338:138,1,175.499991966248,2|0,0:2|0:2,0:2:0:0:
361,210,193176,1,2,0:3:0:0:
440,364,193411,1,4,0:3:0:0:
488,190,193645,1,2,0:3:0:0:
313,384,193880,6,0,P|251:352|131:344,1,175.499991966248,4|2,0:2|0:2,0:0:0:0:
75,371,194348,1,4,0:3:0:0:
7,184,194583,2,2,P|62:227|166:191,1,175.499991966248,2|0,0:2|0:2,0:2:0:0:
181,128,195051,1,2,0:3:0:0:
172,93,195169,1,0,0:0:0:0:
163,59,195286,1,4,0:3:0:0:
327,24,195520,1,2,0:3:0:0:
318,58,195637,1,0,0:0:0:0:
309,93,195755,6,0,L|264:279,1,175.499991966248,4|2,0:2|0:2,0:0:0:0:
247,338,196223,1,4,0:3:0:0:
428,375,196458,2,2,P|480:334|484:217,1,175.499991966248,2|0,0:2|0:2,0:2:0:0:
436,173,196926,1,2,0:3:0:0:
356,312,197161,1,4,0:3:0:0:
251,200,197395,1,2,0:3:0:0:
348,20,197630,6,0,P|349:140|338:198,1,175.499991966248,4|2,0:2|0:2,0:0:0:0:
303,260,198098,1,4,0:3:0:0:
179,141,198333,2,2,P|123:113|18:157,1,175.499991966248,2|0,0:2|0:2,0:2:0:0:
14,226,198801,1,2,0:3:0:0:
23,260,198919,1,0,0:0:0:0:
32,293,199036,1,4,0:3:0:0:
175,359,199270,1,2,0:3:0:0:
184,326,199387,1,0,0:0:0:0:
193,292,199505,5,4,0:1:0:0:
256,192,199622,12,0,205598,0:0:0:0:
