osu file format v14

[General]
AudioFilename: audio.mp3
AudioLeadIn: 0
PreviewTime: 134392
Countdown: 0
SampleSet: Soft
StackLeniency: 0.8
Mode: 0
LetterboxInBreaks: 0
WidescreenStoryboard: 1

[Editor]
Bookmarks: 3551,7915,16642,25370,34097,42824,51551,60279,62460,69006,71188,77733,79915,82097,88642,97370,106097,114824,123551,130097,132279,134460,141006,143188,149733,151915,160642
DistanceSpacing: 1.2
BeatDivisor: 4
GridSize: 8
TimelineZoom: 1.9

[Metadata]
Title:Good On You
TitleUnicode:Good On You
Artist:Krewella & Nucleya
ArtistUnicode:Krewella & Nucleya
Creator:Mao
Version:Normal
Source:
Tags:altai undeadphoneguy Udyan Sagar electronic english yasmine jahan yousaf
BeatmapID:2271653
BeatmapSetID:1082851

[Difficulty]
HPDrainRate:4
CircleSize:3.5
OverallDifficulty:5
ApproachRate:5
SliderMultiplier:1.5
SliderTickRate:1

[Events]
//Background and Video events
0,0,"mateusz-majewski-desert.jpg",0,0
//Break Periods
2,80114,80897
//Storyboard Layer 0 (Background)
//Storyboard Layer 1 (Fail)
//Storyboard Layer 2 (Pass)
//Storyboard Layer 3 (Foreground)
//Storyboard Layer 4 (Overlay)
//Storyboard Sound Samples

[TimingPoints]
1370,545.454545454546,4,2,0,60,1,0
7915,-100,4,2,0,20,0,0
25370,-100,4,2,0,30,0,0
42824,-100,4,2,0,50,0,0
61370,-100,4,2,0,50,0,0
62460,-90.9090909090909,4,2,0,70,0,1
63006,-90.9090909090909,4,2,0,70,0,1
63551,-90.9090909090909,4,2,0,70,0,1
63824,-90.9090909090909,4,2,0,70,0,1
64642,-90.9090909090909,4,2,0,70,0,1
65188,-90.9090909090909,4,2,0,70,0,1
65733,-90.9090909090909,4,2,0,70,0,1
66006,-90.9090909090909,4,2,0,70,0,1
66824,-90.9090909090909,4,2,0,70,0,1
67370,-90.9090909090909,4,2,0,70,0,1
67915,-90.9090909090909,4,2,0,70,0,1
68188,-90.9090909090909,4,2,0,70,0,1
71120,-90.9090909090909,4,2,0,70,0,0
71188,-90.9090909090909,4,2,0,70,0,1
71733,-90.9090909090909,4,2,0,70,0,1
72279,-90.9090909090909,4,2,0,70,0,1
72483,-90.9090909090909,4,2,0,70,0,1
73097,-90.9090909090909,4,2,0,70,0,1
73370,-90.9090909090909,4,2,0,70,0,1
73915,-90.9090909090909,4,2,0,70,0,1
74460,-90.9090909090909,4,2,0,70,0,1
74733,-90.9090909090909,4,2,0,70,0,1
75279,-90.9090909090909,4,2,0,70,0,1
75551,-90.9090909090909,4,2,0,70,0,1
76097,-90.9090909090909,4,2,0,70,0,1
76642,-90.9090909090909,4,2,0,70,0,1
76915,-90.9090909090909,4,2,0,70,0,1
77460,-90.9090909090909,4,2,0,70,0,1
77733,-90.9090909090909,4,2,0,70,0,1
79915,-100,4,2,0,30,0,0
81551,-100,4,2,0,5,0,0
82097,-100,4,2,0,50,0,0
95188,-100,4,2,0,50,0,0
96551,-100,4,2,0,50,0,0
97370,-100,4,2,0,60,0,0
114824,-100,4,2,0,60,0,0
123551,-100,4,2,0,60,0,0
134460,-90.9090909090909,4,2,0,70,0,1
135006,-90.9090909090909,4,2,0,70,0,1
135551,-90.9090909090909,4,2,0,70,0,1
135824,-90.9090909090909,4,2,0,70,0,1
136642,-90.9090909090909,4,2,0,70,0,1
137188,-90.9090909090909,4,2,0,70,0,1
137733,-90.9090909090909,4,2,0,70,0,1
138006,-90.9090909090909,4,2,0,70,0,1
138824,-90.9090909090909,4,2,0,70,0,1
139370,-90.9090909090909,4,2,0,70,0,1
139915,-90.9090909090909,4,2,0,70,0,1
140188,-90.9090909090909,4,2,0,70,0,1
143120,-90.9090909090909,4,2,0,70,0,0
143188,-90.9090909090909,4,2,0,70,0,1
143733,-90.9090909090909,4,2,0,70,0,1
144279,-90.9090909090909,4,2,0,70,0,1
144551,-90.9090909090909,4,2,0,70,0,1
145097,-90.9090909090909,4,2,0,70,0,1
145370,-90.9090909090909,4,2,0,70,0,1
145915,-90.9090909090909,4,2,0,70,0,1
146460,-90.9090909090909,4,2,0,70,0,1
146733,-90.9090909090909,4,2,0,70,0,1
147279,-90.9090909090909,4,2,0,70,0,1
147551,-90.9090909090909,4,2,0,70,0,1
148097,-90.9090909090909,4,2,0,70,0,1
148642,-90.9090909090909,4,2,0,70,0,1
148915,-90.9090909090909,4,2,0,70,0,1
149460,-90.9090909090909,4,2,0,70,0,1
149733,-90.9090909090909,4,2,0,70,0,1
151915,-90.9090909090909,4,2,0,80,0,0
160097,-90.9090909090909,4,2,0,80,0,0
160233,-90.9090909090909,4,2,0,80,0,0

[Colours]
Combo1 : 134,130,142
Combo2 : 255,172,0

[HitObjects]
256,192,3279,12,0,6552,0:0:0:0:
265,245,7915,5,4,0:0:0:0:
265,245,8460,2,0,P|302:263|452:168,1,225,2|0,0:0|0:0,0:0:0:0:
493,115,9551,1,2,0:0:0:0:
461,38,9824,1,0,0:0:0:0:
379,48,10097,6,0,L|348:123,1,75,4|0,0:0|0:0,0:0:0:0:
270,139,10642,2,0,P|236:127|215:24,1,150,2|0,0:0|0:0,0:0:0:0:
54,71,11733,2,0,L|44:148,1,75,2|0,0:0|0:0,0:0:0:0:
96,209,12279,5,4,0:0:0:0:
30,259,12551,1,0,0:0:0:0:
68,331,12824,2,0,P|106:351|213:316,1,150,2|0,0:0|0:0,0:0:0:0:
373,42,14460,6,0,P|433:43|491:55,2,112.5,4|0|2,0:0|0:0|0:0,0:0:0:0:
314,100,15551,2,0,P|273:106|231:86,1,75,0|2,0:0|0:0,0:0:0:0:
412,274,16642,5,4,0:0:0:0:
412,274,17188,2,0,P|312:290|196:365,1,225,2|0,0:0|0:0,0:0:0:0:
126,367,18279,1,2,0:0:0:0:
71,305,18551,1,0,0:0:0:0:
82,223,18824,6,0,L|44:157,1,75,4|0,0:0|0:0,0:0:0:0:
42,75,19370,2,0,P|72:56|161:123,1,150,2|0,0:0|0:0,0:0:0:0:
207,265,20460,2,0,L|197:342,1,75,2|0,0:0|0:0,0:0:0:0:
274,368,21006,5,4,0:0:0:0:
325,303,21279,1,0,0:0:0:0:
404,323,21551,2,0,P|462:266|452:192,1,150,2|0,0:0|0:0,0:0:0:0:
152,77,23188,6,0,P|92:76|34:64,2,112.5,4|0|2,0:0|0:0|0:0,0:0:0:0:
215,23,24279,2,0,P|257:37|298:37,1,75,0|2,0:0|0:0,0:0:0:0:
450,13,25097,1,2,0:0:0:0:
497,80,25370,6,0,L|489:212,1,112.5,4|2,1:0|0:0,0:0:0:0:
382,253,26188,2,0,L|374:385,2,112.5,2|2|2,0:0|0:0|0:0,0:0:0:0:
333,186,27279,1,2,0:0:0:0:
268,236,27551,2,0,P|228:262|194:335,1,112.5,4|2,0:0|0:0,0:0:0:0:
83,368,28370,2,0,P|48:344|26:255,1,112.5,2|0,0:0|0:0,0:0:0:0:
76,169,29188,1,4,0:0:0:0:
19,109,29460,1,2,0:0:0:0:
69,43,29733,6,0,L|190:50,1,112.5,6|2,0:0|0:0,0:0:0:0:
298,90,30551,2,0,L|419:97,2,112.5,2|0|4,0:0|0:0|0:0,0:0:0:0:
229,135,31642,1,2,0:0:0:0:
257,212,31915,6,0,P|259:274|227:328,1,112.5,6|2,0:0|0:0,0:0:0:0:
347,372,32733,2,0,P|387:369|434:305,1,112.5,2|2,0:0|0:0,0:0:0:0:
414,194,33551,1,2,0:0:0:0:
488,158,33824,1,2,0:0:0:0:
495,75,34097,6,0,L|368:45,1,112.5,6|2,0:0|0:0,0:0:0:0:
267,85,34915,2,0,L|140:55,2,112.5,2|2|2,0:0|0:0|0:0,0:0:0:0:
319,148,36006,1,2,0:0:0:0:
278,219,36279,6,0,P|253:259|254:340,1,112.5,6|2,0:0|0:0,0:0:0:0:
136,373,37097,2,0,P|101:349|79:260,1,112.5,2|0,0:0|0:0,0:0:0:0:
81,162,37915,1,4,0:0:0:0:
17,109,38188,1,2,0:0:0:0:
68,44,38460,6,0,P|116:45|184:20,1,112.5,6|2,0:0|0:0,0:0:0:0:
279,92,39279,2,0,P|286:145|315:197,2,112.5,2|0|4,0:0|0:0|0:0,0:0:0:0:
335,31,40370,1,2,0:0:0:0:
417,37,40642,6,0,L|431:116,1,75,4|2,1:0|0:0,0:0:0:0:
496,159,41188,2,0,L|482:238,1,75,10|10,0:0|0:0,0:0:0:0:
502,313,41733,2,0,L|424:344,1,75,6|2,0:0|0:3,0:0:0:0:
352,361,42279,1,4,0:0:0:0:
282,316,42551,1,0,3:0:0:0:
211,358,42824,5,4,1:0:0:0:
179,281,43097,2,0,P|135:266|66:354,1,150,2|2,0:0|0:0,0:0:0:0:
22,84,44460,2,0,L|118:72,1,75,8|2,0:0|0:0,0:0:0:0:
162,25,45006,5,6,0:0:0:0:
201,97,45279,2,0,P|235:112|316:39,1,150,2|4,0:0|0:3,0:0:0:0:
489,227,46642,1,8,0:0:0:0:
489,227,47188,6,0,L|479:349,1,112.5,6|2,0:0|0:0,0:0:0:0:
402,368,47870,1,2,0:0:0:0:
368,292,48142,2,0,L|353:168,1,112.5,6|2,0:0|0:0,0:0:0:0:
329,17,49097,1,2,0:0:0:0:
251,44,49370,6,0,P|220:88|228:152,1,112.5,4|2,0:0|0:3,0:0:0:0:
254,222,50051,1,2,0:0:0:0:
215,295,50324,2,0,P|179:325|106:322,1,112.5,6|2,0:0|0:0,0:0:0:0:
45,281,51006,1,0,3:0:0:0:
87,121,51551,5,4,1:0:0:0:
31,59,51824,2,0,P|64:18|167:22,1,150,2|2,0:0|0:0,0:0:0:0:
335,185,53188,2,0,L|413:199,1,75,8|2,0:0|0:3,0:0:0:0:
472,146,53733,5,6,0:0:0:0:
437,70,54006,2,0,P|404:29|301:33,1,150,2|2,0:0|0:0,0:0:0:0:
273,98,54824,1,8,0:0:0:0:
119,35,55370,1,8,0:0:0:0:
24,170,55915,6,0,L|7:300,1,112.5,4|2,1:0|0:3,0:0:0:0:
63,344,56597,1,2,0:0:0:0:
143,326,56870,2,0,L|126:196,1,112.5,4|0,0:0|0:0,0:0:0:0:
213,73,57824,1,2,0:0:0:0:
270,132,58097,6,0,B|310:131|310:131|387:65,1,112.5,6|2,0:0|0:3,0:0:0:0:
426,28,58779,1,2,0:0:0:0:
489,79,59051,2,0,P|507:124|480:195,1,112.5,6|2,0:0|0:0,0:0:0:0:
415,219,59733,2,0,L|372:205,2,37.5,12|2|2,0:0|0:0|3:0,0:0:0:0:
48,352,62460,6,0,P|35:303|130:271,1,165.000005035401,6|12,1:0|1:3,0:0:0:0:
191,326,63279,1,8,0:0:0:0:
240,250,63551,1,6,1:0:0:0:
162,85,64097,2,0,L|168:37,2,41.2500012588501,6|2|8,1:3|0:0|0:0,0:0:0:0:
234,139,64642,6,0,P|283:141|344:45,1,165.000005035401,6|6,1:0|1:3,0:0:0:0:
429,20,65460,1,8,0:0:0:0:
498,78,65733,1,6,1:0:0:0:
390,224,66279,2,0,L|384:276,2,41.2500012588501,6|2|8,1:3|0:0|0:0,0:0:0:0:
478,204,66824,6,0,P|502:256|444:357,1,165.000005035401,6|6,1:0|1:3,0:0:0:0:
374,378,67642,1,8,0:0:0:0:
302,321,67915,1,6,1:0:0:0:
283,140,68460,2,0,L|276:83,2,41.2500012588501,6|2|8,1:3|0:0|0:0,0:0:0:0:
233,216,69006,6,0,B|157:231|157:231|155:236|155:236|58:253,2,165.000005035401,14|2|2,0:0|3:0|3:0,0:0:0:0:
283,291,70370,2,0,L|275:355,2,41.2500012588501,8|10|10,0:0|0:0|0:0,0:0:0:0:
445,208,71188,6,0,P|485:161|461:81,1,123.75000377655,6|8,1:0|0:0,0:0:0:0:
455,63,71733,1,6,1:3:0:0:
370,97,72006,1,8,0:0:0:0:
315,24,72279,1,6,1:0:0:0:
142,79,72824,2,0,L|98:70,2,41.2500012588501,6|2|8,1:3|0:0|0:0,0:0:0:0:
227,48,73370,6,0,P|250:107|222:184,1,123.75000377655,6|8,1:0|0:0,0:0:0:0:
201,192,73915,1,6,1:3:0:0:
113,166,74188,1,8,0:0:0:0:
57,237,74460,1,6,1:0:0:0:
173,376,75006,2,0,L|236:365,2,41.2500012588501,14|2|8,1:2|0:0|0:0,0:0:0:0:
142,290,75551,6,0,P|188:276|275:312,1,123.75000377655,6|8,1:0|0:0,0:0:0:0:
291,328,76097,1,6,1:3:0:0:
373,366,76370,1,8,0:0:0:0:
441,306,76642,1,6,1:0:0:0:
339,154,77188,2,0,L|327:92,2,41.2500012588501,6|0|8,1:3|0:0|0:0,0:0:0:0:
417,200,77733,6,0,B|454:123|454:123|463:119|463:119|498:49,2,165.000005035401,6|2|2,0:0|3:0|3:0,0:0:0:0:
454,283,79097,2,0,L|495:271,2,41.2500012588501,8|8|8,0:0|0:0|0:0,0:0:0:0:
402,357,79642,2,0,P|349:343|302:341,1,82.5000025177003,2|4,1:2|0:0,0:0:0:0:
285,92,82097,6,0,L|195:104,1,75,4|2,1:0|0:0,0:0:0:0:
138,64,82642,2,0,P|172:111|181:208,1,150,6|4,1:3|0:0,0:0:0:0:
54,305,83733,1,6,1:3:0:0:
109,365,84006,1,8,0:0:0:0:
180,324,84279,6,0,L|269:314,1,75,4|2,1:0|0:0,0:0:0:0:
325,272,84824,2,0,P|377:285|424:377,1,150,6|4,1:3|0:0,0:0:0:0:
483,123,86188,1,10,0:0:0:0:
405,96,86460,6,0,P|420:45|472:11,2,112.5,4|8|10,1:0|0:0|0:0,0:0:0:0:
349,156,87551,2,0,P|312:138|300:100,1,75,4|0,0:0|0:0,0:0:0:0:
65,26,88642,6,0,L|53:115,1,75,4|2,1:0|0:0,0:0:0:0:
17,173,89188,2,0,P|51:220|146:234,1,150,6|4,1:3|0:0,0:0:0:0:
249,358,90279,1,6,1:3:0:0:
310,302,90551,1,10,0:0:0:0:
375,352,90824,6,0,L|464:342,1,75,4|2,1:0|0:0,0:0:0:0:
503,281,91370,2,0,P|449:223|376:227,1,150,6|4,1:3|0:0,0:0:0:0:
264,109,92460,1,6,1:3:0:0:
305,37,92733,1,8,0:0:0:0:
224,18,93006,6,0,L|140:48,1,75,4|2,1:0|0:0,0:0:0:0:
89,95,93551,2,0,P|44:65|31:-1,2,112.5,6|2|2,1:3|0:0|0:0,0:0:0:0:
164,127,94642,2,0,P|165:177|59:227,1,150,4|2,0:0|0:0,0:0:0:0:
480,367,96551,5,4,3:2:0:0:
424,305,96824,1,8,3:2:0:0:
466,233,97097,1,2,3:0:0:0:
400,182,97370,6,0,P|396:130|442:66,1,112.5,4|8,1:0|0:0,0:0:0:0:
364,22,98051,1,2,0:0:0:0:
293,64,98324,1,2,0:0:0:0:
219,25,98597,2,0,L|104:49,1,112.5,2|6,0:0|1:3,0:0:0:0:
35,195,99551,6,0,P|20:245|53:310,2,112.5,4|8|8,1:0|0:0|0:0,0:0:0:0:
94,137,100642,1,2,1:0:0:0:
242,209,101188,2,0,L|229:297,1,75,2|8,1:0|0:0,0:0:0:0:
169,337,101733,6,0,P|140:310|143:231,2,112.5,6|8|10,1:0|0:0|0:0,0:0:0:0:
250,352,102824,1,2,1:0:0:0:
364,232,103370,2,0,P|404:254|414:288,1,75,2|8,1:0|0:0,0:0:0:0:
491,252,103915,6,0,P|502:295|483:374,2,112.5,6|8|8,1:0|0:0|0:0,0:0:0:0:
446,182,105006,1,4,1:0:0:0:
476,4,105551,1,6,1:3:0:0:
385,2,105824,1,8,0:0:0:0:
322,66,106097,6,0,P|270:62|218:31,1,112.5,4|8,1:0|0:0,0:0:0:0:
131,54,106779,1,2,0:0:0:0:
124,143,107051,1,2,0:0:0:0:
202,186,107324,2,0,L|225:309,1,112.5,2|6,0:0|1:3,0:0:0:0:
43,310,108279,6,0,P|28:253|-13:207,2,112.5,4|8|8,1:0|0:0|0:0,0:0:0:0:
90,377,109370,1,2,1:0:0:0:
171,233,109915,2,0,L|178:157,1,75,2|8,1:0|0:0,0:0:0:0:
144,83,110460,6,0,P|93:89|48:52,2,112.5,6|8|8,1:0|0:0|0:0,0:0:0:0:
200,23,111551,1,2,1:0:0:0:
365,22,112097,2,0,P|405:44|415:78,1,75,2|8,1:0|0:0,0:0:0:0:
367,137,112642,6,0,L|285:174,1,75,4|0,1:0|0:0,0:0:0:0:
325,246,113188,2,0,L|298:324,1,75,6|8,1:3|0:0,0:0:0:0:
373,355,113733,1,14,1:2:0:0:
498,306,114279,1,6,1:3:0:0:
445,242,114551,1,8,0:0:0:0:
506,187,114824,5,4,1:0:0:0:
494,105,115097,2,0,P|450:90|381:178,1,150,2|2,0:0|0:0,0:0:0:0:
132,169,116460,2,0,L|125:85,1,75,8|2,0:0|0:0,0:0:0:0:
67,35,117006,5,6,0:0:0:0:
22,104,117279,2,0,P|8:160|79:229,1,150,2|4,0:0|0:3,0:0:0:0:
296,307,118642,1,8,0:0:0:0:
296,307,119188,6,0,P|302:253|275:190,1,112.5,6|2,0:0|0:0,0:0:0:0:
216,149,119870,1,2,0:0:0:0:
229,67,120142,2,0,P|274:40|353:52,1,112.5,6|2,0:0|0:0,0:0:0:0:
487,98,121097,1,2,0:0:0:0:
439,165,121370,6,0,L|458:284,1,112.5,4|2,0:0|0:3,0:0:0:0:
440,356,122051,1,2,0:0:0:0:
360,334,122324,2,0,P|324:364|251:361,1,112.5,6|2,0:0|0:0,0:0:0:0:
191,319,123006,1,0,3:0:0:0:
32,365,123551,5,4,1:0:0:0:
10,285,123824,2,0,P|36:212|101:205,1,150,2|2,0:0|0:0,0:0:0:0:
176,235,124642,1,4,0:0:0:0:
158,70,125188,1,6,1:3:0:0:
228,26,125460,1,8,0:0:0:0:
302,61,125733,5,4,1:0:0:0:
369,14,126006,2,0,P|411:33|422:141,1,150,2|2,0:0|0:0,0:0:0:0:
352,154,126824,1,4,0:0:0:0:
457,280,127370,1,6,1:3:0:0:
408,346,127642,1,2,0:0:0:0:
343,294,127915,6,0,P|291:288|236:327,1,112.5,4|2,1:0|0:0,0:0:0:0:
173,365,128597,1,2,0:0:0:0:
94,339,128870,2,0,P|56:312|48:217,1,112.5,2|2,0:0|0:0,0:0:0:0:
84,183,129551,1,6,1:3:0:0:
23,29,130097,6,0,L|89:64,1,75,4|4,1:0|3:0,0:0:0:0:
166,34,130642,2,0,L|232:69,1,75,14|4,1:3|3:0,0:0:0:0:
302,24,131188,2,0,L|368:59,1,75,4|6,1:0|1:3,0:0:0:0:
445,29,131733,2,0,L|503:60,2,37.5,10|0|8,1:2|3:0|0:0,0:0:0:0:
38,269,134460,6,0,P|25:318|120:350,1,165.000005035401,6|12,1:0|1:3,0:0:0:0:
175,289,135279,1,8,0:0:0:0:
255,330,135551,1,6,1:0:0:0:
280,150,136097,2,0,L|286:102,2,41.2500012588501,6|2|8,1:3|0:0|0:0,0:0:0:0:
343,214,136642,6,0,P|392:216|453:120,1,165.000005035401,6|6,1:0|1:3,0:0:0:0:
428,42,137460,1,8,0:0:0:0:
338,29,137733,1,6,1:0:0:0:
188,132,138279,2,0,L|198:182,2,41.2500012588501,6|2|8,1:3|0:0|0:0,0:0:0:0:
243,60,138824,6,0,P|191:84|90:26,1,165.000005035401,6|6,1:0|1:3,0:0:0:0:
11,68,139642,1,8,0:0:0:0:
30,156,139915,1,6,1:0:0:0:
116,315,140460,2,0,L|93:380,2,41.2500012588501,6|2|8,1:3|0:0|0:0,0:0:0:0:
178,248,141006,6,0,B|102:263|102:263|100:268|100:268|3:285,2,165.000005035401,14|2|2,0:0|3:0|3:0,0:0:0:0:
236,317,142370,2,0,L|256:377,2,41.2500012588501,8|10|10,0:0|0:0|0:0,0:0:0:0:
417,329,143188,6,0,P|400:289|440:208,1,123.75000377655,6|8,1:0|0:0,0:0:0:0:
467,196,143733,1,6,1:3:0:0:
478,105,144006,1,8,0:0:0:0:
414,39,144279,1,6,1:0:0:0:
283,165,144824,2,0,L|239:156,2,41.2500012588501,6|2|8,1:3|0:0|0:0,0:0:0:0:
364,124,145370,6,0,P|322:77|274:37,1,123.75000377655,6|8,1:0|0:0,0:0:0:0:
230,38,145915,1,6,1:3:0:0:
166,102,146188,1,8,0:0:0:0:
93,48,146460,1,6,1:0:0:0:
49,224,147006,2,0,L|54:279,2,41.2500012588501,14|2|8,1:2|0:0|0:0,0:0:0:0:
139,215,147551,6,0,P|182:233|205:307,1,123.75000377655,6|8,1:0|0:0,0:0:0:0:
196,346,148097,1,6,1:3:0:0:
284,366,148370,1,8,0:0:0:0:
331,288,148642,1,6,1:0:0:0:
510,263,149188,2,0,L|516:202,2,41.2500012588501,6|0|8,1:3|0:0|0:0,0:0:0:0:
420,245,149733,6,0,B|391:164|391:164|395:155|395:155|370:80,2,165.000005035401,6|2|0,0:0|3:0|3:0,0:0:0:0:
448,331,151097,2,0,L|439:389,2,41.2500012588501,8|8|2,0:0|0:0|0:0,0:0:0:0:
268,302,151915,6,0,B|186:318|186:318|138:299,1,123.75000377655,4|4,1:0|0:3,0:0:0:0:
111,277,152460,1,2,1:0:0:0:
28,315,152733,2,0,L|4:236,1,82.5000025177003,8|6,0:0|1:2,0:0:0:0:
36,151,153279,2,0,L|41:105,2,41.2500012588501,2|8|2,0:1|0:0|1:0,0:0:0:0:
121,181,153824,1,2,3:1:0:0:
161,99,154097,6,0,B|178:68|178:68|267:57,1,123.75000377655,4|8,1:0|0:0,0:0:0:0:
310,53,154642,1,2,1:0:0:0:
293,142,154915,2,0,L|277:239,1,82.5000025177003,10|6,0:0|1:3,0:0:0:0:
301,263,155324,2,0,L|293:312,2,41.2500012588501,2|2|8,0:0|0:1|0:0,0:0:0:0:
374,316,155870,2,0,L|366:365,2,41.2500012588501,0|2|6,3:0|1:0|3:0,0:0:0:0:
418,305,156279,6,0,B|402:223|402:223|421:175,1,123.75000377655,4|8,1:0|0:0,0:0:0:0:
443,148,156824,1,2,1:0:0:0:
366,98,157097,2,0,L|342:19,1,82.5000025177003,8|6,0:0|1:3,0:0:0:0:
268,73,157642,2,0,L|263:119,2,41.2500012588501,2|8|6,0:1|0:0|1:2,0:0:0:0:
200,11,158188,1,2,1:0:0:0:
128,66,158460,6,0,B|97:83|97:83|86:172,1,123.75000377655,4|8,1:0|0:0,0:0:0:0:
119,201,159006,1,6,1:3:0:0:
48,258,159279,2,0,L|32:355,1,82.5000025177003,2|6,0:1|1:2,0:0:0:0:
79,343,159688,2,0,L|87:392,2,41.2500012588501,2|2|0,0:0|0:1|0:0,0:0:0:0:
163,308,160233,2,0,L|171:357,2,41.2500012588501,2|0|6,0:0|0:0|1:0,0:0:0:0:
