osu file format v14

[General]
AudioFilename: audio.mp3
AudioLeadIn: 0
PreviewTime: 134392
Countdown: 0
SampleSet: Soft
StackLeniency: 0.7
Mode: 0
LetterboxInBreaks: 0
WidescreenStoryboard: 0

[Editor]
Bookmarks: 3551,7915,16642,25370,34097,42824,51551,60279,62460,69006,71188,77733,79915,82097,88642,97370,106097,114824,123551,130097,132279,134460,141006,143188,149733,151915,160642
DistanceSpacing: 0.3
BeatDivisor: 8
GridSize: 8
TimelineZoom: 1.9

[Metadata]
Title:Good On You
TitleUnicode:Good On You
Artist:Krewella & Nucleya
ArtistUnicode:Krewella & Nucleya
Creator:Mao
Version:Expert
Source:
Tags:altai undeadphoneguy Udyan Sagar electronic english yasmine jahan yousaf
BeatmapID:2264994
BeatmapSetID:1082851

[Difficulty]
HPDrainRate:6
CircleSize:4
OverallDifficulty:8.3
ApproachRate:9.2
SliderMultiplier:2
SliderTickRate:1

[Events]
//Background and Video events
0,0,"mateusz-majewski-desert.jpg",0,0
//Break Periods
//Storyboard Layer 0 (Background)
//Storyboard Layer 1 (Fail)
//Storyboard Layer 2 (Pass)
//Storyboard Layer 3 (Foreground)
//Storyboard Layer 4 (Overlay)
//Storyboard Sound Samples

[TimingPoints]
1370,545.454545454546,4,2,0,60,1,0
7915,-200,4,2,0,20,0,0
25370,-100,4,2,0,30,0,0
42824,-83.3333333333333,4,2,0,50,0,0
61370,-66.6666666666667,4,2,0,50,0,0
62460,-50,4,2,0,70,0,1
63006,-100,4,2,0,70,0,1
63551,-50,4,2,0,70,0,1
63824,-66.6666666666667,4,2,0,70,0,1
64642,-50,4,2,0,70,0,1
65188,-100,4,2,0,70,0,1
65733,-50,4,2,0,70,0,1
66006,-66.6666666666667,4,2,0,70,0,1
66824,-50,4,2,0,70,0,1
67370,-100,4,2,0,70,0,1
67915,-50,4,2,0,70,0,1
68188,-66.6666666666667,4,2,0,70,0,1
69006,-200,4,2,0,70,0,1
69074,-66.6666666666667,4,2,0,70,0,1
69551,-200,4,2,0,70,0,1
69620,-66.6666666666667,4,2,0,70,0,1
70097,-200,4,2,0,70,0,1
70165,-66.6666666666667,4,2,0,70,0,1
71120,-66.6666666666667,4,2,0,70,0,0
71188,-40,4,2,0,70,0,1
71733,-66.6666666666667,4,2,0,70,0,1
72279,-40,4,2,0,70,0,1
72483,-66.6666666666667,4,2,0,70,0,1
73097,-100,4,2,0,70,0,1
73370,-40,4,2,0,70,0,1
73915,-66.6666666666667,4,2,0,70,0,1
74460,-40,4,2,0,70,0,1
74733,-66.6666666666667,4,2,0,70,0,1
75279,-100,4,2,0,70,0,1
75551,-40,4,2,0,70,0,1
76097,-66.6666666666667,4,2,0,70,0,1
76642,-40,4,2,0,70,0,1
76915,-66.6666666666667,4,2,0,70,0,1
77460,-100,4,2,0,70,0,1
77733,-200,4,2,0,70,0,1
77801,-50,4,2,0,70,0,1
78279,-200,4,2,0,70,0,1
78347,-50,4,2,0,70,0,1
78824,-200,4,2,0,70,0,1
78892,-50,4,2,0,70,0,1
79915,-100,4,2,0,30,0,0
81551,-100,4,2,0,5,0,0
82097,-83.3333333333333,4,2,0,50,0,0
96551,-100,4,2,0,50,0,0
97370,-66.6666666666667,4,2,0,60,0,0
114824,-83.3333333333333,4,2,0,60,0,0
123551,-66.6666666666667,4,2,0,60,0,0
134460,-50,4,2,0,70,0,1
135006,-100,4,2,0,70,0,1
135551,-50,4,2,0,70,0,1
135824,-66.6666666666667,4,2,0,70,0,1
136642,-50,4,2,0,70,0,1
137188,-100,4,2,0,70,0,1
137733,-50,4,2,0,70,0,1
138006,-66.6666666666667,4,2,0,70,0,1
138824,-50,4,2,0,70,0,1
139370,-100,4,2,0,70,0,1
139915,-50,4,2,0,70,0,1
140188,-66.6666666666667,4,2,0,70,0,1
141006,-200,4,2,0,70,0,1
141074,-66.6666666666667,4,2,0,70,0,1
141551,-200,4,2,0,70,0,1
141620,-66.6666666666667,4,2,0,70,0,1
142097,-200,4,2,0,70,0,1
142165,-66.6666666666667,4,2,0,70,0,1
143120,-66.6666666666667,4,2,0,70,0,0
143188,-40,4,2,0,70,0,1
143733,-66.6666666666667,4,2,0,70,0,1
144279,-40,4,2,0,70,0,1
144551,-66.6666666666667,4,2,0,70,0,1
145097,-100,4,2,0,70,0,1
145370,-40,4,2,0,70,0,1
145915,-66.6666666666667,4,2,0,70,0,1
146460,-40,4,2,0,70,0,1
146733,-66.6666666666667,4,2,0,70,0,1
147279,-100,4,2,0,70,0,1
147551,-40,4,2,0,70,0,1
148097,-66.6666666666667,4,2,0,70,0,1
148642,-40,4,2,0,70,0,1
148915,-66.6666666666667,4,2,0,70,0,1
149460,-100,4,2,0,70,0,1
149733,-200,4,2,0,70,0,1
149801,-50,4,2,0,70,0,1
150279,-200,4,2,0,70,0,1
150347,-50,4,2,0,70,0,1
150824,-200,4,2,0,70,0,1
150892,-50,4,2,0,70,0,1
151915,-40,4,2,0,80,0,0
160097,-50,4,2,0,80,0,0
160233,-40,4,2,0,80,0,0

[Colours]
Combo1 : 134,130,142
Combo2 : 255,172,0

[HitObjects]
256,192,3551,12,0,7642,0:0:0:0:
65,64,7915,5,4,0:0:0:0:
65,64,8460,2,0,P|111:69|147:111,1,100,2|0,0:0|0:0,0:0:0:0:
278,26,9279,1,0,0:0:0:0:
356,34,9551,2,0,L|415:40,1,50,2|0,0:0|0:0,0:0:0:0:
501,112,10097,5,4,0:0:0:0:
428,156,10370,1,0,0:0:0:0:
501,195,10642,2,0,P|513:222|481:289,1,100,2|0,0:0|0:0,0:0:0:0:
299,366,11460,1,0,0:0:0:0:
342,298,11733,2,0,L|401:303,1,50,2|0,0:0|0:0,0:0:0:0:
289,237,12279,5,4,0:0:0:0:
243,300,12551,1,0,0:0:0:0:
180,207,12824,2,2,L|159:99,1,100,2|0,0:0|0:0,0:0:0:0:
487,28,14188,5,2,0:0:0:0:
487,28,14460,1,4,0:0:0:0:
438,122,14870,1,0,0:0:0:0:
374,41,15279,2,0,L|341:50,1,25,2|0,0:0|0:0,0:0:0:0:
348,62,15551,1,0,0:0:0:0:
256,45,15824,2,0,L|192:32,1,50,2|0,0:0|0:0,0:0:0:0:
39,184,16642,5,4,0:0:0:0:
39,184,17188,2,0,P|89:172|110:116,1,100,2|0,0:0|0:0,0:0:0:0:
155,266,18006,1,0,0:0:0:0:
106,335,18279,2,0,L|57:330,1,50,2|0,0:0|0:0,0:0:0:0:
193,343,18824,5,4,0:0:0:0:
238,272,19097,1,0,0:0:0:0:
305,325,19370,2,0,P|334:328|388:276,1,100,2|0,0:0|0:0,0:0:0:0:
491,358,20188,1,0,0:0:0:0:
473,274,20460,2,0,L|465:208,1,50,2|0,0:0|0:0,0:0:0:0:
507,42,21006,5,4,0:0:0:0:
439,91,21279,1,0,0:0:0:0:
317,10,21551,2,0,P|280:42|271:91,1,100,2|0,0:0|0:0,0:0:0:0:
25,356,22915,5,2,0:0:0:0:
25,356,23188,1,4,0:0:0:0:
97,301,23597,1,0,0:0:0:0:
28,239,24006,2,0,L|19:206,1,25,2|0,0:0|0:0,0:0:0:0:
5,207,24279,1,0,0:0:0:0:
28,120,24551,2,0,L|43:59,1,50,2|0,0:0|0:0,0:0:0:0:
231,20,25097,1,2,0:0:0:0:
178,13,25233,1,0,3:0:0:0:
139,48,25370,6,0,L|116:136,1,75,4|0,1:0|0:0,0:0:0:0:
220,207,25779,2,0,P|235:158|217:108,1,100,2|0,0:0|0:0,0:0:0:0:
221,113,26188,1,2,0:0:0:0:
126,217,26324,2,0,P|133:249|133:283,1,50
206,350,26597,2,0,P|228:311|278:283,1,100,2|0,0:0|0:0,0:0:0:0:
383,371,27006,2,0,P|361:351|331:349,1,50,2|0,0:0|0:0,0:0:0:0:
460,308,27279,1,2,0:0:0:0:
460,308,27551,6,0,P|416:263|443:176,1,150,4|2,0:0|0:0,0:0:0:0:
430,173,28370,2,0,P|456:190|481:190,1,50,2|0,0:0|0:0,0:0:0:0:
492,17,28642,2,0,P|492:50|448:91,1,75,2|0,0:0|0:0,0:0:0:0:
455,89,28915,2,0,L|392:78,1,50,2|0,0:0|0:0,0:0:0:0:
259,8,29188,2,0,L|333:21,1,75,4|0,0:0|0:0,0:0:0:0:
335,32,29460,1,2,0:0:0:0:
277,105,29597,1,0,0:0:0:0:
143,23,29733,6,0,P|111:29|72:140,1,150,6|2,0:0|0:0,0:0:0:0:
57,134,30551,2,0,P|74:160|74:185,1,50,2|0,0:0|0:0,0:0:0:0:
31,345,30824,2,0,P|53:316|55:279,1,75,2|0,0:0|0:0,0:0:0:0:
47,267,31097,2,0,L|110:256,1,50,2|0,0:0|0:0,0:0:0:0:
240,169,31370,2,0,L|147:153,1,75,4|0,0:0|0:0,0:0:0:0:
156,167,31642,1,2,0:0:0:0:
216,86,31779,1,0,0:0:0:0:
265,254,31915,6,0,P|277:182|342:151,1,150,6|2,0:0|0:0,0:0:0:0:
349,137,32733,2,0,P|355:169|466:208,1,150,2|2,0:0|0:0,0:0:0:0:
464,204,33551,1,2,0:0:0:0:
385,372,33824,1,2,0:0:0:0:
452,336,33960,1,0,0:0:0:0:
341,305,34097,6,0,L|267:315,1,75,6|0,0:0|0:0,0:0:0:0:
137,373,34506,2,0,P|176:328|164:255,1,125,2|0,0:0|0:0,0:0:0:0:
159,253,34915,1,2,0:0:0:0:
30,280,35051,2,0,P|54:284|77:296,1,50,2|0,0:0|0:0,0:0:0:0:
184,174,35324,2,0,P|129:174|85:213,1,100,2|0,0:0|0:0,0:0:0:0:
25,99,35733,2,0,P|14:126|12:148,1,50,2|0,0:0|0:0,0:0:0:0:
111,50,36006,1,2,0:0:0:0:
72,18,36142,1,0,0:0:0:0:
207,79,36279,6,0,P|260:83|332:13,1,150,6|2,0:0|0:0,0:0:0:0:
319,27,37097,2,0,P|336:52|359:62,1,50,2|0,0:0|0:0,0:0:0:0:
485,0,37370,2,0,P|456:16|442:75,1,75,2|0,0:0|0:0,0:0:0:0:
448,69,37642,2,0,L|511:79,1,50,2|0,0:0|0:0,0:0:0:0:
318,157,37915,2,0,L|411:141,1,75,4|0,0:0|0:0,0:0:0:0:
403,137,38188,1,2,0:0:0:0:
375,228,38324,1,0,0:0:0:0:
505,187,38460,6,0,P|463:241|458:327,1,150,6|2,0:0|0:0,0:0:0:0:
457,333,39279,2,0,P|483:316|508:316,1,50,2|0,0:0|0:0,0:0:0:0:
367,362,39551,2,0,P|334:362|293:318,1,75,2|0,0:0|0:0,0:0:0:0:
292,327,39824,2,0,L|242:335,1,50,2|0,0:0|0:0,0:0:0:0:
352,243,40097,2,0,L|274:188,1,75,4|0,0:0|0:0,0:0:0:0:
229,156,40370,1,2,0:0:0:0:
233,146,40438,1,0,3:0:0:0:
312,59,40574,1,8,0:0:0:0:
321,63,40642,6,0,L|311:7,1,50,4|0,1:0|0:0,0:0:0:0:
353,85,40915,2,0,L|343:29,1,50,2|8,0:0|0:0,0:0:0:0:
206,68,41188,6,0,L|175:24,1,50,10|0,0:0|3:0,0:0:0:0:
154,120,41460,2,0,L|121:76,1,50,10|2,0:0|0:0,0:0:0:0:
40,284,41733,5,6,0:0:0:0:
80,252,41870,1,8,0:0:0:0:
154,287,42006,1,2,0:3:0:0:
233,256,42142,1,8,0:0:0:0:
303,330,42279,5,4,0:0:0:0:
413,258,42415,1,2,3:0:0:0:
422,281,42483,1,0,3:0:0:0:
433,305,42551,1,0,3:0:0:0:
441,327,42620,1,2,3:0:0:0:
483,186,42756,1,8,0:0:0:0:
489,175,42824,6,0,L|390:162,1,89.9999972534181,4|0,1:0|0:0,0:0:0:0:
385,155,43097,1,2,0:0:0:0:
433,75,43233,1,2,0:0:0:0:
483,0,43370,1,8,0:0:0:0:
318,1,43642,1,2,0:0:0:0:
325,14,44051,1,2,0:0:0:0:
269,123,44324,1,2,0:3:0:0:
200,22,44460,1,8,0:0:0:0:
139,74,44733,1,2,0:0:0:0:
14,17,45006,6,0,P|48:51|43:96,1,89.9999972534181,6|0,0:0|0:0,0:0:0:0:
33,93,45279,2,2,P|24:126|48:155,1,59.9999981689454,2|0,0:0|0:0,0:0:0:0:
115,196,45551,1,8,0:0:0:0:
120,186,45824,1,4,0:3:0:0:
19,325,46233,1,2,0:0:0:0:
182,348,46506,1,2,0:3:0:0:
112,285,46642,1,8,0:0:0:0:
200,255,46915,5,2,0:0:0:0:
236,269,47051,1,0,3:0:0:0:
353,366,47188,5,6,0:0:0:0:
424,337,47324,2,0,P|397:301|341:292,1,89.9999972534181,2|0,0:0|0:0,0:0:0:0:
340,289,47597,2,0,L|314:234,1,59.9999981689454,2|8,0:0|0:0,0:0:0:0:
410,152,47870,2,0,L|400:214,1,59.9999981689454,2|4,0:0|0:3,0:0:0:0:
292,120,48142,2,2,P|298:49|365:23,1,149.999995422363,6|0,0:0|0:0,0:0:0:0:
376,30,48551,1,2,0:0:0:0:
489,9,48688,5,2,0:3:0:0:
471,54,48824,1,8,0:0:0:0:
205,26,49097,5,2,0:0:0:0:
178,64,49233,1,0,0:0:0:0:
17,42,49370,5,4,0:0:0:0:
93,85,49506,2,0,L|104:21,1,59.9999981689454,2|0,0:0|0:0,0:0:0:0:
18,122,49779,2,0,P|35:150|39:186,1,59.9999981689454,2|8,0:3|0:0,0:0:0:0:
149,150,50051,2,0,P|143:179|127:204,1,59.9999981689454,2|4,0:0|0:3,0:0:0:0:
19,263,50324,2,2,P|53:266|82:375,1,149.999995422363,6|0,0:0|0:0,0:0:0:0:
84,371,50733,1,2,0:0:0:0:
191,267,50870,1,0,0:0:0:0:
232,335,51006,6,0,L|227:361,3,19.9999993896485,0|0|0|0,3:0|3:0|3:0|3:0,3:0:0:0:
309,284,51279,2,0,L|304:310,3,19.9999993896485,0|0|0|0,3:0|3:0|3:0|3:0,3:0:0:0:
479,340,51551,6,0,L|379:361,1,89.9999972534181,4|0,1:0|0:0,0:0:0:0:
376,362,51824,1,2,0:0:0:0:
401,269,51960,1,2,0:0:0:0:
436,179,52097,1,8,0:0:0:0:
471,6,52370,2,0,P|431:43|468:84,1,119.999996337891,2|8,0:0|0:0,0:0:0:0:
324,33,52779,2,0,P|330:65|377:85,1,59.9999981689454,2|0,0:0|0:0,0:0:0:0:
335,16,53051,1,2,0:3:0:0:
304,152,53188,1,8,0:0:0:0:
237,25,53460,1,2,0:3:0:0:
222,110,53597,1,0,3:0:0:0:
94,89,53733,6,0,L|143:156,1,59.9999981689454,6|0,0:0|0:0,0:0:0:0:
72,86,54006,2,0,L|20:123,1,59.9999981689454,2|2,0:0|0:3,0:0:0:0:
95,8,54279,1,8,0:0:0:0:
66,244,54551,1,2,0:0:0:0:
135,290,54688,2,0,L|122:348,1,59.9999981689454,2|8,0:0|0:0,0:0:0:0:
184,223,54960,1,2,0:0:0:0:
194,233,55233,1,2,0:3:0:0:
245,333,55370,2,0,P|263:310|304:292,1,59.9999981689454,8|0,0:0|0:0,0:0:0:0:
441,363,55642,5,2,0:0:0:0:
382,298,55779,1,0,3:0:0:0:
510,253,55915,5,4,1:0:0:0:
428,223,56051,2,0,P|411:194|412:159,1,59.9999981689454,2|0,0:0|0:0,0:0:0:0:
464,56,56324,2,0,P|481:85|480:120,1,59.9999981689454,2|8,0:3|0:0,0:0:0:0:
348,89,56597,1,2,0:0:0:0:
362,56,56733,1,6,0:3:0:0:
258,130,56870,2,2,P|191:106|136:29,1,149.999995422363,4|0,0:0|0:0,0:0:0:0:
141,30,57279,1,2,0:0:0:0:
254,8,57415,5,2,0:3:0:0:
268,43,57551,1,8,0:0:0:0:
61,261,57824,5,2,0:0:0:0:
9,249,57960,1,0,0:0:0:0:
126,177,58097,5,6,0:0:0:0:
45,156,58233,2,0,P|36:130|26:96,1,59.9999981689454,2|0,0:0|0:0,0:0:0:0:
137,294,58506,2,0,P|138:329|137:358,1,59.9999981689454,2|8,0:3|0:0,0:0:0:0:
231,206,58779,5,2,0:0:0:0:
247,158,58915,1,6,0:3:0:0:
333,298,59051,2,0,P|367:301|462:238,1,149.999995422363,6|0,0:0|0:0,0:0:0:0:
469,227,59460,1,2,0:0:0:0:
436,370,59597,1,4,0:3:0:0:
341,124,59733,5,12,0:0:0:0:
366,202,59870,1,2,0:0:0:0:
397,68,60006,1,2,3:0:0:0:
138,314,60279,6,0,L|169:281,1,29.9999990844727,8|0,0:0|0:0,0:0:0:0:
147,331,60824,2,0,L|191:321,1,29.9999990844727,8|0,0:0|0:0,0:0:0:0:
148,348,61370,2,0,L|204:363,1,37.5000014305115,8|0,0:0|0:0,0:0:0:0:
49,350,61915,5,2,0:0:0:0:
17,252,62051,1,2,0:0:0:0:
25,238,62120,1,0,0:0:0:0:
31,227,62188,1,4,0:0:0:0:
7,132,62324,1,12,0:0:0:0:
115,26,62460,6,0,P|163:21|172:108,1,150,6|0,1:0|0:0,0:3:0:0:
167,113,62733,1,2,0:0:0:0:
245,165,62870,1,8,0:0:0:0:
316,51,63006,2,0,L|309:114,2,50,12|2|8,1:3|0:0|0:0,0:3:0:0:
305,44,63551,6,0,P|371:67|448:13,1,150,6|0,1:0|0:0,0:3:0:0:
449,25,63824,2,0,P|437:76|455:109,1,75.0000028610231,2|8,0:0|0:0,0:0:0:0:
365,225,64097,1,6,1:3:0:0:
442,184,64233,1,2,0:0:0:0:
507,245,64370,1,8,0:0:0:0:
178,365,64642,6,0,P|173:317|260:308,1,150,6|0,1:0|0:0,0:0:0:0:
261,315,64915,1,2,0:0:0:0:
334,369,65051,1,8,0:0:0:0:
430,286,65188,2,0,L|437:349,2,50,6|2|8,1:3|0:0|0:0,0:0:0:0:
437,275,65733,6,0,P|404:213|311:200,1,150,6|0,1:0|0:0,0:0:0:0:
326,183,66006,2,0,P|356:140|353:103,1,75.0000028610231,2|8,0:0|0:0,0:0:0:0:
500,152,66279,1,6,1:3:0:0:
443,82,66415,1,2,0:0:0:0:
467,0,66551,1,8,0:0:0:0:
192,56,66824,6,0,P|249:38|258:125,1,150,6|0,1:0|0:0,0:0:0:0:
263,119,67097,1,2,0:0:0:0:
177,145,67233,1,8,0:0:0:0:
87,28,67370,2,0,L|80:91,2,50,6|2|8,1:3|0:0|0:0,0:0:0:0:
75,21,67915,6,0,P|52:87|106:164,1,150,6|0,1:0|0:0,0:0:0:0:
90,166,68188,2,0,P|57:182|39:215,1,75.0000028610231,2|8,0:0|0:0,0:0:0:0:
158,308,68460,1,6,1:3:0:0:
73,295,68597,1,2,0:0:0:0:
23,367,68733,1,8,0:0:0:0:
474,303,69006,6,0,L|461:306,1,12.5,2|0,3:3|3:0,3:0:0:0:
326,375,69279,6,0,L|336:325,1,37.5000014305115,8|0,0:0|0:0,0:0:0:0:
349,261,69415,2,0,L|359:219,1,37.5000014305115,10|0,0:0|0:0,0:0:0:0:
310,146,69551,6,0,L|319:164,1,12.5,2|0,3:0|3:0,3:0:0:0:
496,51,69824,2,0,P|476:104|401:112,1,112.500004291535,2|0,0:0|0:0,0:0:0:0:
360,81,70097,2,0,L|364:64,1,12.5,2|0,3:0|0:0,0:0:0:0:
212,24,70370,6,0,L|219:80,1,37.5000014305115,8|0,0:0|0:0,0:0:0:0:
226,137,70506,2,0,L|233:193,1,37.5000014305115,10|0,0:0|0:0,0:0:0:0:
105,270,70642,5,10,0:0:0:0:
128,190,70779,1,2,0:0:0:0:
0,79,70915,2,2,P|54:81|88:39,1,112.500004291535,4|0,0:0|0:0,0:3:0:0:
84,23,71188,6,0,P|47:71|46:214,1,187.5,6|0,1:0|0:0,0:0:0:0:
41,206,71460,1,2,0:0:0:0:
141,235,71597,1,8,0:0:0:0:
25,346,71733,2,0,P|56:341|103:385,1,75.0000028610231,6|2,1:3|0:0,0:0:0:0:
234,302,72006,2,0,P|203:307|174:365,1,75.0000028610231,8|0,0:0|0:0,0:0:0:0:
238,179,72279,6,0,P|257:269|336:325,1,187.5,6|0,1:0|0:0,0:0:0:0:
326,337,72551,2,0,P|366:336|397:362,1,75.0000028610231,2|8,0:0|0:0,0:0:0:0:
512,213,72824,1,6,1:3:0:0:
420,249,72960,1,2,0:0:0:0:
424,149,73097,2,0,P|402:140|372:137,1,50,8|2,0:0|3:0,0:0:0:0:
491,16,73370,6,0,P|443:75|317:43,1,187.5,6|0,1:0|0:0,0:0:0:0:
331,56,73642,1,2,0:0:0:0:
240,11,73779,1,8,0:0:0:0:
227,171,73915,2,0,P|203:192|195:236,1,75.0000028610231,6|2,1:3|0:0,0:0:0:0:
171,90,74188,2,0,P|136:111|94:101,1,75.0000028610231,8|0,0:0|0:0,0:0:0:0:
255,91,74460,6,0,P|183:73|106:-5,1,187.5,6|0,1:0|0:0,0:0:0:0:
93,0,74733,2,0,P|54:7|25:29,1,75.0000028610231,2|8,0:0|0:0,0:0:0:0:
72,207,75006,1,14,1:2:0:0:
1,132,75142,1,2,0:0:0:0:
19,299,75279,2,0,L|39:348,1,50,8|2,0:0|3:0,0:0:0:0:
169,170,75551,6,0,P|118:214|145:351,1,187.5,6|0,1:0|0:0,0:0:0:0:
135,339,75824,1,2,0:0:0:0:
219,374,75960,1,8,0:0:0:0:
279,234,76097,2,0,P|242:235|213:257,1,75.0000028610231,6|2,1:3|0:0,0:0:0:0:
348,283,76370,2,0,P|358:318|347:353,1,75.0000028610231,8|0,0:0|0:0,0:0:0:0:
356,203,76642,6,0,P|361:113|438:47,1,187.5,6|0,1:0|0:0,0:0:0:0:
442,35,76915,2,0,P|468:65|509:73,1,75.0000028610231,2|8,0:0|0:0,0:0:0:0:
488,245,77188,1,6,1:3:0:0:
438,174,77324,1,2,0:0:0:0:
478,332,77460,2,0,L|421:324,1,50,8|2,0:0|3:0,0:0:0:0:
269,378,77733,6,0,L|261:357,1,12.5,2|0,3:0|3:0,3:0:0:0:
141,355,78006,6,0,L|150:301,1,50,8|0,0:0|0:0,0:0:0:0:
173,175,78142,2,0,L|164:224,1,50,8|0,0:0|0:0,0:0:0:0:
82,249,78279,6,0,L|77:228,1,12.5,2|0,3:0|3:0,3:0:0:0:
9,29,78551,2,0,P|90:62|141:28,1,150,2|0,0:0|0:0,0:0:0:0:
214,16,78824,2,0,L|208:-2,1,12.5,2|0,3:0|0:0,0:0:0:0:
342,67,79097,6,0,L|292:89,1,50,8|0,0:0|0:0,0:0:0:0:
462,12,79233,2,0,L|409:36,1,50,8|0,0:0|0:0,0:0:0:0:
412,114,79370,5,8,0:0:0:0:
495,142,79506,1,2,0:0:0:0:
416,208,79642,5,2,1:2:0:0:
368,223,79779,1,0,0:0:0:0:
418,333,79915,6,0,P|447:311|495:384,1,150,4|2,0:0|0:0,0:0:0:0:
403,325,80733,6,0,P|407:288|493:306,2,150,2|2|0,0:0|0:0|0:0,0:0:0:0:
405,337,82097,6,0,L|308:350,1,89.9999972534181,4|0,1:0|0:0,0:0:0:0:
310,364,82370,1,2,0:0:0:0:
230,350,82506,1,8,0:0:0:0:
291,242,82642,2,0,P|301:184|263:141,1,119.999996337891,6|8,1:3|0:0,0:0:0:0:
94,320,83188,2,0,L|152:334,1,59.9999981689454,4|0,0:0|0:0,0:0:0:0:
6,361,83460,2,0,P|17:315|-12:269,1,89.9999972534181,2|0,0:0|0:0,0:0:0:0:
4,259,83733,2,0,L|71:225,1,59.9999981689454,6|0,1:3|0:0,0:0:0:0:
135,186,84006,1,8,0:0:0:0:
135,186,84279,6,0,P|112:147|59:123,1,89.9999972534181,4|0,1:0|0:0,0:0:0:0:
55,127,84551,1,2,0:0:0:0:
68,34,84688,1,8,0:0:0:0:
199,68,84824,2,0,L|324:35,1,119.999996337891,6|8,1:3|0:0,0:0:0:0:
404,13,85233,2,0,L|392:77,1,59.9999981689454,2|4,0:0|0:0,0:0:0:0:
325,122,85506,2,0,L|335:181,1,59.9999981689454,2|0,0:0|0:0,0:0:0:0:
451,132,85779,1,8,0:0:0:0:
347,264,85915,1,6,1:3:0:0:
356,280,86188,5,10,0:0:0:0:
418,213,86324,1,0,0:0:0:0:
393,363,86460,6,0,P|426:325|497:315,1,119.999996337891,4|2,1:0|0:0,0:0:0:0:
492,313,86870,1,8,0:0:0:0:
298,351,87006,2,0,L|235:365,1,59.9999981689454,6|0,1:3|0:0,0:0:0:0:
155,244,87279,2,0,P|199:236|243:257,1,89.9999972534181,10|0,0:0|0:0,0:0:0:0:
248,265,87551,1,4,0:0:0:0:
128,354,87688,2,0,P|116:330|84:311,1,59.9999981689454,2|0,0:0|0:0,0:0:0:0:
12,335,87960,1,8,0:0:0:0:
67,225,88097,2,0,P|33:192|17:114,1,119.999996337891,6|10,1:3|0:0,0:0:0:0:
15,123,88506,1,0,0:0:0:0:
198,17,88642,6,0,P|168:41|142:127,1,119.999996337891,4|2,1:0|0:0,0:0:0:0:
141,116,89051,1,8,0:0:0:0:
310,85,89188,2,0,P|305:50|286:26,1,59.9999981689454,6|0,1:3|0:0,0:0:0:0:
244,143,89460,1,10,0:0:0:0:
331,168,89597,2,0,L|398:157,2,59.9999981689454,2|4|2,0:0|0:0|0:0,0:0:0:0:
492,15,90006,2,0,P|454:38|440:88,1,89.9999972534181,2|0,0:0|0:0,0:0:0:0:
453,88,90279,2,0,P|474:116|480:146,1,59.9999981689454,6|0,1:3|0:0,0:0:0:0:
422,278,90551,2,0,P|443:250|449:220,1,59.9999981689454,10|0,0:0|0:0,0:0:0:0:
358,356,90824,6,0,P|338:322|288:304,1,89.9999972534181,4|0,1:0|0:0,0:0:0:0:
281,308,91097,1,2,0:0:0:0:
230,374,91233,1,8,0:0:0:0:
184,241,91370,2,0,L|199:106,1,119.999996337891,6|8,1:3|0:0,0:0:0:0:
97,341,91915,2,0,L|165:357,1,59.9999981689454,4|0,0:0|0:0,0:0:0:0:
89,240,92188,2,0,P|62:267|8:270,1,89.9999972534181,2|0,0:0|0:0,0:0:0:0:
0,261,92460,2,0,L|5:195,1,59.9999981689454,6|0,1:3|0:0,0:0:0:0:
11,124,92733,1,8,0:0:0:0:
23,129,93006,6,0,P|55:106|112:109,1,89.9999972534181,4|0,1:0|0:0,0:0:0:0:
118,115,93279,1,2,0:0:0:0:
79,22,93415,1,8,0:0:0:0:
215,0,93551,2,0,L|238:100,1,89.9999972534181,6|0,1:3|0:0,0:0:0:0:
227,103,93824,1,8,0:0:0:0:
321,70,93960,2,0,L|312:130,1,59.9999981689454,2|4,0:0|0:0,0:0:0:0:
398,18,94233,2,0,L|412:85,1,59.9999981689454,2|2,0:0|0:0,0:0:0:0:
491,35,94506,1,8,0:0:0:0:
440,246,94642,5,4,0:0:0:0:
400,174,94779,2,0,P|455:166|513:206,1,119.999996337891,2|0,0:0|0:0,0:0:0:0:
391,313,95188,6,0,P|388:358|402:376,2,59.9999981689454,2|0|0,0:0|0:0|0:0,0:0:0:0:
344,243,95597,2,0,P|289:263|269:331,1,119.999996337891,2|0,0:0|0:0,0:0:0:0:
185,352,96006,1,2,0:0:0:0:
173,344,96279,2,0,L|181:279,1,59.9999981689454,8|0,0:0|0:0,0:0:0:0:
90,74,96551,6,0,L|123:81,1,25,4|0,3:2|0:0,0:0:0:0:
80,82,96824,2,0,L|101:112,1,25,8|0,3:2|0:0,0:0:0:0:
66,86,97097,2,0,L|63:127,1,25,2|0,3:0|0:0,0:0:0:0:
34,12,97233,1,2,0:0:0:0:
202,69,97370,5,4,1:0:0:0:
252,9,97506,2,0,L|261:122,1,112.500004291535,2|0,0:0|0:0,0:0:0:0:
269,137,97779,2,0,P|229:152|200:188,1,75.0000028610231,8|6,0:0|1:3,0:0:0:0:
348,94,98051,2,0,P|406:102|450:65,1,112.500004291535,2|0,0:0|0:0,0:0:0:0:
454,54,98324,1,2,0:0:0:0:
380,11,98460,1,6,0:0:0:0:
346,181,98597,2,0,P|416:200|470:266,1,150.000005722046,2|8,0:0|0:0,0:0:0:0:
403,368,99006,2,0,P|406:342|388:295,1,75.0000028610231,6|0,1:3|0:0,0:0:0:0:
299,298,99279,2,0,P|283:331|285:369,1,75.0000028610231,8|0,0:0|0:0,0:0:0:0:
259,216,99551,6,0,P|189:197|135:131,1,150.000005722046,4|2,1:0|0:0,0:0:0:0:
292,52,99960,1,8,0:0:0:0:
229,118,100097,2,0,P|205:81|207:32,1,75.0000028610231,6|0,3:0|0:0,0:0:0:0:
95,16,100370,2,2,P|58:57|58:128,1,112.500004291535,8|0,0:0|0:0,0:0:0:0:
48,125,100642,6,0,P|52:164|17:160,1,75.0000028610231,2|2,1:0|0:0,0:0:0:0:
32,306,100915,2,0,P|28:267|63:271,1,75.0000028610231,2|8,0:0|0:0,0:0:0:0:
191,324,101188,2,0,P|141:308|121:355,1,112.500004291535,2|0,1:0|0:0,0:0:0:0:
130,370,101460,1,8,0:0:0:0:
271,303,101597,1,2,0:0:0:0:
411,384,101733,6,0,P|428:340|343:288,1,150.000005722046,6|2,1:0|0:0,0:0:0:0:
476,148,102142,1,8,0:0:0:0:
471,229,102279,2,0,P|435:218|406:194,1,75.0000028610231,6|0,1:3|0:0,0:0:0:0:
505,21,102551,2,2,P|466:63|398:78,1,112.500004291535,10|0,0:0|0:0,0:0:0:0:
400,67,102824,6,0,P|372:66|402:98,1,75.0000028610231,2|2,1:0|0:0,0:0:0:0:
310,202,103097,2,0,P|282:202|312:170,1,75.0000028610231,2|8,0:0|0:0,0:0:0:0:
259,8,103370,2,0,P|215:27|237:85,1,112.500004291535,2|0,1:0|0:0,0:0:0:0:
239,88,103642,1,8,0:0:0:0:
148,151,103779,1,2,0:0:0:0:
8,32,103915,6,0,P|57:10|80:84,1,150.000005722046,6|0,1:0|0:0,0:0:0:0:
101,228,104324,1,8,0:0:0:0:
39,166,104460,2,0,P|15:201|16:249,2,75.0000028610231,6|2|8,1:3|0:0|0:0,0:0:0:0:
57,306,104870,2,0,L|25:314,2,25.0000009536744,0|0|0,3:0|3:0|3:0,3:0:0:0:
57,306,105006,6,0,P|145:281|210:309,1,150.000005722046,4|2,1:0|0:0,0:0:0:0:
255,366,105415,1,8,0:0:0:0:
322,174,105551,2,0,P|318:229|293:279,1,112.500004291535,6|0,1:3|0:0,0:0:0:0:
282,286,105824,1,8,0:0:0:0:
370,362,105960,1,2,0:0:0:0:
497,223,106097,5,4,1:0:0:0:
474,297,106233,2,0,L|425:194,1,112.500004291535,2|0,0:0|0:0,0:0:0:0:
411,185,106506,2,0,P|456:147|464:113,1,75.0000028610231,8|6,0:0|1:3,0:0:0:0:
319,6,106779,2,0,P|365:32|381:95,1,112.500004291535,2|0,0:0|0:0,0:0:0:0:
374,100,107051,1,2,0:0:0:0:
308,158,107188,1,6,1:3:0:0:
233,36,107324,2,0,P|161:73|84:50,1,150.000005722046,2|8,0:0|0:0,0:0:0:0:
6,191,107733,2,0,P|31:163|66:151,1,75.0000028610231,6|0,1:3|0:0,0:0:0:0:
51,267,108006,2,0,P|85:254|111:227,1,75.0000028610231,10|2,0:0|0:0,0:0:0:0:
260,141,108279,6,0,P|213:197|194:290,1,150.000005722046,4|0,1:0|0:0,0:0:0:0:
303,357,108688,1,8,0:0:0:0:
278,278,108824,2,0,P|291:234|312:208,1,75.0000028610231,6|0,1:3|0:0,0:0:0:0:
481,373,109097,2,2,P|427:360|383:326,1,112.500004291535,8|0,0:0|0:0,0:0:0:0:
381,314,109370,6,0,P|399:286|418:315,1,75.0000028610231,2|2,1:0|0:0,0:0:0:0:
509,192,109642,2,0,P|491:220|472:191,1,75.0000028610231,2|8,0:0|0:0,0:0:0:0:
387,63,109915,2,0,P|381:102|435:82,1,112.500004291535,2|0,1:0|0:0,0:0:0:0:
430,78,110188,1,8,0:0:0:0:
306,14,110324,1,2,0:0:0:0:
202,157,110460,6,0,P|251:174|281:91,1,150.000005722046,6|2,1:0|0:0,0:0:0:0:
138,37,110870,1,8,0:0:0:0:
209,0,111006,2,0,P|214:58|184:92,1,75.0000028610231,6|0,1:3|0:0,0:0:0:0:
21,43,111279,2,2,P|33:80|91:144,1,112.500004291535,8|0,0:0|0:0,0:0:0:0:
96,136,111551,6,0,P|100:173|66:169,1,75.0000028610231,2|2,1:0|0:0,0:0:0:0:
2,264,111824,2,0,P|35:269|28:302,1,75.0000028610231,2|8,0:0|0:0,0:0:0:0:
210,234,112097,2,0,P|156:250|192:311,1,112.500004291535,2|0,1:0|0:0,0:0:0:0:
215,353,112370,1,8,0:0:0:0:
224,343,112438,1,0,3:0:0:0:
232,335,112506,2,0,L|283:344,1,37.5000014305115,0|0,0:0|3:0,0:0:0:0:
349,370,112642,5,4,1:0:0:0:
392,349,112779,1,2,0:0:0:0:
417,310,112915,1,0,0:0:0:0:
412,266,113051,1,8,3:2:0:0:
505,188,113188,5,6,1:3:0:0:
430,188,113324,1,2,0:0:0:0:
379,132,113460,1,8,0:0:0:0:
389,57,113597,1,8,0:0:0:0:
481,26,113733,5,14,1:2:0:0:
450,99,113870,1,2,0:0:0:0:
365,129,114006,1,2,0:0:0:0:
281,97,114142,1,8,0:0:0:0:
199,18,114279,5,6,1:3:0:0:
273,81,114415,1,8,0:0:0:0:
262,177,114551,1,8,0:0:0:0:
178,226,114688,1,2,0:3:0:0:
25,58,114824,6,0,L|135:74,1,89.9999972534181,4|0,1:0|0:0,0:0:0:0:
130,73,115097,1,2,0:0:0:0:
82,153,115233,1,2,0:0:0:0:
32,228,115370,1,8,0:0:0:0:
197,227,115642,1,2,0:0:0:0:
210,241,116051,1,2,0:0:0:0:
188,371,116324,1,2,0:3:0:0:
82,291,116460,1,8,0:0:0:0:
158,301,116733,1,2,0:0:0:0:
213,163,117006,6,0,P|247:129|292:134,1,89.9999972534181,6|0,0:0|0:0,0:0:0:0:
289,144,117279,2,2,P|322:153|351:129,1,59.9999981689454,2|0,0:0|0:0,0:0:0:0:
368,50,117551,1,8,0:0:0:0:
373,60,117824,1,4,0:3:0:0:
471,208,118233,1,2,0:0:0:0:
499,29,118506,1,2,0:3:0:0:
453,114,118642,1,8,0:0:0:0:
368,212,118915,5,0,3:0:0:0:
382,176,119051,1,2,0:0:0:0:
423,364,119188,5,6,0:0:0:0:
424,287,119324,2,0,P|380:297|350:345,1,89.9999972534181,2|0,0:0|0:0,0:0:0:0:
344,321,119597,2,0,L|289:380,1,59.9999981689454,2|8,0:0|0:0,0:0:0:0:
193,249,119870,2,0,L|252:264,1,59.9999981689454,2|4,0:0|0:3,0:0:0:0:
145,336,120142,2,2,P|77:316|29:369,1,149.999995422363,6|0,0:0|0:0,0:0:0:0:
44,380,120551,1,2,0:0:0:0:
28,212,120688,5,2,0:3:0:0:
10,257,120824,1,8,0:0:0:0:
209,64,121097,5,2,0:0:0:0:
182,26,121233,1,0,0:0:0:0:
21,48,121370,5,4,0:0:0:0:
97,5,121506,2,0,L|108:69,1,59.9999981689454,2|0,0:0|0:0,0:0:0:0:
81,149,121779,2,0,P|53:132|17:128,1,59.9999981689454,2|8,0:3|0:0,0:0:0:0:
167,176,122051,2,0,P|192:159|221:153,1,59.9999981689454,2|4,0:0|0:3,0:0:0:0:
98,243,122324,2,2,P|100:314|165:344,1,149.999995422363,6|0,0:0|0:0,0:0:0:0:
178,337,122733,1,2,0:0:0:0:
243,251,122870,1,0,0:0:0:0:
287,354,123006,6,0,L|291:335,3,19.9999993896485,0|0|0|0,3:0|3:0|3:0|3:0,3:0:0:0:
362,260,123279,2,0,L|357:286,3,19.9999993896485,0|0|0|0,3:0|3:0|3:0|3:0,3:0:0:0:
488,371,123551,6,0,P|446:311|467:242,1,150.000005722046,4|2,1:0|0:0,0:0:0:0:
467,242,123960,1,2,0:0:0:0:
396,106,124097,2,0,P|387:142|398:178,1,75.0000028610231,8|0,1:2|0:0,0:0:0:0:
485,78,124370,1,2,0:0:0:0:
272,22,124642,5,4,0:0:0:0:
191,55,124779,2,0,P|222:96|253:104,1,75.0000028610231,2|0,0:0|0:0,0:0:0:0:
113,16,125051,1,8,0:0:0:0:
0,137,125188,6,0,P|41:136|100:192,1,112.500004291535,6|0,1:3|0:0,0:0:0:0:
99,193,125460,2,0,P|134:157|178:152,1,75.0000028610231,8|0,0:0|0:0,0:0:0:0:
120,331,125733,6,0,P|84:298|6:301,1,112.500004291535,4|0,1:0|0:0,0:0:0:0:
16,307,126006,1,2,0:0:0:0:
51,382,126142,1,2,0:0:0:0:
181,241,126279,2,0,P|229:241|279:199,1,112.500004291535,10|0,1:2|0:0,0:0:0:0:
279,186,126551,1,2,0:0:0:0:
423,366,126824,5,4,0:0:0:0:
433,281,126960,2,0,L|345:313,1,75.0000028610231,2|0,0:0|0:0,0:0:0:0:
501,331,127233,1,8,0:0:0:0:
457,197,127370,2,0,L|380:173,1,75.0000028610231,6|0,1:3|0:0,0:0:0:0:
505,65,127642,1,2,0:0:0:0:
464,91,127779,1,0,3:0:0:0:
331,14,127915,5,4,1:0:0:0:
396,52,128051,2,0,L|254:86,1,112.500004291535,2|0,0:0|0:0,0:0:0:0:
273,83,128324,2,0,P|291:118|291:165,1,75.0000028610231,2|10,0:0|1:2,0:0:0:0:
180,93,128597,2,0,P|153:52|152:19,1,75.0000028610231,2|8,0:0|0:0,0:0:0:0:
7,161,128870,1,2,0:0:0:0:
65,108,129006,2,0,L|56:252,1,112.500004291535,4|0,0:0|0:0,0:0:0:0:
66,230,129279,2,0,P|105:207|150:203,1,75.0000028610231,2|8,0:0|0:0,0:0:0:0:
22,303,129551,1,6,1:3:0:0:
283,365,129824,5,8,0:0:0:0:
249,288,129960,1,2,0:0:0:0:
367,208,130097,6,0,L|356:310,1,75.0000028610231,4|0,1:0|0:0,0:0:0:0:
450,235,130370,1,4,3:0:0:0:
443,269,130506,1,8,0:0:0:0:
342,119,130642,6,0,L|353:221,1,75.0000028610231,14|0,1:3|0:0,0:0:0:0:
259,146,130915,1,4,3:0:0:0:
266,180,131051,1,2,0:0:0:0:
365,34,131188,6,0,L|354:136,1,75.0000028610231,4|0,1:0|0:0,0:0:0:0:
448,61,131460,1,6,1:3:0:0:
441,95,131597,1,2,0:3:0:0:
271,20,131733,5,10,1:2:0:0:
180,47,131870,1,0,3:0:0:0:
93,77,132006,1,8,0:0:0:0:
141,109,132142,1,2,0:3:0:0:
119,153,132279,6,0,L|144:192,1,37.5000014305115,2|0,3:0|0:0,0:0:0:0:
113,176,132824,2,0,L|129:235,1,37.5000014305115,8|0,3:2|0:0,0:0:0:0:
100,191,133370,2,0,L|94:246,1,37.5000014305115,0|0,3:0|0:0,0:0:0:0:
48,352,133915,5,2,0:0:0:0:
139,314,134051,1,0,3:0:0:0:
147,328,134120,1,0,0:0:0:0:
153,339,134188,1,12,0:0:0:0:
4,262,134324,1,2,0:0:0:0:
197,227,134460,6,0,P|245:222|254:309,1,150,6|0,1:0|0:0,0:3:0:0:
249,314,134733,1,2,0:0:0:0:
327,366,134870,1,8,0:0:0:0:
398,252,135006,2,0,L|391:315,2,50,12|2|8,1:3|0:0|0:0,0:3:0:0:
408,248,135551,6,0,P|372:184|394:115,1,150,6|0,1:0|0:0,0:3:0:0:
405,125,135824,2,0,P|440:116|475:129,1,75.0000028610231,2|8,0:0|0:0,0:0:0:0:
396,3,136097,1,6,1:3:0:0:
307,86,136233,1,2,0:0:0:0:
201,30,136370,1,8,0:0:0:0:
0,218,136642,6,0,P|39:189|90:260,1,150,6|0,1:0|0:0,0:0:0:0:
84,264,136915,1,2,0:0:0:0:
183,229,137051,1,8,0:0:0:0:
93,116,137188,2,0,L|99:61,2,50,6|2|8,1:3|0:0|0:0,0:0:0:0:
102,109,137733,6,0,P|174:140|245:120,1,150,6|0,1:0|0:0,0:0:0:0:
252,114,138006,2,0,P|258:150|282:178,1,75.0000028610231,2|8,0:0|0:0,0:0:0:0:
308,379,138279,1,6,1:3:0:0:
354,273,138415,1,2,0:0:0:0:
465,256,138551,1,8,0:0:0:0:
512,0,138824,6,0,P|530:57|443:66,1,150,6|0,1:0|0:0,0:0:0:0:
449,71,139097,1,2,0:0:0:0:
367,17,139233,1,8,0:0:0:0:
406,157,139370,2,0,L|399:220,2,50,6|2|8,1:3|0:0|0:0,0:0:0:0:
408,146,139915,6,0,P|338:146|284:224,1,150,6|0,1:0|0:0,0:0:0:0:
274,211,140188,2,0,P|274:247|296:277,1,75.0000028610231,2|8,0:0|0:0,0:0:0:0:
145,380,140460,1,6,1:3:0:0:
160,268,140597,1,2,0:0:0:0:
70,191,140733,1,8,0:0:0:0:
379,35,141006,6,0,L|358:38,1,12.5,2|0,3:3|3:0,3:0:0:0:
140,95,141279,6,0,L|190:105,1,37.5000014305115,8|0,0:0|0:0,0:0:0:0:
249,140,141415,2,0,L|291:150,1,37.5000014305115,10|0,0:0|0:0,0:0:0:0:
349,221,141551,6,0,L|352:202,1,12.5,2|0,3:0|3:0,3:0:0:0:
116,351,141824,2,0,P|136:298|211:290,1,112.500004291535,2|0,0:0|0:0,0:0:0:0:
219,348,142097,2,0,L|216:369,1,12.5,2|0,3:0|3:0,3:0:0:0:
382,349,142370,6,0,L|378:312,1,37.5000014305115,8|0,0:0|0:0,0:0:0:0:
439,250,142506,2,0,L|435:213,1,37.5000014305115,10|0,0:0|0:0,0:0:0:0:
465,53,142642,5,10,0:0:0:0:
488,139,142779,1,2,0:0:0:0:
306,75,142915,2,2,P|304:129|346:163,1,112.500004291535,4|0,0:0|0:0,0:3:0:0:
360,153,143188,6,0,P|355:92|260:-14,1,187.5,6|0,1:0|0:0,0:0:0:0:
267,0,143460,1,2,0:0:0:0:
207,106,143597,1,8,0:0:0:0:
69,25,143733,2,0,P|100:20|147:64,1,75.0000028610231,6|2,1:3|0:0,0:0:0:0:
78,205,144006,2,0,P|109:207|150:157,1,75.0000028610231,8|0,0:0|0:0,0:0:0:0:
9,124,144279,6,0,P|45:215|53:314,1,187.5,6|0,1:0|0:0,0:0:0:0:
68,302,144551,2,0,P|74:336|58:389,1,75.0000028610231,2|8,0:0|0:0,0:0:0:0:
163,270,144824,1,6,1:3:0:0:
226,350,144960,1,2,0:0:0:0:
301,277,145097,2,0,L|316:225,1,50,8|2,0:0|3:0,0:0:0:0:
512,384,145370,6,0,P|437:369|406:243,1,187.5,6|0,1:0|0:0,0:0:0:0:
403,262,145642,1,2,0:0:0:0:
496,227,145779,1,8,0:0:0:0:
448,104,145915,2,0,P|424:125|416:169,1,75.0000028610231,6|2,1:3|0:0,0:0:0:0:
382,4,146188,2,0,P|347:25|305:15,1,75.0000028610231,8|0,0:0|0:0,0:0:0:0:
473,19,146460,6,0,L|277:141,1,187.5,6|0,1:0|0:0,0:0:0:0:
319,132,146733,2,0,P|311:173|321:204,1,75.0000028610231,2|8,0:0|0:0,0:0:0:0:
215,142,147006,1,14,1:2:0:0:
172,49,147142,1,2,0:0:0:0:
76,88,147279,2,0,L|23:112,1,50,8|2,0:0|3:0,0:0:0:0:
260,61,147551,6,0,P|200:92|122:206,1,187.5,6|0,1:0|0:0,0:0:0:0:
134,202,147824,1,2,0:0:0:0:
40,205,147960,1,8,0:0:0:0:
107,351,148097,2,0,P|106:314|84:285,1,75.0000028610231,6|2,1:3|0:0,0:0:0:0:
247,313,148370,2,0,P|237:278|248:243,1,75.0000028610231,8|0,0:0|0:0,0:0:0:0:
192,378,148642,6,0,P|266:327|365:349,1,187.5,6|0,1:0|0:0,0:0:0:0:
372,328,148915,2,0,P|398:358|439:366,1,75.0000028610231,2|8,0:0|0:0,0:0:0:0:
421,243,149188,1,6,1:3:0:0:
358,170,149324,1,2,0:0:0:0:
494,123,149460,2,0,L|435:111,1,50,8|2,0:0|3:0,0:0:0:0:
329,41,149733,6,0,L|346:55,1,12.5,2|0,3:0|3:0,0:0:0:0:
185,199,150006,6,0,L|194:145,1,50,8|0,0:0|0:0,0:0:0:0:
217,19,150142,2,0,L|208:68,1,50,8|0,0:0|0:0,0:0:0:0:
130,79,150279,6,0,L|133:100,1,12.5,2|0,3:0|3:0,3:0:0:0:
254,288,150551,2,0,P|175:289|150:363,1,150,2|0,0:0|0:0,0:0:0:0:
228,365,150824,2,0,L|235:386,1,12.5,2|0,3:0|3:0,3:0:0:0:
335,213,151097,6,0,L|326:163,1,50,8|0,0:0|0:0,0:0:0:0:
364,371,151233,2,0,L|357:321,1,50,8|0,0:0|0:0,0:0:0:0:
424,248,151370,5,2,0:0:0:0:
427,138,151506,1,8,0:0:0:0:
507,178,151642,5,0,0:0:0:0:
512,208,151779,1,2,1:2:0:0:
421,34,151915,6,0,B|364:26|364:26|356:32|356:32|293:24,1,125,4|0,1:0|0:0,0:0:0:0:
102,73,152188,1,2,0:1:0:0:
102,73,152324,1,4,0:3:0:0:
184,2,152460,5,2,1:0:0:0:
216,95,152597,1,2,0:0:0:0:
3,153,152733,2,0,B|11:96|11:96|5:88|5:88|13:25,1,125,8|0,0:0|0:0,0:0:0:0:
133,169,153006,2,0,B|80:199|80:199|71:268,1,125,6|8,1:2|0:0,0:0:0:0:
243,368,153279,5,2,0:1:0:0:
243,368,153415,1,8,0:0:0:0:
275,235,153551,1,2,1:0:0:0:
256,240,153620,1,0,3:0:0:0:
238,245,153688,1,0,3:0:0:0:
220,251,153756,1,0,3:0:0:0:
202,257,153824,2,0,B|173:273|173:273|171:303,4,62.5,2|0|0|0|4,3:1|3:0|3:0|3:0|1:0,3:0:0:0:
415,365,154233,5,2,0:0:0:0:
384,284,154370,1,2,0:1:0:0:
470,294,154506,1,8,0:0:0:0:
375,115,154642,2,0,B|424:145|424:145|438:221,1,125,2|2,1:0|0:3,0:0:0:0:
512,25,154915,2,0,B|455:32|455:32|447:26|447:26|390:34,1,125,10|0,0:0|0:0,0:0:0:0:
390,34,155188,1,6,1:3:0:0:
290,154,155324,5,2,0:0:0:0:
234,20,155460,1,2,0:1:0:0:
224,100,155597,1,8,0:0:0:0:
48,42,155733,1,6,1:2:0:0:
66,45,155801,1,0,3:0:0:0:
84,47,155870,1,0,3:0:0:0:
102,50,155938,1,0,3:0:0:0:
120,54,156006,2,0,L|131:135,1,62.5,2|0,1:0|0:0,0:0:0:0:
50,146,156142,2,0,L|61:220,1,62.5,6|0,3:0|0:0,0:0:0:0:
128,371,156279,6,0,B|136:314|136:314|130:306|130:306|138:243,1,125,4|0,1:0|0:0,0:0:0:0:
41,356,156551,1,2,0:1:0:0:
41,356,156688,1,8,0:0:0:0:
221,287,156824,5,2,1:0:0:0:
226,371,156960,1,2,0:0:0:0:
411,315,157097,6,0,B|403:258|403:258|409:250|409:250|401:187,1,125,8|0,0:0|0:0,0:0:0:0:
309,384,157370,2,0,B|319:256,1,125,6|0,1:3|0:0,0:0:0:0:
491,256,157642,5,2,0:1:0:0:
491,256,157779,1,8,0:0:0:0:
383,100,157915,1,6,1:2:0:0:
400,93,157983,1,0,3:0:0:0:
417,86,158051,1,0,3:0:0:0:
434,79,158120,1,0,3:0:0:0:
451,71,158188,2,0,B|478:91|478:91|487:138,4,62.5,2|0|0|0|4,1:0|3:0|3:0|3:0|1:0,3:0:0:0:
287,28,158597,5,2,0:0:0:0:
263,133,158733,1,2,0:1:0:0:
188,55,158870,1,8,0:0:0:0:
102,259,159006,2,0,B|151:229|151:229|165:153,1,125,6|0,1:3|0:0,0:0:0:0:
0,24,159279,2,0,B|49:54|49:54|63:130,1,125,2|0,0:1|0:0,0:0:0:0:
61,120,159551,1,6,1:2:0:0:
247,265,159688,5,2,0:0:0:0:
274,360,159824,1,2,0:1:0:0:
274,360,159960,1,0,0:0:0:0:
354,350,160097,2,0,L|403:346,1,50,4|0,0:0|0:0,0:0:0:0:
295,183,160233,5,2,0:0:0:0:
365,239,160370,1,2,0:1:0:0:
496,138,160506,2,2,L|451:15,1,125,6|0,1:0|0:0,0:0:0:0:
