osu file format v14

[General]
AudioFilename: audio.mp3
AudioLeadIn: 0
PreviewTime: 255271
Countdown: 0
SampleSet: Soft
StackLeniency: 0.3
Mode: 0
LetterboxInBreaks: 0
WidescreenStoryboard: 0

[Editor]
Bookmarks: 131,18330,36529,41078,59277,68377,86576,95676,113875,122974,141192,155942,163326,178096,202870,215257,227644,240031,252418,256967,270617,304017,336356,343962
DistanceSpacing: 0.3
BeatDivisor: 8
GridSize: 32
TimelineZoom: 3.499999

[Metadata]
Title:Enemy of God
TitleUnicode:Enemy of God
Artist:Kreator
ArtistUnicode:Kreator
Creator:piroshki
Version:Archfiend
Source:
Tags:english rock thrash speed heavy metal male vocals vocalist
BeatmapID:4331503
BeatmapSetID:2070097

[Difficulty]
HPDrainRate:5
CircleSize:4.6
OverallDifficulty:9.3
ApproachRate:9.7
SliderMultiplier:1.9
SliderTickRate:1

[Events]
//Background and Video events
0,0,"112234883_p000.jpg",0,0
//Break Periods
//Storyboard Layer 0 (Background)
//Storyboard Layer 1 (Fail)
//Storyboard Layer 2 (Pass)
//Storyboard Layer 3 (Foreground)
//Storyboard Layer 4 (Overlay)
//Storyboard Sound Samples

[TimingPoints]
131,284.36018957346,4,2,1,58,1,0
131,-76.9230769230769,4,2,1,58,0,0
273,-100,4,2,1,5,0,0
344,-100,4,2,1,58,0,0
770,-100,4,2,1,5,0,0
841,-100,4,2,1,58,0,0
912,-100,4,2,1,5,0,0
983,-100,4,2,1,58,0,0
1410,-100,4,2,1,5,0,0
1481,-100,4,2,1,58,0,0
2548,-100,4,2,1,5,0,0
2619,-100,4,2,1,58,0,0
3045,-100,4,2,1,5,0,0
3116,-100,4,2,1,58,0,0
3187,-100,4,2,1,5,0,0
3258,-100,4,2,1,58,0,0
3543,-71.4285714285714,4,2,1,58,0,0
3685,-71.4285714285714,4,2,1,5,0,0
3827,-71.4285714285714,4,2,1,58,0,0
3969,-71.4285714285714,4,2,1,5,0,0
4112,-71.4285714285714,4,2,1,58,0,0
4396,-52.6315789473684,4,2,1,58,0,0
4538,-71.4285714285714,4,2,1,5,0,0
4680,-76.9230769230769,4,2,1,58,0,0
4822,-100,4,2,1,5,0,0
4893,-100,4,2,1,58,0,0
5320,-100,4,2,1,5,0,0
5391,-100,4,2,1,58,0,0
5462,-100,4,2,1,5,0,0
5533,-100,4,2,1,58,0,0
5960,-100,4,2,1,5,0,0
6031,-100,4,2,1,58,0,0
7240,-71.4285714285714,4,2,1,58,0,0
7808,-90.9090909090909,4,2,1,58,0,0
8377,-71.4285714285714,4,2,1,58,0,0
8661,-90.9090909090909,4,2,1,58,0,0
8946,-71.4285714285714,4,2,1,58,0,0
9230,-76.9230769230769,4,2,1,58,0,0
9372,-100,4,2,1,5,0,0
9443,-100,4,2,1,58,0,0
9870,-100,4,2,1,5,0,0
9941,-100,4,2,1,58,0,0
10012,-100,4,2,1,5,0,0
10083,-100,4,2,1,58,0,0
10510,-100,4,2,1,5,0,0
10581,-100,4,2,1,58,0,0
11647,-100,4,2,1,5,0,0
11718,-100,4,2,1,58,0,0
12145,-100,4,2,1,5,0,0
12216,-100,4,2,1,58,0,0
12287,-100,4,2,1,5,0,0
12358,289.855072463768,4,2,1,58,1,0
12358,-100,4,2,1,58,0,0
12647,-71.4285714285714,4,2,1,58,0,0
12792,-71.4285714285714,4,2,1,5,0,0
12937,276.497695852535,4,2,1,58,1,0
12937,-71.4285714285714,4,2,1,58,0,0
13075,-71.4285714285714,4,2,1,5,0,0
13213,-71.4285714285714,4,2,1,58,0,0
13351,342.857142857143,4,2,1,58,1,0
13522,265.486725663717,4,2,1,58,1,0
13522,-52.6315789473684,4,2,1,58,0,0
13654,-71.4285714285714,4,2,1,5,0,0
13787,277.777777777778,4,2,1,58,1,0
13787,-76.9230769230769,4,2,1,58,0,0
13925,-100,4,2,1,5,0,0
14064,284.36018957346,4,2,1,58,1,0
14064,-100,4,2,1,58,0,0
14419,-100,4,2,1,5,0,0
14491,-100,4,2,1,58,0,0
14562,-100,4,2,1,5,0,0
14633,-100,4,2,1,58,0,0
14917,284.36018957346,4,2,1,58,1,0
15059,-100,4,2,1,5,0,0
15130,-100,4,2,1,58,0,0
16338,-83.3333333333333,4,2,1,58,0,0
16623,-71.4285714285714,4,2,1,58,0,0
16907,-62.5,4,2,1,58,0,0
17191,-55.5555555555556,4,2,1,58,0,0
17476,-62.5,4,2,1,58,0,0
17760,-71.4285714285714,4,2,1,58,0,0
18045,-100,4,2,1,58,0,0
18329,-66.6666666666667,4,2,1,65,0,0
18400,-66.6666666666667,4,2,1,5,0,0
18471,-66.6666666666667,4,2,1,65,0,0
18542,-66.6666666666667,4,2,1,5,0,0
18613,-66.6666666666667,4,2,1,65,0,0
20676,-66.6666666666667,4,2,1,5,0,0
20747,-66.6666666666667,4,2,1,65,0,0
20818,-66.6666666666667,4,2,1,5,0,0
20889,-66.6666666666667,4,2,1,65,0,0
22950,-66.6666666666667,4,2,1,5,0,0
23021,-66.6666666666667,4,2,1,65,0,0
23093,-66.6666666666667,4,2,1,5,0,0
23164,-66.6666666666667,4,2,1,65,0,0
25225,-66.6666666666667,4,2,1,5,0,0
25296,-66.6666666666667,4,2,1,65,0,0
25367,-66.6666666666667,4,2,1,5,0,0
25438,-66.6666666666667,4,2,1,65,0,0
27500,-66.6666666666667,4,2,1,5,0,0
27571,-66.6666666666667,4,2,1,65,0,0
27642,-66.6666666666667,4,2,1,5,0,0
27713,-66.6666666666667,4,2,1,65,0,0
29775,-66.6666666666667,4,2,1,5,0,0
29846,-66.6666666666667,4,2,1,65,0,0
29917,-66.6666666666667,4,2,1,5,0,0
29988,-66.6666666666667,4,2,1,65,0,0
31055,-66.6666666666667,4,2,1,5,0,0
31126,-66.6666666666667,4,2,1,65,0,0
32050,-66.6666666666667,4,2,1,5,0,0
32121,-66.6666666666667,4,2,1,65,0,0
32192,-66.6666666666667,4,2,1,5,0,0
32263,-66.6666666666667,4,2,1,65,0,0
34325,-66.6666666666667,4,2,1,5,0,0
34396,-66.6666666666667,4,2,1,65,0,0
34467,-66.6666666666667,4,2,1,5,0,0
34538,-66.6666666666667,4,2,1,65,0,0
36529,-66.6666666666667,4,2,1,60,0,0
36671,-66.6666666666667,4,2,1,5,0,0
36812,-90.9090909090909,4,2,1,60,0,0
37240,-90.9090909090909,4,2,1,5,0,0
37382,-90.9090909090909,4,2,1,60,0,0
37808,-90.9090909090909,4,2,1,5,0,0
37950,-90.9090909090909,4,2,1,60,0,0
38377,-90.9090909090909,4,2,1,5,0,0
38519,-90.9090909090909,4,2,1,60,0,0
38946,-90.9090909090909,4,2,1,5,0,0
39088,-90.9090909090909,4,2,1,60,0,0
39514,-90.9090909090909,4,2,1,5,0,0
39656,-90.9090909090909,4,2,1,60,0,0
39940,-66.6666666666667,4,2,1,60,0,0
40083,-66.6666666666667,4,2,1,5,0,0
40225,-52.6315789473684,4,2,1,60,0,0
40367,-52.6315789473684,4,2,1,5,0,0
40510,-52.6315789473684,4,2,1,60,0,0
40793,-41.6666666666667,4,2,1,60,0,0
40936,-41.6666666666667,4,2,1,5,0,0
41078,-62.5,4,2,1,70,0,0
42856,-62.5,4,2,1,5,0,0
42927,-62.5,4,2,1,70,0,0
43709,-62.5,4,2,1,5,0,0
43780,-62.5,4,2,1,70,0,0
43851,-62.5,4,2,1,5,0,0
43922,-62.5,4,2,1,70,0,0
44704,-62.5,4,2,1,5,0,0
44775,-62.5,4,2,1,70,0,0
46837,-62.5,4,2,1,5,0,0
46908,-62.5,4,2,1,70,0,0
48401,-62.5,4,2,1,5,0,0
48472,-62.5,4,2,1,70,0,0
48685,-62.5,4,2,1,5,0,0
48756,-62.5,4,2,1,70,0,0
49680,-62.5,4,2,1,5,0,0
49751,-62.5,4,2,1,70,0,0
49822,-62.5,4,2,1,5,0,0
49893,-62.5,4,2,1,70,0,0
50249,-62.5,4,2,1,5,0,0
50320,-62.5,4,2,1,70,0,0
50391,-62.5,4,2,1,5,0,0
50462,-62.5,4,2,1,70,0,0
53235,-62.5,4,2,1,5,0,0
53306,-62.5,4,2,1,70,0,0
53518,-62.5,4,2,1,5,0,0
53589,-62.5,4,2,1,70,0,0
53661,-62.5,4,2,1,5,0,0
53732,-62.5,4,2,1,70,0,0
53803,-62.5,4,2,1,5,0,0
53874,-62.5,4,2,1,70,0,0
55935,-62.5,4,2,1,5,0,0
56007,-62.5,4,2,1,70,0,0
56078,-62.5,4,2,1,5,0,0
56149,-62.5,4,2,1,70,0,0
57642,-62.5,4,2,1,5,0,0
57713,-62.5,4,2,1,70,0,0
57785,-62.5,4,2,1,5,0,0
57855,-62.5,4,2,1,70,0,0
58068,-62.5,4,2,1,5,0,0
58139,-62.5,4,2,1,70,0,0
58353,-62.5,4,2,1,5,0,0
58424,-62.5,4,2,1,70,0,0
59277,-55.5555555555556,4,2,1,73,0,0
59917,-55.5555555555556,4,2,1,5,0,0
59988,-55.5555555555556,4,2,1,73,0,0
60059,-55.5555555555556,4,2,1,5,0,0
60130,-55.5555555555556,4,2,1,73,0,0
60627,-55.5555555555556,4,2,1,5,0,0
60698,-55.5555555555556,4,2,1,73,0,0
60770,-55.5555555555556,4,2,1,5,0,0
60841,-55.5555555555556,4,2,1,73,0,0
60912,-55.5555555555556,4,2,1,5,0,0
60983,-55.5555555555556,4,2,1,73,0,0
61054,-55.5555555555556,4,2,1,5,0,0
61125,-55.5555555555556,4,2,1,73,0,0
61196,-55.5555555555556,4,2,1,5,0,0
61267,-55.5555555555556,4,2,1,73,0,0
62191,-55.5555555555556,4,2,1,5,0,0
62262,-55.5555555555556,4,2,1,73,0,0
62334,-55.5555555555556,4,2,1,5,0,0
62405,-55.5555555555556,4,2,1,73,0,0
62760,-55.5555555555556,4,2,1,5,0,0
62831,-55.5555555555556,4,2,1,73,0,0
63044,-55.5555555555556,4,2,1,5,0,0
63116,-55.5555555555556,4,2,1,73,0,0
63187,-55.5555555555556,4,2,1,5,0,0
63258,-55.5555555555556,4,2,1,73,0,0
63329,-55.5555555555556,4,2,1,5,0,0
63400,-55.5555555555556,4,2,1,73,0,0
63471,-55.5555555555556,4,2,1,5,0,0
63542,-55.5555555555556,4,2,1,73,0,0
64466,-55.5555555555556,4,2,1,5,0,0
64537,-55.5555555555556,4,2,1,73,0,0
64608,-55.5555555555556,4,2,1,5,0,0
64680,-55.5555555555556,4,2,1,73,0,0
65177,-55.5555555555556,4,2,1,5,0,0
65248,-55.5555555555556,4,2,1,73,0,0
65319,-55.5555555555556,4,2,1,5,0,0
65390,-55.5555555555556,4,2,1,73,0,0
65462,-55.5555555555556,4,2,1,5,0,0
65533,-55.5555555555556,4,2,1,73,0,0
65604,-55.5555555555556,4,2,1,5,0,0
65675,-55.5555555555556,4,2,1,73,0,0
65746,-55.5555555555556,4,2,1,5,0,0
65817,-55.5555555555556,4,2,1,73,0,0
66741,-55.5555555555556,4,2,1,5,0,0
66812,-55.5555555555556,4,2,1,73,0,0
66883,-55.5555555555556,4,2,1,5,0,0
66954,-55.5555555555556,4,2,1,73,0,0
67239,-40,4,2,1,73,0,0
68377,-40,4,2,1,70,0,0
71789,-76.9230769230769,4,2,1,70,0,0
86576,-76.9230769230769,4,2,1,79,0,0
86931,-76.9230769230769,4,2,1,5,0,0
87002,-76.9230769230769,4,2,1,79,0,0
87073,-76.9230769230769,4,2,1,5,0,0
87144,-76.9230769230769,4,2,1,79,0,0
88068,-76.9230769230769,4,2,1,5,0,0
88139,-76.9230769230769,4,2,1,79,0,0
88210,-76.9230769230769,4,2,1,5,0,0
88281,-76.9230769230769,4,2,1,79,0,0
89206,-76.9230769230769,4,2,1,5,0,0
89277,-76.9230769230769,4,2,1,79,0,0
89348,-76.9230769230769,4,2,1,5,0,0
89419,-76.9230769230769,4,2,1,79,0,0
90485,-76.9230769230769,4,2,1,5,0,0
90556,-76.9230769230769,4,2,1,79,0,0
94182,-76.9230769230769,4,2,1,5,0,0
94253,-76.9230769230769,4,2,1,79,0,0
95675,-62.5,4,2,1,70,0,0
96172,-62.5,4,2,1,5,0,0
96244,-62.5,4,2,1,70,0,0
97452,-62.5,4,2,1,5,0,0
97523,-62.5,4,2,1,70,0,0
97594,-62.5,4,2,1,5,0,0
97665,-62.5,4,2,1,70,0,0
98732,-62.5,4,2,1,5,0,0
98803,-62.5,4,2,1,70,0,0
99300,-62.5,4,2,1,5,0,0
99371,-62.5,4,2,1,70,0,0
100722,-62.5,4,2,1,5,0,0
100793,-62.5,4,2,1,70,0,0
102571,-62.5,4,2,1,5,0,0
102642,-62.5,4,2,1,70,0,0
102713,-62.5,4,2,1,5,0,0
102784,-62.5,4,2,1,70,0,0
102997,-62.5,4,2,1,5,0,0
103068,-62.5,4,2,1,70,0,0
103850,-62.5,4,2,1,5,0,0
103921,-62.5,4,2,1,70,0,0
105272,-62.5,4,2,1,5,0,0
105343,-62.5,4,2,1,70,0,0
105983,-62.5,4,2,1,5,0,0
106054,-62.5,4,2,1,70,0,0
107120,-62.5,4,2,1,5,0,0
107191,-62.5,4,2,1,70,0,0
107262,-62.5,4,2,1,5,0,0
107334,-62.5,4,2,1,70,0,0
107547,-62.5,4,2,1,5,0,0
107618,-62.5,4,2,1,70,0,0
107831,-62.5,4,2,1,5,0,0
107902,-62.5,4,2,1,70,0,0
108258,-62.5,4,2,1,5,0,0
108329,-62.5,4,2,1,70,0,0
109680,-62.5,4,2,1,5,0,0
109751,-62.5,4,2,1,70,0,0
109964,-62.5,4,2,1,5,0,0
110035,-62.5,4,2,1,70,0,0
110106,-62.5,4,2,1,5,0,0
110177,-62.5,4,2,1,70,0,0
111670,-62.5,4,2,1,5,0,0
111741,-62.5,4,2,1,70,0,0
111812,-62.5,4,2,1,5,0,0
111883,-62.5,4,2,1,70,0,0
112097,-62.5,4,2,1,5,0,0
112168,-62.5,4,2,1,70,0,0
112239,-62.5,4,2,1,5,0,0
112310,-62.5,4,2,1,70,0,0
112381,-62.5,4,2,1,5,0,0
112452,-62.5,4,2,1,70,0,0
113874,-55.5555555555556,4,2,1,73,0,0
114514,-55.5555555555556,4,2,1,5,0,0
114585,-55.5555555555556,4,2,1,73,0,0
114656,-55.5555555555556,4,2,1,5,0,0
114727,-55.5555555555556,4,2,1,73,0,0
116789,-55.5555555555556,4,2,1,5,0,0
116860,-55.5555555555556,4,2,1,73,0,0
116931,-55.5555555555556,4,2,1,5,0,0
117002,-55.5555555555556,4,2,1,73,0,0
117499,-55.5555555555556,4,2,1,5,0,0
117571,-55.5555555555556,4,2,1,73,0,0
117642,-55.5555555555556,4,2,1,5,0,0
117713,-55.5555555555556,4,2,1,73,0,0
117784,-55.5555555555556,4,2,1,5,0,0
117855,-55.5555555555556,4,2,1,73,0,0
117926,-55.5555555555556,4,2,1,5,0,0
117997,-55.5555555555556,4,2,1,73,0,0
118068,-55.5555555555556,4,2,1,5,0,0
118139,-55.5555555555556,4,2,1,73,0,0
119063,-55.5555555555556,4,2,1,5,0,0
119135,-55.5555555555556,4,2,1,73,0,0
119206,-55.5555555555556,4,2,1,5,0,0
119277,-55.5555555555556,4,2,1,73,0,0
119775,-55.5555555555556,4,2,1,5,0,0
119845,-55.5555555555556,4,2,1,73,0,0
119917,-55.5555555555556,4,2,1,5,0,0
119988,-55.5555555555556,4,2,1,73,0,0
120059,-55.5555555555556,4,2,1,5,0,0
120130,-55.5555555555556,4,2,1,73,0,0
121338,-55.5555555555556,4,2,1,5,0,0
121409,-55.5555555555556,4,2,1,73,0,0
121480,-55.5555555555556,4,2,1,5,0,0
121552,-55.5555555555556,4,2,1,73,0,0
122974,-55.5555555555556,4,2,1,76,0,0
126386,-76.9230769230769,4,2,1,76,0,0
140888,304.568527918782,4,2,1,76,1,0
140888,-76.9230769230769,4,2,1,76,0,0
141192,461.538461538462,4,2,1,62,1,0
142576,-500,4,2,1,62,0,0
143499,468.750000000001,4,2,1,62,1,0
144436,454.545454545455,4,2,1,62,1,0
144890,454.545454545455,4,2,1,62,1,0
145344,480.000000000001,4,2,1,62,1,0
145344,-250,4,2,1,62,0,0
146304,410.958904109589,4,2,1,62,1,0
146714,461.538461538462,4,2,1,62,1,0
146714,-142.857142857143,4,2,1,62,0,0
148098,451.127819548872,4,2,1,62,1,0
148549,454.545454545454,4,2,1,62,1,0
148549,-142.857142857143,4,2,1,62,0,0
149003,422.535211267605,4,2,1,62,1,0
149214,540.540540540539,4,2,1,62,1,0
149484,458.015267175572,4,2,1,62,1,0
150400,479.999999999999,4,2,1,62,1,0
150400,-142.857142857143,4,2,1,62,0,0
150880,408.163265306122,4,2,1,62,1,0
151084,508.474576271186,4,2,1,62,1,0
151338,461.538461538461,4,2,1,62,1,0
152261,461.538461538461,4,2,1,62,1,0
152261,-142.857142857143,4,2,1,62,0,0
152722,399.999999999999,4,2,1,62,1,0
152922,517.241379310344,4,2,1,62,1,0
153180,458.015267175572,4,2,1,62,1,0
154096,476.190476190476,4,2,1,62,1,0
154096,-142.857142857143,4,2,1,62,0,0
154572,419.580419580419,4,2,1,62,1,0
154781,483.870967741935,4,2,1,62,1,0
155022,454.545454545454,4,2,1,62,1,0
155931,476.190476190476,4,2,1,62,1,0
155931,-142.857142857143,4,2,1,66,0,0
156407,394.736842105263,4,2,1,66,1,0
156604,526.315789473684,4,2,1,66,1,0
156867,461.538461538461,4,2,1,66,1,0
157790,461.538461538461,4,2,1,66,1,0
157790,-142.857142857143,4,2,1,66,0,0
158251,408.163265306122,4,2,1,66,1,0
158455,521.739130434782,4,2,1,66,1,0
158715,461.538461538461,4,2,1,66,1,0
159638,465.116279069767,4,2,1,66,1,0
159638,-142.857142857143,4,2,1,66,0,0
160103,405.405405405405,4,2,1,66,1,0
160305,512.820512820512,4,2,1,66,1,0
160561,483.870967741935,4,2,1,66,1,0
161044,420.31523642732,4,2,1,66,1,0
161044,-142.857142857143,4,2,1,66,0,0
161464,468.749999999999,4,2,1,66,1,0
163104,444.444444444444,4,2,1,66,1,0
163326,461.538461538462,4,2,1,72,1,0
163326,-200,4,2,1,72,0,0
163557,-200,4,2,1,5,0,0
163787,483.870967741936,4,2,1,72,1,0
164028,461.538461538462,4,2,1,72,1,0
164258,-50,4,2,1,72,0,0
164374,-50,4,2,1,5,0,0
164489,-50,4,2,1,72,0,0
164604,-50,4,2,1,5,0,0
164720,-50,4,2,1,72,0,0
164835,-50,4,2,1,5,0,0
164951,-50,4,2,1,72,0,0
165066,-50,4,2,1,5,0,0
165181,461.538461538462,4,2,1,72,1,0
165181,-200,4,2,1,72,0,0
165411,-200,4,2,1,5,0,0
165642,-200,4,2,1,72,0,0
166104,-50,4,2,1,72,0,0
166219,-50,4,2,1,5,0,0
166334,-50,4,2,1,72,0,0
166450,-50,4,2,1,5,0,0
166565,-50,4,2,1,72,0,0
166681,-50,4,2,1,5,0,0
166796,-50,4,2,1,72,0,0
166911,-50,4,2,1,5,0,0
167027,-200,4,2,1,72,0,0
167257,-200,4,2,1,5,0,0
167488,-200,4,2,1,72,0,0
167950,-50,4,2,1,72,0,0
168065,-50,4,2,1,5,0,0
168181,-50,4,2,1,72,0,0
168296,-50,4,2,1,5,0,0
168411,-50,4,2,1,72,0,0
168527,545.454545454546,4,2,1,5,1,0
168527,-50,4,2,1,5,0,0
168663,425.531914893618,4,2,1,72,1,0
168663,-50,4,2,1,72,0,0
168875,461.538461538462,4,2,1,72,1,0
169798,-50,4,2,1,72,0,0
169913,-50,4,2,1,5,0,0
170028,-50,4,2,1,72,0,0
170144,-50,4,2,1,5,0,0
170259,-50,4,2,1,72,0,0
170721,-200,4,2,1,72,0,0
170951,-200,4,2,1,5,0,0
171182,-200,4,2,1,72,0,0
171644,-50,4,2,1,72,0,0
171759,-50,4,2,1,5,0,0
171875,-50,4,2,1,72,0,0
171990,-50,4,2,1,5,0,0
172105,-50,4,2,1,72,0,0
172221,-50,4,2,1,5,0,0
172336,-50,4,2,1,72,0,0
172451,-50,4,2,1,5,0,0
172567,-200,4,2,1,72,0,0
172798,-200,4,2,1,5,0,0
173028,-200,4,2,1,72,0,0
173490,-50,4,2,1,72,0,0
173605,-50,4,2,1,5,0,0
173721,-50,4,2,1,72,0,0
173836,-50,4,2,1,5,0,0
173951,-50,4,2,1,72,0,0
174067,-50,4,2,1,5,0,0
174182,-50,4,2,1,72,0,0
174298,-50,4,2,1,5,0,0
174413,-200,4,2,1,72,0,0
174644,-50,4,2,1,5,0,0
174759,-50,4,2,1,72,0,0
174875,-50,4,2,1,72,0,0
175451,-50,4,2,1,5,0,0
175567,-50,4,2,1,72,0,0
175682,-50,4,2,1,5,0,0
175798,-50,4,2,1,72,0,0
175913,594.059405940595,4,2,1,5,1,0
175913,-50,4,2,1,5,0,0
176061,431.654676258993,4,2,1,72,1,0
176061,-50,4,2,1,72,0,0
176276,447.761194029851,4,2,1,72,1,0
176723,-50,4,2,1,72,0,0
176947,472.44094488189,4,2,1,72,1,0
177183,465.116279069768,4,2,1,72,1,0
177648,458.015267175573,4,2,1,72,1,0
178096,-71.4285714285714,4,2,1,66,0,0
178106,387.096774193548,4,2,1,66,1,0
178106,-71.4285714285714,4,2,1,66,0,0
180912,-71.4285714285714,4,2,1,5,0,0
181009,-71.4285714285714,4,2,1,66,0,0
184976,-71.4285714285714,4,2,1,5,0,0
185073,-71.4285714285714,4,2,1,66,0,0
188654,-71.4285714285714,4,2,1,5,0,0
188751,-71.4285714285714,4,2,1,66,0,0
188847,-71.4285714285714,4,2,1,5,0,0
188944,-71.4285714285714,4,2,1,66,0,0
191170,-71.4285714285714,4,2,1,5,0,0
191267,-71.4285714285714,4,2,1,66,0,0
193299,-71.4285714285714,4,2,1,5,0,0
193396,-71.4285714285714,4,2,1,66,0,0
193493,-71.4285714285714,4,2,1,5,0,0
193589,-71.4285714285714,4,2,1,66,0,0
194073,-71.4285714285714,4,2,1,5,0,0
194170,-71.4285714285714,4,2,1,66,0,0
199493,-71.4285714285714,4,2,1,5,0,0
199589,-71.4285714285714,4,2,1,66,0,0
199686,-71.4285714285714,4,2,1,5,0,0
199783,-71.4285714285714,4,2,1,66,0,0
200460,-71.4285714285714,4,2,1,5,0,0
200557,-71.4285714285714,4,2,1,66,0,0
202870,-71.4285714285714,4,2,1,70,0,0
215267,-58.8235294117647,4,2,1,73,0,0
215364,-58.8235294117647,4,2,1,5,0,0
215460,-58.8235294117647,4,2,1,73,0,0
215557,-58.8235294117647,4,2,1,5,0,0
215654,-58.8235294117647,4,2,1,73,0,0
215751,-58.8235294117647,4,2,1,5,0,0
215847,-58.8235294117647,4,2,1,73,0,0
215944,-58.8235294117647,4,2,1,5,0,0
216041,-58.8235294117647,4,2,1,73,0,0
217686,-58.8235294117647,4,2,1,5,0,0
217783,-58.8235294117647,4,2,1,73,0,0
218073,-58.8235294117647,4,2,1,5,0,0
218170,-58.8235294117647,4,2,1,73,0,0
218267,-58.8235294117647,4,2,1,5,0,0
218364,-58.8235294117647,4,2,1,73,0,0
220396,-58.8235294117647,4,2,1,5,0,0
220493,-58.8235294117647,4,2,1,73,0,0
220589,-58.8235294117647,4,2,1,5,0,0
220686,-58.8235294117647,4,2,1,73,0,0
225428,-58.8235294117647,4,2,1,5,0,0
225525,-58.8235294117647,4,2,1,73,0,0
225622,-58.8235294117647,4,2,1,5,0,0
225718,-58.8235294117647,4,2,1,73,0,0
225815,-58.8235294117647,4,2,1,5,0,0
225912,-58.8235294117647,4,2,1,73,0,0
226009,-58.8235294117647,4,2,1,5,0,0
226105,-58.8235294117647,4,2,1,73,0,0
227644,-125,4,2,1,76,0,0
230751,-58.8235294117647,4,2,1,76,0,0
235589,-90.9090909090909,4,2,1,76,0,0
236944,-58.8235294117647,4,2,1,76,0,0
240031,-58.8235294117647,4,2,1,70,0,0
252428,284.36018957346,4,2,1,65,1,0
252428,-71.4285714285714,4,2,1,65,0,0
256967,-71.4285714285714,4,2,1,76,0,0
270627,521.739130434783,4,2,1,65,1,0
270627,-76.9230769230769,4,2,1,65,0,0
272583,-76.9230769230769,4,2,1,5,0,0
272713,-76.9230769230769,4,2,1,65,0,0
274409,-76.9230769230769,4,2,1,5,0,0
274540,-76.9230769230769,4,2,1,65,0,0
274670,-76.9230769230769,4,2,1,5,0,0
274800,-76.9230769230769,4,2,1,65,0,0
275713,-76.9230769230769,4,2,1,5,0,0
275844,-76.9230769230769,4,2,1,65,0,0
275974,-76.9230769230769,4,2,1,5,0,0
276105,-76.9230769230769,4,2,1,65,0,0
276757,-76.9230769230769,4,2,1,5,0,0
276887,-76.9230769230769,4,2,1,65,0,0
277670,560.747663551402,4,2,1,65,1,0
277950,560.747663551402,4,2,1,65,1,0
278230,496.277915632754,4,2,1,65,1,0
278974,521.739130434783,4,2,1,65,1,0
278974,-76.9230769230769,4,2,1,65,0,0
280669,-76.9230769230769,4,2,1,5,0,0
280800,-76.9230769230769,4,2,1,65,0,0
280930,-76.9230769230769,4,2,1,5,0,0
281060,-76.9230769230769,4,2,1,65,0,0
282234,-76.9230769230769,4,2,1,5,0,0
282365,-76.9230769230769,4,2,1,65,0,0
284843,-76.9230769230769,4,2,1,5,0,0
284974,-76.9230769230769,4,2,1,65,0,0
285104,-76.9230769230769,4,2,1,5,0,0
285234,-76.9230769230769,4,2,1,65,0,0
285887,-76.9230769230769,4,2,1,5,0,0
286017,-76.9230769230769,4,2,1,65,0,0
289278,-76.9230769230769,4,2,1,5,0,0
289408,-76.9230769230769,4,2,1,65,0,0
292669,-76.9230769230769,4,2,1,5,0,0
292800,-76.9230769230769,4,2,1,65,0,0
293452,-76.9230769230769,4,2,1,5,0,0
293582,-76.9230769230769,4,2,1,65,0,0
297365,-76.9230769230769,4,2,1,5,0,0
297495,-76.9230769230769,4,2,1,65,0,0
298930,-76.9230769230769,4,2,1,5,0,0
299060,-76.9230769230769,4,2,1,65,0,0
300495,-76.9230769230769,4,2,1,5,0,0
300626,-76.9230769230769,4,2,1,65,0,0
301017,-76.9230769230769,4,2,1,5,0,0
301147,-76.9230769230769,4,2,1,65,0,0
301278,-76.9230769230769,4,2,1,5,0,0
301408,-76.9230769230769,4,2,1,65,0,0
302582,-76.9230769230769,4,2,1,5,0,0
302713,-76.9230769230769,4,2,1,65,0,0
304017,-76.9230769230769,4,2,1,70,0,0
335321,526.315789473685,4,2,1,70,1,0
336373,461.538461538462,4,2,1,66,1,0
336719,428.571428571429,4,2,1,66,1,0
337040,441.176470588236,4,2,1,66,1,0
337370,434.782608695653,4,2,1,66,1,0
337659,331.491712707183,4,2,1,66,1,0
337769,387.096774193548,4,2,1,50,1,0
337769,-166.666666666667,4,2,1,50,0,0
340091,-166.666666666667,4,2,1,40,0,0
340865,-166.666666666667,4,2,1,30,0,0
342414,-166.666666666667,4,2,1,20,0,0
343188,-166.666666666667,4,2,1,10,0,0
343962,-166.666666666667,4,2,1,5,0,0

[Colours]
Combo1 : 199,54,54
Combo2 : 120,120,120
Combo3 : 255,0,0
Combo4 : 255,49,105

[HitObjects]
38,309,131,6,0,B|24:247|24:247|22:248|22:248|8:191,1,123.499994346619,4|0,3:1|0:0,0:0:0:0:
107,349,415,2,0,L|117:302,3,47.5,2|0|0|0,0:0|0:0|0:0|0:0,0:0:0:0:
185,347,699,6,0,L|230:359,1,47.5,2|0,0:0|0:0,0:0:0:0:
240,358,841,2,0,L|285:370,1,47.5
395,348,984,1,2,0:0:0:0:
403,344,1055,1,0,0:0:0:0:
411,339,1126,1,0,0:0:0:0:
419,335,1197,1,0,0:0:0:0:
446,363,1268,6,0,L|353:339,1,95,2|0,0:0|0:0,0:0:0:0:
295,272,1552,2,0,L|248:283,3,47.5,2|0|0|0,0:0|0:0|0:0|0:0,0:0:0:0:
194,174,1837,1,2,0:0:0:0:
347,216,1979,1,0,0:0:0:0:
171,258,2121,5,2,0:0:0:0:
162,254,2192,1,0,0:0:0:0:
153,250,2263,1,0,0:0:0:0:
144,245,2334,1,0,0:0:0:0:
106,251,2405,2,0,L|87:157,1,95,2|0,0:0|0:0,0:0:0:0:
203,127,2690,6,0,L|193:173,3,47.5,2|0|0|0,0:0|0:0|0:0|0:0,0:0:0:0:
380,150,2974,2,0,L|320:124,1,47.5,2|0,0:0|0:0,0:0:0:0:
329,144,3116,2,0,L|269:170,1,47.5
107,139,3258,1,2,0:0:0:0:
97,137,3330,1,0,0:0:0:0:
87,135,3401,1,0,0:0:0:0:
77,133,3472,1,0,0:0:0:0:
64,87,3543,6,0,B|134:80|134:80|136:82|136:82|195:77,1,132.999995941162,4|0,3:2|0:0,0:0:0:0:
460,134,3827,2,0,B|389:140|389:140|387:138|387:138|328:143,1,132.999995941162,4|0,3:1|0:0,0:0:0:0:
54,295,4112,5,8,3:2:0:0:
33,289,4183,1,8,3:2:0:0:
13,283,4254,1,8,3:2:0:0:
159,203,4396,6,0,B|146:282|146:282|148:286|148:286|131:380,1,180.49999518013,4|0,3:2|0:0,0:0:0:0:
0,15,4680,6,0,B|41:-8|41:-8|73:-2|73:-2|75:0|75:0|115:7,1,123.499994346619,4|0,3:1|0:0,0:0:0:0:
154,64,4965,2,0,L|201:55,3,47.5,2|0|0|0,0:0|0:0|0:0|0:0,0:0:0:0:
249,109,5249,2,0,L|296:118,1,47.5,2|0,0:0|0:0,0:0:0:0:
304,110,5391,2,0,L|351:119,1,47.5
438,44,5533,5,2,0:0:0:0:
447,42,5604,1,0,0:0:0:0:
456,39,5676,1,0,0:0:0:0:
465,36,5747,1,0,0:0:0:0:
502,63,5818,6,0,L|487:160,1,95,2|0,0:0|0:0,0:0:0:0:
379,188,6102,2,0,L|367:242,3,47.5,2|0|0|0,0:0|0:0|0:0|0:0,0:0:0:0:
294,273,6386,1,2,0:0:0:0:
286,114,6529,1,0,0:0:0:0:
362,307,6671,5,2,0:0:0:0:
359,316,6742,1,0,0:0:0:0:
356,325,6813,1,0,0:0:0:0:
353,334,6884,1,0,0:0:0:0:
373,366,6955,6,0,L|416:384,3,47.5,2|0|0|0,0:0|0:0|0:0|0:0,0:0:0:0:
447,310,7240,2,0,L|512:298,3,66.4999979705811,2|0|0|0,0:0|0:0|0:0|0:0,0:0:0:0:
266,349,7524,2,0,L|200:360,3,66.4999979705811,2|0|0|0,0:0|0:0|0:0|0:0,0:0:0:0:
184,289,7808,2,0,L|133:275,3,52.2500015945435,2|0|0|0,0:0|0:0|0:0|0:0,0:0:0:0:
368,178,8093,6,0,L|355:233,3,52.2500015945435,2|0|0|0,0:0|0:0|0:0|0:0,0:0:0:0:
290,177,8377,2,0,L|270:113,3,66.4999979705811,2|0|0|0,0:0|0:0|0:0|0:0,0:0:0:0:
133,275,8661,6,0,L|91:236,3,52.2500015945435,2|0|0|0,0:0|0:0|0:0|0:0,0:0:0:0:
172,207,8946,2,0,L|247:223,3,66.4999979705811,2|0|0|0,0:0|0:0|0:0|0:0,0:0:0:0:
29,320,9230,6,0,B|19:258|19:258|18:254|18:254|10:198,1,123.499994346619,4|0,3:1|0:0,0:0:0:0:
56,129,9514,2,0,L|49:81,3,47.5,2|0|0|0,0:0|0:0|0:0|0:0,0:0:0:0:
151,22,9799,2,0,L|104:12,1,47.5,2|0,0:0|0:0,0:0:0:0:
94,16,9941,2,0,L|47:6,1,47.5
178,101,10083,5,2,0:0:0:0:
187,99,10154,1,0,0:0:0:0:
196,97,10225,1,0,0:0:0:0:
205,95,10296,1,0,0:0:0:0:
239,124,10367,6,0,L|222:217,1,95,2|0,0:0|0:0,0:0:0:0:
316,225,10652,2,0,L|340:265,3,47.5,2|0|0|0,0:0|0:0|0:0|0:0,0:0:0:0:
362,156,10936,1,2,0:0:0:0:
330,350,11078,1,0,0:0:0:0:
419,233,11221,1,2,0:0:0:0:
422,224,11292,1,0,0:0:0:0:
425,215,11363,1,0,0:0:0:0:
428,206,11434,1,0,0:0:0:0:
457,221,11505,6,0,L|475:321,1,95,2|0,0:0|0:0,0:0:0:0:
405,338,11789,2,0,L|396:384,3,47.5,2|0|0|0,0:0|0:0|0:0|0:0,0:0:0:0:
324,356,12074,2,0,L|275:347,1,47.5,2|0,0:0|0:0,0:0:0:0:
276,339,12216,2,0,L|227:330,1,47.5
126,372,12358,5,2,0:0:0:0:
116,370,12430,1,0,0:0:0:0:
106,368,12502,1,0,0:0:0:0:
96,366,12575,1,0,0:0:0:0:
64,382,12647,6,0,B|52:314|52:314|53:311|53:311|42:250,1,132.999995941162,4|0,3:2|0:0,0:0:0:0:
88,27,12937,2,0,B|100:95|100:95|99:98|99:98|109:158,1,132.999995941162,4|0,3:1|0:0,0:0:0:0:
338,226,13213,5,8,3:2:0:0:
330,248,13282,1,8,3:2:0:0:
323,270,13351,1,8,3:2:0:0:
449,168,13522,6,0,P|360:152|271:133,1,180.49999518013,4|0,3:2|0:0,0:0:0:0:
0,277,13787,6,0,B|64:265|64:265|65:262|65:262|119:252,1,123.499994346619,4|0,3:1|0:0,0:0:0:0:
171,338,14064,2,0,L|181:291,3,47.5,2|0|0|0,0:0|0:0|0:0|0:0,0:0:0:0:
137,230,14348,2,0,L|147:183,1,47.5,2|0,0:0|0:0,0:0:0:0:
155,184,14490,2,0,L|165:137,1,47.5
28,25,14632,5,2,0:0:0:0:
30,34,14703,1,0,0:0:0:0:
32,43,14774,1,0,0:0:0:0:
34,52,14845,1,0,0:0:0:0:
25,84,14917,6,0,B|52:113|52:113|105:97,1,95,2|0,0:0|0:0,0:0:0:0:
227,92,15201,2,0,L|236:45,3,47.5,2|0|0|0,0:0|0:0|0:0|0:0,0:0:0:0:
324,0,15485,5,2,0:0:0:0:
152,28,15627,1,0,0:0:0:0:
352,86,15770,1,2,0:0:0:0:
350,94,15841,1,0,0:0:0:0:
349,103,15912,1,0,0:0:0:0:
347,112,15983,1,0,0:0:0:0:
379,137,16054,6,0,L|425:127,3,47.5,2|0|0|0,0:0|0:0|0:0|0:0,0:0:0:0:
262,226,16338,2,0,L|206:214,3,56.9999982604981,2|0|0|0,0:0|0:0|0:0|0:0,0:0:0:0:
477,182,16623,6,0,L|463:247,3,66.4999979705811,2|0|0|0,0:0|0:0|0:0|0:0,0:0:0:0:
255,145,16907,2,0,L|269:70,3,76,2|0|0|0,0:0|0:0|0:0|0:0,0:0:0:0:
344,283,17191,6,0,B|304:295|304:295|303:298|303:298|263:311,3,85.4999973907472,2|0|0|0,0:0|0:0|0:0|0:0,0:0:0:0:
217,370,17476,2,0,L|141:361,3,76,2|0|0|0,0:0|0:0|0:0|0:0,0:0:0:0:
410,317,17760,2,0,L|398:386,3,66.4999979705811,2|0|0|0,0:0|0:0|0:0|0:0,0:0:0:0:
45,295,18044,5,10,3:2:0:0:
433,173,18329,6,0,L|445:102,1,71.2500027179719,4|0,3:1|0:0,0:0:0:0:
359,138,18471,2,0,L|289:155,1,71.2500027179719,8|0,3:2|0:0,0:0:0:0:
83,53,18613,1,0,3:2:0:0:
169,44,18755,1,10,3:2:0:0:
166,65,18826,1,0,3:2:0:0:
163,86,18898,1,0,3:2:0:0:
13,135,19040,5,10,3:2:0:0:
196,178,19182,1,0,3:2:0:0:
193,199,19253,1,0,3:2:0:0:
190,220,19324,1,10,3:2:0:0:
109,285,19466,5,0,3:2:0:0:
83,53,19608,1,10,3:2:0:0:
206,317,19751,1,0,3:2:0:0:
142,368,19893,2,0,L|283:348,1,142.500005435944,10|0,3:2|3:2,0:0:0:0:
105,294,20177,5,10,3:2:0:0:
365,218,20319,2,0,L|393:78,1,142.500005435944,0|10,3:2|3:2,0:0:0:0:
91,223,20604,6,0,L|104:292,1,71.2500027179719,4|0,3:2|0:0,0:0:0:0:
176,242,20746,2,0,L|246:250,1,71.2500027179719,8|0,3:2|0:0,0:0:0:0:
450,179,20888,1,0,3:2:0:0:
505,234,21030,1,10,3:2:0:0:
500,254,21101,1,0,3:2:0:0:
495,274,21172,1,0,3:2:0:0:
312,146,21315,5,10,3:2:0:0:
424,292,21457,1,0,3:2:0:0:
409,306,21528,1,0,3:2:0:0:
395,321,21599,1,10,3:2:0:0:
196,175,21741,5,0,3:2:0:0:
389,228,21883,1,10,3:2:0:0:
194,89,22026,5,0,3:2:0:0:
173,95,22097,1,0,3:2:0:0:
152,101,22168,1,10,3:2:0:0:
312,146,22310,5,0,3:2:0:0:
291,140,22381,1,0,3:2:0:0:
270,134,22452,1,10,3:2:0:0:
479,62,22594,5,0,3:2:0:0:
458,68,22665,1,0,3:2:0:0:
437,74,22736,1,10,3:2:0:0:
152,101,22879,6,0,L|82:85,1,71.2500027179719,4|0,3:1|0:0,0:0:0:0:
70,163,23021,2,0,L|0:178,1,71.2500027179719,8|0,3:2|0:0,0:0:0:0:
237,31,23163,5,0,3:2:0:0:
309,96,23305,1,10,3:2:0:0:
314,82,23376,1,0,3:2:0:0:
319,68,23447,1,0,3:2:0:0:
152,101,23589,5,10,3:2:0:0:
339,195,23732,1,0,3:2:0:0:
350,185,23803,1,0,3:2:0:0:
361,175,23874,1,10,3:2:0:0:
86,256,24016,5,0,3:2:0:0:
414,228,24158,1,10,3:2:0:0:
155,310,24300,1,0,3:2:0:0:
212,243,24443,2,0,L|191:393,1,142.500005435944,10|0,3:2|3:2,0:0:0:0:
86,256,24727,5,10,3:2:0:0:
360,324,24869,2,0,L|501:304,1,142.500005435944,0|10,3:2|3:2,0:0:0:0:
139,180,25153,6,0,L|68:166,1,71.2500027179719,4|0,3:2|0:0,0:0:0:0:
212,243,25296,2,0,L|225:172,1,71.2500027179719,8|0,3:2|0:0,0:0:0:0:
45,8,25438,5,0,3:2:0:0:
0,97,25580,1,10,3:2:0:0:
13,94,25651,1,0,3:2:0:0:
26,91,25722,1,0,3:2:0:0:
126,49,25864,5,10,3:2:0:0:
225,172,26007,1,0,3:2:0:0:
238,169,26078,1,0,3:2:0:0:
251,166,26149,1,10,3:2:0:0:
359,292,26291,6,0,L|349:362,2,71.2500027179719,0|0|10,3:2|3:2|3:2,0:0:0:0:
129,263,26575,5,0,3:2:0:0:
170,252,26646,1,0,3:2:0:0:
212,243,26717,1,10,3:2:0:0:
253,234,26789,1,0,3:0:0:0:
295,225,26860,2,0,L|285:295,2,71.2500027179719,0|0|10,3:2|3:2|3:2,0:0:0:0:
480,105,27144,5,0,3:2:0:0:
483,90,27215,1,0,3:2:0:0:
486,76,27286,1,10,3:2:0:0:
230,69,27428,6,0,L|300:58,1,71.2500027179719,4|0,3:1|0:0,0:0:0:0:
338,121,27571,2,0,L|408:131,1,71.2500027179719,8|0,3:2|0:0,0:0:0:0:
440,327,27713,1,0,3:2:0:0:
511,277,27855,1,10,3:2:0:0:
490,269,27926,1,0,3:2:0:0:
469,262,27997,1,0,3:2:0:0:
510,366,28139,5,10,3:2:0:0:
415,207,28281,1,0,3:2:0:0:
392,211,28353,1,0,3:2:0:0:
371,215,28424,1,10,3:2:0:0:
214,321,28566,5,0,3:2:0:0:
162,77,28708,1,10,3:2:0:0:
289,299,28850,1,0,3:2:0:0:
211,331,28992,2,0,L|353:352,1,142.500005435944,10|0,3:2|3:2,0:0:0:0:
157,265,29277,5,10,3:2:0:0:
512,211,29419,2,0,L|370:231,1,142.500005435944,0|10,3:2|3:2,0:0:0:0:
80,231,29703,6,0,L|10:215,1,71.2500027179719,4|0,3:2|0:0,0:0:0:0:
164,262,29845,2,0,L|149:193,1,71.2500027179719,8|0,3:2|0:0,0:0:0:0:
283,88,29988,1,0,3:2:0:0:
203,31,30130,1,10,3:2:0:0:
207,51,30201,1,0,3:2:0:0:
211,71,30272,1,0,3:2:0:0:
337,32,30414,5,10,3:2:0:0:
165,135,30556,1,0,3:2:0:0:
169,155,30627,1,0,3:2:0:0:
173,175,30698,1,10,3:2:0:0:
412,308,30841,5,0,3:2:0:0:
409,321,30912,1,0,3:2:0:0:
406,335,30983,2,0,L|335:346,1,71.2500027179719,10|0,3:2|0:0,0:0:0:0:
334,209,31125,5,0,3:2:0:0:
354,188,31196,1,0,3:2:0:0:
382,189,31267,1,10,3:2:0:0:
236,280,31409,5,0,3:2:0:0:
262,292,31480,1,0,3:2:0:0:
269,319,31552,1,10,3:2:0:0:
126,233,31694,5,0,3:2:0:0:
123,256,31765,1,0,3:2:0:0:
103,269,31836,1,10,3:2:0:0:
81,267,31907,1,0,3:2:0:0:
55,294,31978,6,0,L|63:364,1,71.2500027179719,4|0,3:1|0:0,0:0:0:0:
133,338,32120,2,0,L|199:378,1,71.2500027179719,8|0,3:2|0:0,0:0:0:0:
471,278,32262,1,0,3:2:0:0:
419,333,32405,1,10,3:2:0:0:
397,329,32476,1,0,3:2:0:0:
375,325,32547,1,0,3:2:0:0:
421,204,32689,5,10,3:2:0:0:
308,354,32831,1,0,3:2:0:0:
286,350,32902,1,0,3:2:0:0:
264,346,32973,1,10,3:2:0:0:
240,105,33116,5,0,3:2:0:0:
317,277,33258,1,10,3:2:0:0:
377,7,33400,1,0,3:2:0:0:
302,44,33542,2,0,L|444:64,1,142.500005435944,10|0,3:2|3:2,0:0:0:0:
225,3,33826,5,10,3:2:0:0:
512,153,33969,2,0,L|370:172,1,142.500005435944,0|10,3:2|3:2,0:0:0:0:
42,275,34253,6,0,L|5:213,1,71.2500027179719,4|0,3:2|0:0,0:0:0:0:
84,205,34395,2,0,L|94:133,1,71.2500027179719,8|0,3:2|0:0,0:0:0:0:
302,44,34537,5,0,3:2:0:0:
208,110,34680,1,10,3:2:0:0:
205,96,34751,1,0,3:2:0:0:
202,81,34822,1,0,3:2:0:0:
377,96,34964,5,10,3:2:0:0:
185,191,35106,1,0,3:2:0:0:
175,180,35177,1,0,3:2:0:0:
165,168,35248,1,10,3:2:0:0:
439,195,35390,6,0,L|426:265,2,71.2500027179719,0|0|10,3:2|3:2|3:2,0:0:0:0:
512,327,35675,1,0,3:2:0:0:
477,336,35746,1,0,3:2:0:0:
442,344,35817,1,10,3:2:0:0:
407,354,35888,1,0,3:2:0:0:
381,384,35959,6,0,L|311:369,2,71.2500027179719,0|0|10,3:2|3:2|3:2,0:0:0:0:
242,268,36244,1,0,3:2:0:0:
228,265,36315,1,0,3:2:0:0:
214,262,36386,1,10,3:2:0:0:
150,331,36528,6,0,L|10:352,1,142.500005435944,4|0,3:1|0:0,0:0:0:0:
332,327,36812,6,0,L|320:378,3,52.2500015945435,2|0|0|0,0:0|0:0|0:0|0:0,0:0:0:0:
342,332,37097,2,0,L|362:229,1,104.500003189087,2|0,0:0|0:0,0:0:0:0:
312,138,37381,6,0,L|328:66,3,52.2500015945435,2|0|0|0,0:0|0:0|0:0|0:0,0:0:0:0:
321,144,37665,2,0,L|219:122,1,104.500003189087,2|0,0:0|0:0,0:0:0:0:
447,54,37950,6,0,L|499:64,3,52.2500015945435,2|0|0|0,0:0|0:0|0:0|0:0,0:0:0:0:
399,111,38234,2,0,L|419:6,1,104.500003189087,2|0,0:0|0:0,0:0:0:0:
429,201,38518,6,0,L|480:214,3,52.2500015945435,2|0|0|0,0:0|0:0|0:0|0:0,0:0:0:0:
361,229,38803,2,0,L|256:207,1,104.500003189087,2|0,0:0|0:0,0:0:0:0:
59,260,39087,6,0,L|7:272,3,52.2500015945435,2|0|0|0,0:0|0:0|0:0|0:0,0:0:0:0:
19,194,39371,2,0,L|0:91,1,104.500003189087,2|0,0:0|0:0,0:0:0:0:
263,18,39656,6,0,L|316:10,3,52.2500015945435,2|0|0|0,0:0|0:0|0:0|0:0,0:0:0:0:
230,110,39940,2,0,B|168:118|168:118|166:122|166:122|90:132,1,142.500005435944,4|0,3:2|0:0,0:0:0:0:
257,378,40225,2,0,B|271:288|271:288|273:292|273:292|286:201,1,180.49999518013,4|0,3:1|0:0,0:0:0:0:
47,307,40509,1,8,3:2:0:0:
50,315,40580,1,8,3:2:0:0:
53,323,40651,1,8,3:2:0:0:
163,273,40793,6,0,P|276:284|389:300,1,227.999993041992,12|0,3:2|0:0,0:0:0:0:
512,27,41078,2,0,P|440:12|395:68,1,152,4|8,3:1|3:2,0:0:0:0:
404,80,41291,1,0,3:2:0:0:
418,83,41362,1,0,3:2:0:0:
230,110,41504,5,10,3:2:0:0:
508,177,41646,2,0,P|432:184|356:193,1,152,0|10,3:2|3:2,0:0:0:0:
225,198,41860,1,0,3:0:0:0:
223,190,41931,2,0,P|158:155|154:83,1,152,0|10,3:2|3:2,0:0:0:0:
310,4,42215,5,0,3:2:0:0:
291,247,42357,2,0,B|265:280|265:280|213:287|156:297,1,152,10|0,3:2|3:2,0:0:0:0:
28,190,42642,1,10,3:2:0:0:
14,182,42713,1,0,3:0:0:0:
0,189,42784,2,0,P|6:226|10:264,1,76,0|0,3:2|0:0,0:0:0:0:
67,0,42926,2,0,P|75:75|85:150,1,152,10|0,3:2|3:2,0:0:0:0:
154,83,43210,1,10,3:2:0:0:
334,314,43353,6,0,P|409:322|484:333,1,152,4|10,3:2|3:2,0:0:0:0:
423,204,43566,1,0,3:2:0:0:
408,205,43637,2,0,P|383:235|340:239,1,76,0|0,3:2|3:2,0:0:0:0:
280,262,43779,2,0,P|243:247|226:208,1,76,10|0,3:2|0:0,0:0:0:0:
297,32,43921,5,0,3:2:0:0:
307,60,43992,1,0,3:2:0:0:
309,90,44063,1,10,3:2:0:0:
156,198,44206,5,0,3:2:0:0:
126,203,44277,1,0,3:2:0:0:
99,215,44348,2,0,P|65:201|55:165,1,76,10|0,3:2|0:0,0:0:0:0:
0,29,44490,5,0,3:2:0:0:
30,26,44561,1,0,3:2:0:0:
52,46,44632,2,0,B|67:66|67:66|117:56,1,76,10|0,3:2|0:0,0:0:0:0:
302,105,44774,2,0,P|303:142|306:180,2,76,0|0|10,3:2|3:2|3:2,0:0:0:0:
512,0,45059,5,2,3:2:0:0:
372,233,45201,1,10,3:2:0:0:
360,52,45343,1,2,3:2:0:0:
370,51,45485,1,10,3:2:0:0:
489,300,45627,6,0,B|419:316|419:316|420:319|420:319|343:338,1,152,4|8,3:2|3:2,0:0:0:0:
234,280,45841,1,0,3:2:0:0:
228,289,45912,2,0,L|77:265,1,152,0|10,3:2|3:2,0:0:0:0:
0,69,46196,6,0,P|47:13|118:26,1,152,0|10,3:2|3:2,0:0:0:0:
122,41,46409,1,0,3:0:0:0:
134,49,46480,1,0,3:2:0:0:
312,0,46623,5,10,3:2:0:0:
188,130,46765,2,0,P|150:134|112:139,1,76,0|0,3:2|0:0,0:0:0:0:
0,69,46907,2,0,P|9:138|17:219,1,152,10|0,3:2|3:2,0:0:0:0:
251,178,47191,5,10,3:2:0:0:
248,192,47262,1,0,3:0:0:0:
241,207,47334,2,0,P|173:228|170:300,2,152,0|10|0,3:2|3:2|3:2,0:0:0:0:
475,294,47760,5,10,3:2:0:0:
247,287,47902,2,0,P|324:304|394:323,1,152,4|10,3:2|3:2,0:0:0:0:
449,373,48116,1,0,3:2:0:0:
458,371,48187,1,0,3:2:0:0:
353,220,48329,6,0,L|373:140,1,76,10|0,3:2|0:0,0:0:0:0:
475,107,48471,1,0,3:2:0:0:
488,79,48542,1,0,3:2:0:0:
512,62,48613,2,0,P|503:25|472:6,1,76,10|0,3:2|0:0,0:0:0:0:
328,84,48755,5,0,3:2:0:0:
297,88,48826,1,0,3:2:0:0:
266,86,48898,1,10,3:2:0:0:
442,171,49040,1,0,3:2:0:0:
186,126,49182,2,0,P|112:111|36:99,1,152,10|0,3:2|3:2,0:0:0:0:
3,29,49395,1,0,3:2:0:0:
9,26,49466,1,10,3:2:0:0:
259,166,49608,6,0,L|244:247,1,76,2|0,3:2|0:0,0:0:0:0:
178,210,49751,2,0,P|152:243|115:276,1,76,10|0,3:2|0:0,0:0:0:0:
297,364,49893,6,0,P|371:346|446:334,1,152,2|10,3:2|3:2,0:0:0:0:
434,169,50177,6,0,L|360:151,1,76,4|0,3:2|0:0,0:0:0:0:
413,91,50319,2,0,L|393:17,1,76,8|0,3:2|3:2,0:0:0:0:
512,158,50462,1,0,3:2:0:0:
506,187,50533,1,0,3:2:0:0:
500,216,50604,1,10,3:2:0:0:
318,222,50746,2,0,L|166:188,1,152,0|10,3:2|3:2,0:0:0:0:
122,75,51030,1,0,3:2:0:0:
92,66,51101,1,0,3:0:0:0:
69,46,51172,1,10,3:2:0:0:
4,190,51315,6,0,L|29:339,1,152,0|10,3:2|3:2,0:0:0:0:
173,377,51528,1,0,3:2:0:0:
163,378,51599,2,0,P|140:348|104:340,2,76,0|0|10,3:2|3:2|3:2,0:0:0:0:
100,174,51883,6,0,P|176:162|249:148,1,152,0|10,3:2|3:2,0:0:0:0:
388,234,52168,1,0,3:2:0:0:
411,253,52239,1,0,3:0:0:0:
441,256,52310,1,10,3:2:0:0:
512,196,52452,5,4,3:2:0:0:
380,319,52594,2,0,P|303:330|230:344,1,152,10|0,3:2|3:2,0:0:0:0:
172,293,52807,1,0,3:2:0:0:
172,293,52879,1,10,3:2:0:0:
287,124,53021,5,0,3:2:0:0:
284,154,53092,1,0,3:2:0:0:
302,176,53163,2,0,P|311:138|322:103,1,76,10|0,3:2|0:0,0:0:0:0:
227,66,53305,5,0,3:2:0:0:
230,36,53376,1,0,3:2:0:0:
211,13,53447,2,0,P|202:51|191:86,1,76,10|0,3:2|0:0,0:0:0:0:
407,78,53589,2,0,P|377:51|353:24,1,76,0|0,3:2|3:2,0:0:0:0:
252,215,53732,2,0,P|289:202|325:195,1,76,10|0,3:2|0:0,0:0:0:0:
428,300,53874,1,0,3:2:0:0:
456,310,53945,1,0,3:2:0:0:
473,334,54016,1,10,3:2:0:0:
310,363,54158,5,2,3:2:0:0:
295,109,54300,1,10,3:2:0:0:
398,384,54443,1,2,3:2:0:0:
405,381,54585,1,10,3:2:0:0:
392,43,54727,6,0,P|316:33|241:19,1,152,4|8,3:2|3:2,0:0:0:0:
230,29,54940,1,0,3:2:0:0:
215,33,55011,1,0,3:2:0:0:
411,116,55153,1,10,3:2:0:0:
56,188,55296,6,0,P|40:117|97:74,1,152,0|10,3:2|3:2,0:0:0:0:
130,147,55509,1,0,3:0:0:0:
130,147,55580,1,0,3:2:0:0:
230,29,55722,1,10,3:2:0:0:
174,281,55864,6,0,P|165:318|160:355,1,76,0|0,3:2|0:0,0:0:0:0:
15,290,56007,2,0,P|52:295|89:303,1,76,10|0,3:2|3:2,0:0:0:0:
320,355,56149,1,0,3:2:0:0:
215,152,56291,5,10,3:2:0:0:
204,139,56362,1,0,3:0:0:0:
205,123,56433,2,0,P|130:109|56:92,1,152,0|10,3:2|3:2,0:0:0:0:
330,169,56717,1,0,3:2:0:0:
308,164,56789,1,0,3:0:0:0:
294,147,56860,1,10,3:2:0:0:
512,8,57002,6,0,P|494:82|480:156,1,152,4|10,3:2|3:2,0:0:0:0:
399,203,57215,1,0,3:2:0:0:
408,214,57286,2,0,B|391:254|391:254|284:275,1,152,0|10,3:2|3:2,0:0:0:0:
255,347,57499,5,0,3:0:0:0:
263,359,57571,2,0,L|337:375,1,76,0|0,3:2|3:2,0:0:0:0:
218,221,57713,2,0,L|201:295,1,76,10|0,3:2|0:0,0:0:0:0:
407,335,57855,1,0,3:2:0:0:
435,345,57926,1,0,3:2:0:0:
456,366,57997,2,0,P|466:326|474:292,1,76,10|0,3:2|0:0,0:0:0:0:
376,132,58139,5,0,3:2:0:0:
382,117,58210,1,0,3:2:0:0:
386,102,58281,2,0,P|424:94|463:83,1,76,10|0,3:2|0:0,0:0:0:0:
512,199,58424,5,8,3:2:0:0:
467,210,58495,1,8,3:2:0:0:
422,220,58566,1,8,3:2:0:0:
377,230,58637,1,8,3:2:0:0:
333,242,58708,5,8,3:2:0:0:
318,236,58779,1,8,3:2:0:0:
285,264,58850,1,8,3:2:0:0:
247,258,58921,1,8,3:2:0:0:
197,305,58992,5,8,3:2:0:0:
122,288,59063,1,8,3:2:0:0:
97,215,59135,1,8,3:2:0:0:
147,158,59206,1,8,3:2:0:0:
223,174,59277,6,0,B|235:89|235:89|237:87|237:87|250:2,1,170.999994781494,4|8,3:1|3:2,0:0:0:0:
20,205,59561,1,0,3:2:0:0:
26,229,59632,1,0,3:0:0:0:
31,254,59703,1,8,3:2:0:0:
38,278,59774,1,0,3:0:0:0:
71,300,59845,6,0,L|51:383,1,85.4999973907472,0|0,3:2|0:0,0:0:0:0:
142,240,59988,2,0,L|161:323,1,85.4999973907472,8|0,3:2|0:0,0:0:0:0:
155,126,60130,2,0,L|72:147,3,85.4999973907472,0|0|8|0,3:2|3:0|3:2|3:0,0:0:0:0:
0,0,60414,5,0,3:2:0:0:
24,8,60485,1,0,3:0:0:0:
38,29,60556,2,0,L|121:45,1,85.4999973907472,8|0,3:2|0:0,0:0:0:0:
220,77,60698,2,0,L|245:166,1,85.4999973907472,0|0,3:2|0:0,0:0:0:0:
323,0,60841,2,0,L|298:89,1,85.4999973907472,8|0,3:2|0:0,0:0:0:0:
402,203,60983,6,0,L|485:221,1,85.4999973907472,0|0,3:2|0:0,0:0:0:0:
493,230,61125,2,0,L|511:146,1,85.4999973907472,8|0,3:2|0:0,0:0:0:0:
439,128,61267,2,0,L|423:43,3,85.4999973907472,0|0|8|0,3:2|3:0|3:2|3:0,0:0:0:0:
512,301,61552,6,0,L|344:337,1,170.999994781494,4|8,3:1|3:2,0:0:0:0:
267,268,61836,1,0,3:2:0:0:
241,263,61907,1,0,3:0:0:0:
215,258,61978,1,8,3:2:0:0:
189,253,62049,1,0,3:0:0:0:
154,272,62120,6,0,L|129:189,1,85.4999973907472,0|0,3:2|0:0,0:0:0:0:
229,347,62262,2,0,L|242:253,1,85.4999973907472,8|0,3:2|0:0,0:0:0:0:
108,340,62405,2,0,L|4:367,3,85.4999973907472,0|0|8|0,3:2|3:0|3:2|3:0,0:0:0:0:
213,182,62689,6,0,L|297:195,1,85.4999973907472,0|0,3:2|0:0,0:0:0:0:
328,304,62831,1,8,3:2:0:0:
343,296,62902,1,0,3:2:0:0:
359,300,62973,2,0,L|345:384,1,85.4999973907472,0|0,3:2|0:0,0:0:0:0:
512,340,63116,2,0,L|427:352,1,85.4999973907472,8|0,3:2|0:0,0:0:0:0:
350,141,63258,6,0,P|392:146|434:153,1,85.4999973907472,0|0,3:2|0:0,0:0:0:0:
415,72,63400,2,0,L|494:40,1,85.4999973907472,8|0,3:2|0:0,0:0:0:0:
505,184,63542,2,0,L|489:268,3,85.4999973907472,0|0|8|0,3:2|3:0|3:2|3:0,0:0:0:0:
292,204,63826,6,0,P|208:188|124:175,1,170.999994781494,4|8,3:1|3:2,0:0:0:0:
10,56,64111,1,0,3:2:0:0:
24,34,64182,1,0,3:0:0:0:
47,23,64253,1,8,3:2:0:0:
72,24,64324,1,0,3:0:0:0:
93,37,64395,2,0,P|81:78|73:120,1,85.4999973907472,0|0,3:2|0:0,0:0:0:0:
237,97,64537,2,0,P|194:99|151:103,1,85.4999973907472,8|0,3:2|0:0,0:0:0:0:
12,172,64680,2,0,P|14:214|18:257,3,85.4999973907472,0|0|8|0,3:2|3:0|3:2|3:0,0:0:0:0:
170,329,64964,5,0,3:2:0:0:
172,345,65035,1,0,3:2:0:0:
172,361,65106,2,0,P|213:370|254:382,1,85.4999973907472,8|0,3:2|0:0,0:0:0:0:
137,243,65248,2,0,P|107:274|76:303,1,85.4999973907472,0|0,3:2|0:0,0:0:0:0:
309,290,65390,2,0,P|267:280|226:268,1,85.4999973907472,8|0,3:2|0:0,0:0:0:0:
447,384,65533,6,0,P|487:372|508:336,1,85.4999973907472,0|0,3:2|0:0,0:0:0:0:
447,300,65675,2,0,P|448:258|421:226,1,85.4999973907472,8|0,3:2|0:0,0:0:0:0:
294,214,65817,2,0,P|286:172|277:130,3,85.4999973907472,0|0|8|0,3:2|3:0|3:2|3:0,0:0:0:0:
512,0,66101,6,0,P|495:83|480:168,1,170.999994781494,4|8,3:1|3:2,0:0:0:0:
345,105,66386,1,0,3:2:0:0:
310,105,66457,1,0,3:0:0:0:
277,96,66528,1,8,3:2:0:0:
247,79,66599,1,0,3:0:0:0:
203,94,66670,6,0,P|161:85|119:78,1,85.4999973907472,0|0,3:2|0:0,0:0:0:0:
104,153,66812,2,0,P|63:166|23:181,1,85.4999973907472,8|0,3:2|0:0,0:0:0:0:
216,272,66954,6,0,P|208:316|204:356,3,85.4999973907472,0|0|8|0,3:2|3:0|3:2|3:0,0:0:0:0:
93,308,67239,2,0,L|329:334,1,237.5,4|0,3:2|0:0,0:0:0:0:
476,169,67523,5,4,3:2:0:0:
144,243,67665,1,0,0:0:0:0:
255,2,67807,5,4,3:2:0:0:
329,334,67950,1,0,0:0:0:0:
469,165,68092,1,4,3:2:0:0:
394,384,68234,1,0,0:0:0:0:
0,86,68376,5,4,3:1:0:0:
46,74,68471,1,8,3:3:0:0:
92,62,68566,1,8,3:3:0:0:
137,50,68661,1,8,3:2:0:0:
183,38,68755,1,8,3:3:0:0:
229,27,68850,1,8,3:3:0:0:
269,51,68945,5,10,3:2:0:0:
250,66,69040,1,8,3:3:0:0:
272,98,69135,1,8,3:3:0:0:
263,120,69229,1,10,3:2:0:0:
223,133,69324,1,8,3:3:0:0:
197,108,69419,1,8,3:3:0:0:
148,103,69514,5,10,3:2:0:0:
113,135,69608,1,8,3:3:0:0:
105,182,69703,1,8,3:3:0:0:
129,222,69798,1,8,3:2:0:0:
178,236,69893,1,8,3:3:0:0:
221,217,69988,1,8,3:3:0:0:
268,212,70082,5,10,3:2:0:0:
314,235,70177,1,8,3:3:0:0:
330,272,70272,1,8,3:3:0:0:
346,270,70367,1,10,3:2:0:0:
346,285,70462,1,8,3:3:0:0:
344,300,70556,1,8,3:3:0:0:
371,338,70651,5,10,3:2:0:0:
330,363,70746,1,8,3:3:0:0:
283,354,70841,1,8,3:3:0:0:
253,317,70935,1,8,3:2:0:0:
253,269,71030,1,8,3:3:0:0:
282,231,71125,1,8,3:3:0:0:
328,220,71220,5,10,3:2:0:0:
335,206,71315,1,8,3:3:0:0:
317,167,71409,1,8,3:3:0:0:
341,135,71504,1,10,3:2:0:0:
322,101,71599,1,8,3:3:0:0:
328,88,71694,1,8,3:3:0:0:
316,66,71789,6,0,L|235:48,2,82.3333295644126,4|8|8,3:1|3:3|3:3,0:0:0:0:
427,187,72073,2,0,P|451:155|481:127,2,82.3333295644126,12|8|8,3:2|3:3|3:3,0:0:0:0:
186,117,72357,5,8,3:2:0:0:
177,115,72405,1,8,3:3:0:0:
168,113,72452,1,8,3:3:0:0:
159,111,72499,1,8,3:3:0:0:
150,109,72547,1,8,3:3:0:0:
141,107,72594,1,8,3:3:0:0:
113,123,72642,6,0,L|94:42,2,82.3333295644126,12|8|8,3:2|3:3|3:3,0:0:0:0:
0,313,72926,5,4,3:1:0:0:
31,305,73021,1,8,3:3:0:0:
63,298,73116,1,8,3:3:0:0:
95,291,73210,1,8,3:2:0:0:
127,284,73305,1,8,3:3:0:0:
159,278,73400,1,8,3:3:0:0:
187,293,73495,5,10,3:2:0:0:
202,288,73589,1,8,3:3:0:0:
238,307,73684,1,8,3:3:0:0:
278,300,73779,1,10,3:2:0:0:
298,313,73874,1,8,3:3:0:0:
322,311,73969,1,8,3:3:0:0:
357,343,74063,5,10,3:2:0:0:
406,337,74158,1,8,3:3:0:0:
442,303,74253,1,8,3:3:0:0:
458,256,74348,1,8,3:2:0:0:
441,209,74443,1,8,3:3:0:0:
403,176,74537,1,8,3:3:0:0:
354,168,74632,5,10,3:2:0:0:
342,155,74727,1,8,3:3:0:0:
357,125,74822,1,8,3:3:0:0:
336,93,74917,1,10,3:2:0:0:
303,67,75011,1,8,3:3:0:0:
306,25,75106,1,8,3:3:0:0:
340,1,75201,6,0,L|420:16,2,82.3333295644126,10|8|8,3:2|3:3|3:3,0:0:0:0:
263,138,75485,2,0,L|182:122,2,82.3333295644126,10|8|8,3:2|3:3|3:3,0:0:0:0:
507,170,75770,6,0,P|467:177|440:208,1,82.3333295644126,10|8,3:2|3:3,0:0:0:0:
337,216,75959,1,8,3:3:0:0:
348,222,76054,2,0,P|343:262|363:297,1,82.3333295644126,10|8,3:2|3:3,0:0:0:0:
512,362,76244,1,8,3:3:0:0:
506,368,76338,6,0,L|424:354,2,82.3333295644126,4|8|8,3:1|3:3|3:3,0:0:0:0:
168,237,76623,2,0,L|249:250,2,82.3333295644126,12|8|8,3:2|3:3|3:3,0:0:0:0:
507,170,76907,6,0,L|491:250,2,82.3333295644126,8|8|8,3:2|3:3|3:3,0:0:0:0:
134,91,77191,2,0,L|149:10,2,82.3333295644126,12|8|8,3:2|3:3|3:3,0:0:0:0:
407,377,77476,5,4,3:1:0:0:
358,369,77571,1,8,3:3:0:0:
308,362,77665,1,8,3:3:0:0:
258,354,77760,1,8,3:2:0:0:
208,347,77855,1,8,3:3:0:0:
159,341,77950,1,8,3:3:0:0:
119,311,78044,5,10,3:2:0:0:
141,301,78139,1,8,3:3:0:0:
160,310,78234,1,8,3:3:0:0:
186,281,78329,1,10,3:2:0:0:
221,298,78424,1,8,3:3:0:0:
256,275,78518,1,8,3:3:0:0:
253,236,78613,5,10,3:2:0:0:
288,201,78708,1,8,3:3:0:0:
336,203,78803,1,8,3:3:0:0:
376,231,78898,1,8,3:2:0:0:
384,279,78992,1,8,3:3:0:0:
357,320,79087,1,8,3:3:0:0:
380,363,79182,5,10,3:2:0:0:
394,355,79277,1,8,3:3:0:0:
407,366,79371,1,8,3:3:0:0:
421,355,79466,1,10,3:2:0:0:
449,372,79561,1,8,3:3:0:0:
476,350,79656,1,8,3:3:0:0:
469,308,79751,5,10,3:2:0:0:
421,292,79845,1,8,3:3:0:0:
385,257,79940,1,8,3:3:0:0:
379,207,80035,1,8,3:2:0:0:
392,159,80130,1,8,3:3:0:0:
431,129,80225,1,8,3:3:0:0:
480,125,80319,5,10,3:2:0:0:
485,119,80414,1,8,3:3:0:0:
473,102,80509,1,8,3:3:0:0:
490,81,80604,1,10,3:2:0:0:
469,60,80698,1,8,3:3:0:0:
488,30,80793,1,8,3:3:0:0:
451,8,80888,6,0,P|410:5|369:0,2,82.3333295644126,4|8|8,3:1|3:3|3:3,0:0:0:0:
194,92,81172,2,0,P|153:86|112:83,2,82.3333295644126,12|8|8,3:2|3:3|3:3,0:0:0:0:
310,241,81457,5,8,3:2:0:0:
317,239,81504,1,8,3:3:0:0:
325,237,81552,1,8,3:3:0:0:
333,235,81599,1,8,3:3:0:0:
341,233,81646,1,8,3:3:0:0:
349,231,81694,1,8,3:3:0:0:
379,207,81741,6,0,L|362:287,2,82.3333295644126,12|8|8,3:2|3:3|3:3,0:0:0:0:
77,384,82026,5,4,3:1:0:0:
69,342,82120,1,8,3:3:0:0:
62,301,82215,1,8,3:3:0:0:
53,260,82310,1,8,3:2:0:0:
46,219,82405,1,8,3:3:0:0:
37,178,82499,1,8,3:3:0:0:
66,142,82594,5,10,3:2:0:0:
72,131,82689,1,8,3:3:0:0:
61,120,82784,1,8,3:3:0:0:
44,97,82879,1,10,3:2:0:0:
57,70,82973,1,8,3:3:0:0:
87,59,83068,1,8,3:3:0:0:
112,26,83163,5,10,3:2:0:0:
130,71,83258,1,8,3:3:0:0:
148,116,83353,1,8,3:3:0:0:
168,161,83447,1,8,3:2:0:0:
186,206,83542,1,8,3:3:0:0:
205,251,83637,1,8,3:3:0:0:
251,266,83732,5,10,3:2:0:0:
255,281,83826,1,8,3:3:0:0:
249,301,83921,1,8,3:3:0:0:
261,315,84016,1,10,3:2:0:0:
249,329,84111,1,8,3:3:0:0:
256,354,84206,1,8,3:3:0:0:
299,377,84300,6,0,L|385:363,2,82.3333295644126,10|8|8,3:2|3:3|3:3,0:0:0:0:
162,317,84585,2,0,L|80:330,2,82.3333295644126,10|8|8,3:2|3:3|3:3,0:0:0:0:
444,279,84869,6,0,P|477:256|488:217,1,82.3333295644126,10|8,3:2|3:3,0:0:0:0:
397,194,85059,1,8,3:3:0:0:
385,186,85153,2,0,P|374:147|340:124,1,82.3333295644126,10|8,3:2|3:3,0:0:0:0:
164,172,85343,5,8,3:3:0:0:
174,178,85438,2,0,L|92:187,2,82.3333295644126,4|8|8,3:1|3:3|3:3,0:0:0:0:
262,262,85722,2,0,L|343:252,2,82.3333295644126,12|8|8,3:2|3:3|3:3,0:0:0:0:
6,162,86007,2,0,L|15:243,2,82.3333295644126,8|8|8,3:2|3:3|3:3,0:0:0:0:
340,124,86291,2,0,L|325:1,1,123.499994346619,12|0,3:2|0:0,0:0:0:0:
86,202,86575,5,4,3:1:0:0:
91,238,86646,1,0,3:0:0:0:
96,274,86717,1,8,3:2:0:0:
100,310,86789,1,0,3:0:0:0:
105,346,86860,2,0,B|122:365|122:365|157:372,1,61.7499971733095,0|0,3:2|0:0,0:0:0:0:
212,323,87002,2,0,L|272:308,1,61.7499971733095,8|0,3:2|0:0,0:0:0:0:
488,245,87144,5,0,3:2:0:0:
483,263,87215,1,0,3:0:0:0:
479,281,87286,1,8,3:2:0:0:
475,299,87357,1,0,3:0:0:0:
500,331,87428,5,0,3:2:0:0:
491,340,87499,1,0,3:0:0:0:
499,356,87571,1,8,3:2:0:0:
491,372,87642,1,0,3:0:0:0:
445,384,87713,5,0,3:2:0:0:
410,369,87784,1,0,3:0:0:0:
375,355,87855,1,8,3:2:0:0:
340,341,87926,1,0,3:0:0:0:
302,361,87997,6,0,L|241:373,1,61.7499971733095,0|0,3:2|0:0,0:0:0:0:
204,310,88139,2,0,L|143:297,1,61.7499971733095,8|0,3:2|0:0,0:0:0:0:
13,181,88281,5,0,3:2:0:0:
24,133,88353,1,0,3:0:0:0:
58,97,88424,1,8,3:2:0:0:
106,88,88495,1,0,3:0:0:0:
152,105,88566,5,0,3:2:0:0:
165,117,88637,1,0,3:0:0:0:
188,106,88708,1,8,3:2:0:0:
218,130,88779,1,0,3:0:0:0:
288,106,88850,5,4,3:2:0:0:
335,115,88921,1,0,3:0:0:0:
378,92,88992,1,8,3:2:0:0:
401,49,89063,1,0,3:0:0:0:
385,2,89135,2,0,B|362:3|362:3|334:30,1,61.7499971733095,0|0,3:2|0:0,0:0:0:0:
270,52,89277,2,0,B|263:74|263:74|281:108,1,61.7499971733095,8|0,3:2|0:0,0:0:0:0:
464,149,89419,5,0,3:2:0:0:
456,191,89490,1,0,3:0:0:0:
448,233,89561,1,8,3:2:0:0:
440,275,89632,1,0,3:0:0:0:
431,317,89703,1,0,3:2:0:0:
424,322,89774,1,0,3:0:0:0:
431,334,89845,1,8,3:2:0:0:
419,356,89917,1,0,3:0:0:0:
373,371,89988,5,0,3:2:0:0:
332,343,90059,1,0,3:2:0:0:
342,294,90130,1,8,3:2:0:0:
191,354,90272,5,0,3:2:0:0:
194,304,90343,1,0,3:2:0:0:
242,288,90414,2,0,L|252:227,1,61.7499971733095,8|0,3:2|0:0,0:0:0:0:
102,194,90556,5,0,3:2:0:0:
146,171,90627,1,0,3:2:0:0:
184,205,90698,1,8,3:2:0:0:
220,41,90841,5,0,3:2:0:0:
261,67,90912,1,0,3:2:0:0:
251,117,90983,1,8,3:2:0:0:
234,120,91054,1,0,3:0:0:0:
213,104,91125,6,0,B|135:91|135:91|136:93|136:93|44:77|44:77|26:34|26:34|48:20,1,246.999988693238,4|0,3:2|3:2,0:0:0:0:
313,13,91552,1,8,3:2:0:0:
146,171,91694,2,0,L|24:192,1,123.499994346619,0|8,3:2|3:2,0:0:0:0:
352,87,91978,6,0,L|327:208,1,123.499994346619,0|8,3:2|3:2,0:0:0:0:
119,261,92262,5,0,3:2:0:0:
445,332,92405,1,8,3:2:0:0:
446,343,92547,1,0,3:2:0:0:
60,325,92689,6,0,B|29:289|29:289|55:217,1,123.499994346619,8|0,3:2|3:2,0:0:0:0:
237,192,92973,1,8,3:2:0:0:
196,279,93116,2,0,L|315:248,1,123.499994346619,0|8,3:2|3:2,0:0:0:0:
512,47,93400,6,0,B|452:38|452:38|426:53|426:53|353:41|353:41|355:40|355:40|274:26,1,246.999988693238,4|0,3:2|3:2,0:0:0:0:
480,126,93826,1,8,3:2:0:0:
252,107,93969,2,0,B|160:123|160:123|160:126|160:126|72:141,1,185.249991519928,0|0,3:2|0:0,0:0:0:0:
40,234,94253,2,0,P|18:181|65:149,1,123.499994346619,0|8,3:2|3:2,0:0:0:0:
247,279,94537,5,0,3:2:0:0:
232,313,94608,1,0,3:2:0:0:
225,348,94680,1,8,3:2:0:0:
95,308,94822,5,0,3:2:0:0:
102,291,94893,1,0,3:2:0:0:
106,273,94964,1,8,3:2:0:0:
325,337,95106,5,8,3:2:0:0:
360,346,95177,1,8,3:2:0:0:
396,354,95248,1,8,3:2:0:0:
431,362,95319,1,8,3:2:0:0:
458,336,95390,5,8,3:2:0:0:
447,281,95462,1,8,3:2:0:0:
434,226,95533,1,8,3:2:0:0:
418,172,95604,1,8,3:2:0:0:
465,148,95675,6,0,L|498:0,1,152,4|8,3:1|3:2,0:0:0:0:
340,189,95959,1,0,3:2:0:0:
344,203,96030,1,0,3:2:0:0:
349,217,96101,2,0,L|251:244,1,76,10|0,3:2|0:0,0:0:0:0:
224,156,96244,2,0,L|74:131,1,152,0|10,3:2|3:2,0:0:0:0:
369,111,96528,5,0,3:2:0:0:
82,208,96670,1,10,3:2:0:0:
67,212,96741,1,0,3:0:0:0:
49,216,96812,2,0,B|18:242|18:242|39:351,1,152,0|10,3:2|3:2,0:0:0:0:
203,267,97097,1,0,3:2:0:0:
206,252,97168,1,0,3:2:0:0:
209,237,97239,1,10,3:2:0:0:
117,123,97381,6,0,L|41:111,1,76,0|0,3:2|0:0,0:0:0:0:
21,43,97523,2,0,L|33:118,1,76,10|0,3:2|0:0,0:0:0:0:
155,194,97665,2,0,L|179:344,1,152,0|10,3:2|3:2,0:0:0:0:
512,302,97950,6,0,P|480:236|408:232,1,152,4|10,3:2|3:2,0:0:0:0:
404,123,98163,1,0,3:2:0:0:
409,137,98234,2,0,P|337:146|311:214,1,152,0|10,3:2|3:2,0:0:0:0:
353,283,98447,1,0,3:0:0:0:
353,283,98518,1,0,3:2:0:0:
476,373,98661,6,0,P|439:365|401:360,1,76,10|0,3:2|0:0,0:0:0:0:
271,278,98803,1,0,3:2:0:0:
249,286,98874,1,0,3:2:0:0:
226,286,98945,1,10,3:2:0:0:
61,368,99087,5,0,3:2:0:0:
31,359,99158,1,0,3:2:0:0:
18,330,99229,2,0,B|40:312|40:312|103:329,1,76,10|0,3:2|0:0,0:0:0:0:
215,208,99371,1,0,3:2:0:0:
237,200,99443,1,0,3:2:0:0:
260,200,99514,1,10,3:2:0:0:
341,58,99656,5,2,3:2:0:0:
60,0,99798,1,10,3:2:0:0:
374,160,99940,1,2,3:2:0:0:
371,169,100082,1,10,3:2:0:0:
39,217,100225,6,0,L|60:367,1,152,4|8,3:2|3:2,0:0:0:0:
75,370,100438,1,0,3:2:0:0:
89,373,100509,1,0,3:2:0:0:
200,282,100651,2,0,L|214:207,1,76,10|0,3:2|0:0,0:0:0:0:
146,128,100793,5,0,3:2:0:0:
143,113,100864,1,0,3:0:0:0:
140,98,100935,1,10,3:2:0:0:
354,93,101078,2,0,L|428:106,2,76,0|0|10,3:2|0:0|3:2,0:0:0:0:
187,0,101362,6,0,L|166:151,1,152,0|10,3:2|3:2,0:0:0:0:
281,262,101646,1,0,3:2:0:0:
295,258,101717,1,0,3:2:0:0:
309,255,101789,1,10,3:2:0:0:
399,177,101931,6,0,P|387:252|375:327,1,152,0|10,3:2|3:2,0:0:0:0:
465,379,102215,1,0,3:2:0:0:
478,371,102286,1,0,3:0:0:0:
483,356,102357,1,10,3:2:0:0:
287,340,102499,6,0,P|251:331|213:325,1,76,4|0,3:2|0:0,0:0:0:0:
182,259,102642,2,0,P|144:253|107:244,1,76,10|0,3:2|3:2,0:0:0:0:
1,361,102784,1,0,3:2:0:0:
7,376,102855,1,0,3:2:0:0:
28,380,102926,2,0,L|39:304,1,76,10|0,3:2|0:0,0:0:0:0:
163,181,103068,1,0,3:2:0:0:
177,145,103139,1,0,3:2:0:0:
201,115,103210,1,10,3:2:0:0:
151,17,103353,6,0,L|76:1,2,76,0|0|10,3:2|3:2|3:2,0:0:0:0:
273,160,103637,1,0,3:2:0:0:
309,170,103708,1,0,3:2:0:0:
330,201,103779,2,0,L|405:189,1,76,10|0,3:2|0:0,0:0:0:0:
435,92,103921,2,0,L|360:77,2,76,0|0|10,3:2|3:2|3:2,0:0:0:0:
457,275,104206,5,2,3:2:0:0:
496,4,104348,1,10,3:2:0:0:
348,289,104490,1,2,3:2:0:0:
354,299,104632,1,10,3:2:0:0:
232,48,104774,6,0,L|72:81,1,152,4|8,3:2|3:2,0:0:0:0:
79,93,104988,1,0,3:2:0:0:
66,102,105059,1,0,3:2:0:0:
163,181,105201,2,0,L|237:195,1,76,10|0,3:2|0:0,0:0:0:0:
353,298,105343,6,0,L|384:150,1,152,0|10,3:2|3:2,0:0:0:0:
115,252,105627,1,0,3:2:0:0:
119,266,105698,1,0,3:0:0:0:
123,280,105770,1,10,3:2:0:0:
280,355,105912,6,0,L|352:376,1,76,0|0,3:2|0:0,0:0:0:0:
419,340,106054,2,0,L|491:318,2,76,10|0|0,3:2|3:2|3:2,0:0:0:0:
202,320,106338,5,10,3:2:0:0:
448,254,106480,2,0,L|502:112,1,152,0|10,3:2|3:2,0:0:0:0:
442,43,106765,1,0,3:2:0:0:
426,46,106836,1,0,3:0:0:0:
411,49,106907,1,10,3:2:0:0:
293,142,107049,6,0,L|219:122,1,76,4|0,3:2|0:0,0:0:0:0:
356,206,107191,2,0,L|282:225,1,76,10|0,3:2|3:2,0:0:0:0:
130,198,107334,1,0,3:2:0:0:
94,211,107405,1,0,3:2:0:0:
56,212,107476,2,0,B|42:236|42:236|55:282,1,76,10|0,3:2|0:0,0:0:0:0:
158,313,107618,5,0,3:2:0:0:
155,335,107689,1,0,3:2:0:0:
151,357,107760,2,0,B|178:379|178:379|228:364,1,76,10|0,3:2|0:0,0:0:0:0:
319,290,107902,1,0,3:2:0:0:
340,296,107973,1,0,3:2:0:0:
361,303,108044,1,10,3:2:0:0:
493,368,108187,6,0,L|418:384,1,76,0|0,3:2|3:2,0:0:0:0:
367,297,108329,2,0,L|218:264,1,152,10|0,3:2|3:2,0:0:0:0:
184,195,108542,1,0,3:2:0:0:
184,195,108613,1,10,3:2:0:0:
331,67,108755,5,2,3:2:0:0:
270,370,108898,1,10,3:2:0:0:
38,165,109040,1,2,3:2:0:0:
40,157,109182,1,10,3:2:0:0:
313,215,109324,6,0,L|464:242,1,152,4|8,3:2|3:2,0:0:0:0:
501,144,109537,1,0,3:2:0:0:
491,138,109608,2,0,L|410:155,1,76,0|0,3:2|3:2,0:0:0:0:
245,206,109751,1,10,3:2:0:0:
216,195,109822,1,0,3:0:0:0:
184,195,109893,2,0,P|150:178|141:142,1,76,0|0,3:2|0:0,0:0:0:0:
283,61,110035,6,0,P|285:97|259:124,1,76,10|0,3:2|0:0,0:0:0:0:
173,69,110177,1,0,3:2:0:0:
182,63,110248,1,0,3:0:0:0:
194,69,110319,1,10,3:2:0:0:
87,227,110462,5,0,3:2:0:0:
47,249,110533,1,0,3:0:0:0:
38,285,110604,1,10,3:2:0:0:
98,351,110746,2,0,P|177:339|248:330,1,152,0|10,3:2|3:2,0:0:0:0:
485,233,111030,6,0,P|445:239|406:242,2,76,0|0|10,3:2|3:0|3:2,0:0:0:0:
356,294,111315,1,0,3:2:0:0:
341,288,111386,1,0,3:0:0:0:
325,288,111457,1,10,3:2:0:0:
186,193,111599,6,0,L|169:118,1,76,4|0,3:2|0:0,0:0:0:0:
245,127,111741,2,0,L|261:52,1,76,10|0,3:2|3:2,0:0:0:0:
108,185,111883,1,0,3:2:0:0:
93,190,111954,1,0,3:2:0:0:
80,198,112026,2,0,L|3:184,1,76,10|0,3:2|0:0,0:0:0:0:
0,107,112168,2,0,L|77:121,1,76,0|0,3:2|3:2,0:0:0:0:
144,258,112310,6,0,L|129:332,1,76,10|0,3:2|0:0,0:0:0:0:
312,217,112452,1,0,3:2:0:0:
293,212,112523,1,0,3:2:0:0:
274,208,112594,1,10,3:2:0:0:
192,367,112736,2,0,L|266:352,2,76,0|0|10,3:2|3:2|3:2,0:0:0:0:
63,283,113021,1,8,3:2:0:0:
474,341,113163,6,0,L|489:266,1,76,8|8,3:2|3:2,0:0:0:0:
304,22,113305,5,8,3:2:0:0:
314,34,113376,1,8,3:2:0:0:
356,25,113447,1,8,3:2:0:0:
387,48,113518,1,8,3:2:0:0:
453,30,113589,5,8,3:2:0:0:
511,80,113661,1,8,3:2:0:0:
499,156,113732,1,8,3:2:0:0:
428,183,113803,1,8,3:2:0:0:
365,136,113874,6,0,B|281:153|281:153|281:157|281:157|200:174,1,170.999994781494,4|8,3:1|3:2,0:0:0:0:
105,54,114158,1,0,3:2:0:0:
88,49,114229,1,0,3:0:0:0:
71,44,114300,1,8,3:2:0:0:
54,38,114371,1,0,3:0:0:0:
22,63,114443,6,0,L|40:146,1,85.4999973907472,0|0,3:2|0:0,0:0:0:0:
125,127,114585,2,0,L|106:210,1,85.4999973907472,8|0,3:2|0:0,0:0:0:0:
239,237,114727,2,0,L|257:320,3,85.4999973907472,0|0|8|0,3:2|3:0|3:2|3:0,0:0:0:0:
96,384,115011,5,0,3:2:0:0:
79,379,115082,1,0,3:0:0:0:
62,375,115153,1,8,3:2:0:0:
45,369,115225,1,0,3:0:0:0:
28,327,115296,6,0,L|111:310,3,85.4999973907472,0|0|8|0,3:2|3:0|3:2|3:0,0:0:0:0:
267,325,115580,2,0,L|183:341,3,85.4999973907472,0|0|8|0,3:2|3:0|3:2|3:0,0:0:0:0:
59,250,115864,2,0,L|44:165,3,85.4999973907472,0|0|8|0,3:2|3:0|3:2|3:0,0:0:0:0:
381,217,116149,6,0,L|343:384,1,170.999994781494,4|8,3:1|3:2,0:0:0:0:
229,214,116433,1,0,3:2:0:0:
226,197,116504,1,0,3:0:0:0:
222,180,116575,1,8,3:2:0:0:
218,163,116646,1,0,3:0:0:0:
238,135,116717,6,0,L|321:118,1,85.4999973907472,0|0,3:2|0:0,0:0:0:0:
304,44,116860,2,0,L|387:60,1,85.4999973907472,8|0,3:2|0:0,0:0:0:0:
471,141,117002,2,0,L|453:228,3,85.4999973907472,0|0|8|0,3:2|3:0|3:2|3:0,0:0:0:0:
238,135,117286,5,0,3:2:0:0:
221,131,117357,1,0,3:0:0:0:
204,127,117428,2,0,L|120:145,1,85.4999973907472,8|0,3:2|0:0,0:0:0:0:
0,0,117571,6,0,P|40:9|63:44,1,85.4999973907472,0|0,3:2|0:0,0:0:0:0:
142,70,117713,2,0,P|145:111|119:144,1,85.4999973907472,8|0,3:2|0:0,0:0:0:0:
7,254,117855,6,0,L|26:337,1,85.4999973907472,0|0,3:2|0:0,0:0:0:0:
94,296,117997,2,0,P|118:330|151:357,1,85.4999973907472,8|0,3:2|0:0,0:0:0:0:
346,282,118139,5,0,3:2:0:0:
74,218,118281,1,8,3:2:0:0:
271,348,118424,6,0,P|354:333|440:322,1,170.999994781494,4|8,3:1|3:2,0:0:0:0:
487,199,118708,1,0,3:2:0:0:
470,193,118779,1,0,3:0:0:0:
454,187,118850,1,8,3:2:0:0:
437,181,118921,1,0,3:0:0:0:
397,198,118992,6,0,L|313:215,1,85.4999973907472,0|0,3:2|0:0,0:0:0:0:
278,144,119135,2,0,L|189:121,1,85.4999973907472,8|0,3:2|0:0,0:0:0:0:
376,98,119277,2,0,L|400:16,3,85.4999973907472,0|0|8|0,3:2|3:0|3:2|3:0,0:0:0:0:
184,197,119561,5,0,3:2:0:0:
167,201,119632,1,0,3:0:0:0:
148,204,119703,2,0,B|120:191|120:191|103:138,1,85.4999973907472,8|0,3:2|0:0,0:0:0:0:
306,227,119845,2,0,L|294:311,1,85.4999973907472,0|0,3:2|0:0,0:0:0:0:
223,298,119988,2,0,L|164:360,1,85.4999973907472,8|0,3:2|0:0,0:0:0:0:
0,248,120130,6,0,L|84:261,2,85.4999973907472,0|0|8,3:2|3:0|3:2,0:0:0:0:
23,90,120414,1,0,3:2:0:0:
68,381,120556,1,8,3:2:0:0:
154,125,120698,6,0,B|241:108|241:108|241:110|241:110|319:93,1,170.999994781494,4|8,3:1|3:2,0:0:0:0:
398,181,120983,1,0,3:2:0:0:
413,187,121054,1,0,3:0:0:0:
428,193,121125,1,8,3:2:0:0:
443,199,121196,1,0,3:0:0:0:
476,185,121267,6,0,L|493:268,1,85.4999973907472,0|0,3:2|0:0,0:0:0:0:
409,271,121409,2,0,L|361:342,1,85.4999973907472,8|0,3:2|0:0,0:0:0:0:
326,232,121552,2,0,L|232:215,3,85.4999973907472,0|0|8|0,3:2|3:0|3:2|3:0,0:0:0:0:
192,125,121836,1,4,3:2:0:0:
316,11,121978,5,2,0:0:0:0:
249,303,122120,1,6,3:2:0:0:
29,98,122262,1,2,0:0:0:0:
214,141,122405,5,6,3:2:0:0:
212,149,122476,1,0,0:0:0:0:
211,157,122547,1,0,0:0:0:0:
16,260,122689,5,6,3:2:0:0:
426,115,122831,1,2,0:0:0:0:
506,179,122973,5,4,3:1:0:0:
461,189,123068,1,8,3:3:0:0:
424,216,123163,1,8,3:3:0:0:
413,259,123258,1,8,3:2:0:0:
418,304,123353,1,8,3:3:0:0:
445,340,123447,1,8,3:3:0:0:
375,376,123542,5,10,3:2:0:0:
337,358,123637,1,8,3:3:0:0:
297,373,123732,1,8,3:3:0:0:
259,335,123826,1,10,3:2:0:0:
204,354,123921,1,8,3:3:0:0:
182,328,124016,1,8,3:3:0:0:
108,362,124111,5,10,3:2:0:0:
68,340,124206,1,8,3:3:0:0:
46,299,124300,1,8,3:3:0:0:
53,253,124395,1,8,3:2:0:0:
85,221,124490,1,8,3:3:0:0:
128,208,124585,1,8,3:3:0:0:
205,237,124680,5,10,3:2:0:0:
219,216,124774,1,8,3:3:0:0:
207,191,124869,1,8,3:3:0:0:
227,170,124964,1,10,3:2:0:0:
224,142,125059,1,8,3:3:0:0:
238,112,125153,1,8,3:3:0:0:
200,44,125248,5,10,3:2:0:0:
176,68,125343,1,8,3:3:0:0:
156,80,125438,1,8,3:3:0:0:
133,83,125533,1,8,3:2:0:0:
110,82,125627,1,8,3:3:0:0:
88,75,125722,1,8,3:3:0:0:
70,60,125817,5,10,3:2:0:0:
79,53,125912,1,8,3:3:0:0:
88,59,126007,1,8,3:3:0:0:
99,59,126101,1,10,3:2:0:0:
107,66,126196,1,8,3:3:0:0:
118,64,126291,1,8,3:3:0:0:
146,90,126386,6,0,L|227:77,2,82.3333295644126,4|8|8,3:1|3:3|3:3,0:0:0:0:
356,144,126670,2,0,L|437:131,2,82.3333295644126,12|8|8,3:2|3:3|3:3,0:0:0:0:
156,281,126954,5,8,3:2:0:0:
147,279,127002,1,8,3:3:0:0:
139,277,127049,1,8,3:3:0:0:
130,275,127097,1,8,3:3:0:0:
121,273,127144,1,8,3:3:0:0:
113,271,127191,1,8,3:3:0:0:
81,290,127239,6,0,L|91:371,2,82.3333295644126,12|8|8,3:2|3:3|3:3,0:0:0:0:
4,120,127523,5,4,3:1:0:0:
51,132,127618,1,8,3:3:0:0:
98,144,127713,1,8,3:3:0:0:
145,158,127807,1,8,3:2:0:0:
191,173,127902,1,8,3:3:0:0:
238,187,127997,1,8,3:3:0:0:
267,226,128092,5,10,3:2:0:0:
282,220,128187,1,8,3:3:0:0:
297,226,128281,1,8,3:3:0:0:
323,213,128376,1,10,3:2:0:0:
351,213,128471,1,8,3:3:0:0:
378,203,128566,1,8,3:3:0:0:
418,216,128661,5,10,3:2:0:0:
465,202,128755,1,8,3:3:0:0:
496,161,128850,1,8,3:3:0:0:
484,112,128945,1,8,3:2:0:0:
447,79,129040,1,8,3:3:0:0:
397,80,129135,1,8,3:3:0:0:
359,112,129229,5,10,3:2:0:0:
336,102,129324,1,8,3:3:0:0:
311,99,129419,1,8,3:3:0:0:
277,112,129514,1,10,3:2:0:0:
266,114,129608,1,8,3:3:0:0:
255,104,129703,1,8,3:3:0:0:
215,120,129798,6,0,L|134:102,2,82.3333295644126,10|8|8,3:2|3:3|3:3,0:0:0:0:
430,172,130082,2,0,L|510:189,2,82.3333295644126,10|8|8,3:2|3:3|3:3,0:0:0:0:
143,270,130367,6,0,P|109:250|100:211,1,82.3333295644126,10|8,3:2|3:3,0:0:0:0:
11,177,130556,1,8,3:3:0:0:
19,172,130651,2,0,P|28:132|62:112,1,82.3333295644126,10|8,3:2|3:3,0:0:0:0:
276,97,130841,5,8,3:3:0:0:
211,36,130935,2,0,L|128:17,2,82.3333295644126,4|8|8,3:1|3:3|3:3,0:0:0:0:
304,18,131220,2,0,L|283:108,2,82.3333295644126,12|8|8,3:2|3:3|3:3,0:0:0:0:
178,185,131504,6,0,L|99:209,2,82.3333295644126,8|8|8,3:2|3:3|3:3,0:0:0:0:
403,125,131789,2,0,L|481:100,2,82.3333295644126,12|8|8,3:2|3:3|3:3,0:0:0:0:
144,367,132073,5,4,3:1:0:0:
107,384,132168,1,8,3:3:0:0:
66,377,132262,1,8,3:3:0:0:
29,357,132357,1,8,3:2:0:0:
8,321,132452,1,8,3:3:0:0:
8,279,132547,1,8,3:3:0:0:
33,246,132642,5,10,3:2:0:0:
48,251,132736,1,8,3:3:0:0:
73,242,132831,1,8,3:3:0:0:
93,261,132926,1,10,3:2:0:0:
123,243,133021,1,8,3:3:0:0:
157,277,133116,1,8,3:3:0:0:
204,257,133210,5,10,3:2:0:0:
236,294,133305,1,8,3:3:0:0:
281,313,133400,1,8,3:3:0:0:
329,306,133495,1,8,3:2:0:0:
372,281,133589,1,8,3:3:0:0:
392,236,133684,1,8,3:3:0:0:
388,186,133779,5,10,3:2:0:0:
375,175,133874,1,8,3:3:0:0:
377,158,133969,1,8,3:3:0:0:
369,143,134063,1,10,3:2:0:0:
382,120,134158,1,8,3:3:0:0:
373,89,134253,1,8,3:3:0:0:
402,55,134348,5,10,3:2:0:0:
449,42,134443,1,8,3:3:0:0:
494,62,134537,1,8,3:3:0:0:
507,109,134632,1,8,3:2:0:0:
487,154,134727,1,8,3:3:0:0:
442,174,134822,1,8,3:3:0:0:
429,221,134917,5,10,3:2:0:0:
436,235,135011,1,8,3:3:0:0:
461,242,135106,1,8,3:3:0:0:
473,262,135201,1,10,3:2:0:0:
462,281,135296,1,8,3:3:0:0:
474,304,135390,1,8,3:3:0:0:
450,342,135485,6,0,L|369:325,2,82.3333295644126,4|8|8,3:1|3:3|3:3,0:0:0:0:
277,381,135770,2,0,L|196:364,2,82.3333295644126,12|8|8,3:2|3:3|3:3,0:0:0:0:
12,193,136054,5,8,3:2:0:0:
19,191,136101,1,8,3:3:0:0:
27,189,136149,1,8,3:3:0:0:
35,187,136196,1,8,3:3:0:0:
43,185,136244,1,8,3:3:0:0:
51,183,136291,1,8,3:3:0:0:
77,152,136338,6,0,L|63:233,2,82.3333295644126,12|8|8,3:2|3:3|3:3,0:0:0:0:
251,302,136623,5,4,3:1:0:0:
257,260,136717,1,8,3:3:0:0:
264,219,136812,1,8,3:3:0:0:
273,178,136907,1,8,3:2:0:0:
280,137,137002,1,8,3:3:0:0:
287,96,137097,1,8,3:3:0:0:
294,55,137191,5,10,3:2:0:0:
282,43,137286,1,8,3:3:0:0:
266,48,137381,1,8,3:3:0:0:
240,35,137476,1,10,3:2:0:0:
207,56,137571,1,8,3:3:0:0:
166,36,137665,1,8,3:3:0:0:
122,64,137760,5,10,3:2:0:0:
167,82,137855,1,8,3:3:0:0:
212,100,137950,1,8,3:3:0:0:
257,118,138044,1,8,3:2:0:0:
302,136,138139,1,8,3:3:0:0:
347,154,138234,1,8,3:3:0:0:
393,137,138329,5,10,3:2:0:0:
413,150,138424,1,8,3:3:0:0:
409,173,138518,1,8,3:3:0:0:
426,188,138613,1,10,3:2:0:0:
418,212,138708,1,8,3:3:0:0:
390,218,138803,1,8,3:3:0:0:
397,258,138898,6,0,L|477:276,2,82.3333295644126,10|8|8,3:2|3:3|3:3,0:0:0:0:
184,204,139182,2,0,L|103:185,2,82.3333295644126,10|8|8,3:2|3:3|3:3,0:0:0:0:
431,361,139466,6,0,L|512:347,1,82.3333295644126,10|8,3:2|3:3,0:0:0:0:
328,306,139656,1,8,3:3:0:0:
329,317,139751,2,0,P|295:338|286:377,1,82.3333295644126,10|8,3:2|3:3,0:0:0:0:
97,308,139940,5,8,3:3:0:0:
92,319,140035,2,0,L|10:329,2,82.3333295644126,4|8|8,3:1|3:3|3:3,0:0:0:0:
267,181,140319,2,0,L|248:263,2,82.3333295644126,12|8|8,3:2|3:3|3:3,0:0:0:0:
68,91,140604,2,0,L|86:8,2,82.3333295644126,8|8|8,3:2|3:3|3:3,0:0:0:0:
338,236,140888,2,0,L|462:265,1,123.499994346619,12|0,3:2|0:0,0:0:0:0:
18,2,141192,6,0,B|-23:37|-23:37|6:170,1,190,4|2,3:1|2:2,0:0:0:0:
0,169,142576,5,2,2:2:0:0:
0,169,143499,5,2,2:2:0:0:
0,169,144436,5,2,2:2:0:0:
132,333,144776,1,2,2:2:0:0:
130,340,144890,1,2,2:2:0:0:
0,353,145344,6,0,P|75:359|150:371,1,152,2|2,2:2|2:2,0:0:0:0:
510,289,146714,6,0,B|478:311|478:311|480:317|480:317|448:338|448:338|306:317|306:317|308:315|308:315|141:286,1,398.999987823487,2|2,2:2|2:2,0:0:0:0:
87,95,148436,5,2,2:2:0:0:
168,72,148549,2,0,L|155:137,1,66.4999979705811,2|0,2:2|0:0,0:0:0:0:
75,19,149003,5,2,2:2:0:0:
86,16,149108,1,2,2:2:0:0:
98,12,149214,1,2,2:2:0:0:
237,121,149484,5,2,2:2:0:0:
323,91,149713,1,2,2:2:0:0:
377,158,149942,5,2,2:2:0:0:
236,128,150171,1,2,2:2:0:0:
376,240,150400,6,0,L|440:224,1,66.4999979705811,2|0,2:2|0:0,0:0:0:0:
485,137,150880,1,2,2:2:0:0:
490,125,150982,1,2,2:2:0:0:
495,112,151084,1,2,2:2:0:0:
388,0,151338,5,2,2:2:0:0:
413,103,151568,1,2,2:2:0:0:
323,91,151799,5,2,2:2:0:0:
298,194,152030,1,2,2:2:0:0:
376,240,152261,6,0,L|384:306,1,66.4999979705811,2|0,2:2|0:0,0:0:0:0:
316,347,152722,1,2,2:2:0:0:
303,344,152822,1,2,2:2:0:0:
290,340,152922,1,2,2:2:0:0:
238,271,153180,5,2,2:2:0:0:
376,240,153409,1,2,2:2:0:0:
326,170,153638,5,2,2:2:0:0:
188,139,153867,1,2,2:2:0:0:
129,219,154096,6,0,L|63:231,1,66.4999979705811,2|0,2:2|0:0,0:0:0:0:
28,161,154572,1,2,2:2:0:0:
14,157,154676,1,2,2:2:0:0:
0,154,154781,1,2,2:2:0:0:
85,116,155022,5,2,2:2:0:0:
112,299,155249,1,2,2:2:0:0:
181,249,155476,5,2,2:2:0:0:
105,211,155703,1,2,2:2:0:0:
107,224,155817,1,0,0:0:0:0:
191,333,155931,6,0,P|257:343|322:356,1,132.999995941162,6|2,3:2|2:2,0:0:0:0:
389,329,156505,1,2,2:2:0:0:
389,329,156604,1,2,2:2:0:0:
268,276,156867,5,2,2:2:0:0:
473,232,157097,1,2,2:2:0:0:
343,135,157328,5,2,2:2:0:0:
394,341,157559,1,2,2:2:0:0:
455,86,157790,2,0,L|390:69,1,66.4999979705811,2|0,2:2|0:0,0:0:0:0:
288,87,158251,1,2,2:2:0:0:
271,81,158353,1,2,2:2:0:0:
255,76,158455,1,2,2:2:0:0:
175,165,158715,5,2,2:2:0:0:
138,0,158945,1,2,2:2:0:0:
255,76,159176,5,2,2:2:0:0:
218,241,159407,1,2,2:2:0:0:
95,279,159638,6,0,L|107:344,1,66.4999979705811,2|0,2:2|0:0,0:0:0:0:
191,346,160103,1,2,2:2:0:0:
195,362,160204,1,2,2:2:0:0:
200,381,160305,1,2,2:2:0:0:
31,322,160561,5,2,2:2:0:0:
276,367,160802,1,2,2:2:0:0:
334,314,161044,2,0,L|398:299,1,66.4999979705811,2|2,2:2|2:2,0:0:0:0:
468,109,161464,5,10,3:2:0:0:
418,371,161698,1,8,3:3:0:0:
425,367,161932,1,0,0:0:0:0:
379,41,162167,5,10,3:2:0:0:
418,371,162401,1,8,3:3:0:0:
475,225,162635,1,10,3:2:0:0:
477,305,162870,5,8,3:3:0:0:
454,298,162987,1,8,3:3:0:0:
431,291,163104,1,8,3:3:0:0:
261,46,163326,6,0,L|250:0,1,47.5,4|0,3:1|0:0,0:0:0:0:
177,38,163787,1,8,3:3:0:0:
255,54,163907,1,8,3:3:0:0:
333,70,164028,1,8,3:3:0:0:
93,240,164258,6,0,L|1:265,1,95,12|0,3:2|0:0,0:0:0:0:
166,167,164489,2,0,P|119:157|73:145,1,95,2|0,0:0|0:0,0:0:0:0:
298,217,164720,6,0,L|280:310,1,95,2|0,0:0|0:0,0:0:0:0:
199,359,164951,2,0,L|216:265,1,95,2|0,0:0|0:0,0:0:0:0:
435,303,165181,6,0,L|485:315,1,47.5,4|0,3:1|0:0,0:0:0:0:
446,384,165642,5,8,3:3:0:0:
427,308,165757,1,8,3:3:0:0:
403,232,165873,1,8,3:3:0:0:
512,19,166104,6,0,L|485:110,1,95,12|0,3:2|0:0,0:0:0:0:
397,62,166334,2,0,L|423:153,1,95,2|0,0:0|0:0,0:0:0:0:
266,121,166565,6,0,L|174:94,1,95,2|0,0:0|0:0,0:0:0:0:
176,174,166796,2,0,L|84:200,1,95,2|0,0:0|0:0,0:0:0:0:
281,313,167027,6,0,L|270:359,1,47.5,4|0,3:1|0:0,0:0:0:0:
198,318,167488,1,8,3:3:0:0:
275,306,167604,1,8,3:3:0:0:
352,294,167719,1,8,3:3:0:0:
98,384,167950,6,0,L|5:360,1,95,12|0,3:2|0:0,0:0:0:0:
37,293,168181,2,0,L|10:201,1,95,2|0,0:0|0:0,0:0:0:0:
275,306,168411,2,0,L|183:279,1,95,2|0,0:0|0:0,0:0:0:0:
88,117,168663,1,2,3:2:0:0:
75,114,168733,1,0,3:2:0:0:
62,111,168804,1,0,3:2:0:0:
42,76,168875,5,4,3:1:0:0:
408,21,169105,1,8,3:3:0:0:
223,128,169336,5,8,3:3:0:0:
219,109,169451,1,8,3:3:0:0:
215,90,169567,1,8,3:3:0:0:
211,71,169682,1,8,3:3:0:0:
255,17,169798,6,0,L|239:110,1,95,12|8,3:2|3:3,0:0:0:0:
291,170,170028,2,0,L|275:263,1,95,2|8,3:2|3:3,0:0:0:0:
81,303,170259,5,2,3:2:0:0:
99,228,170375,1,8,3:3:0:0:
165,191,170490,1,8,3:3:0:0:
238,213,170605,1,8,3:3:0:0:
373,265,170721,6,0,L|419:255,1,47.5,4|0,3:1|0:0,0:0:0:0:
450,194,171182,1,8,3:3:0:0:
431,266,171298,1,8,3:3:0:0:
409,337,171413,1,8,3:3:0:0:
203,211,171644,6,0,L|185:117,1,95,12|0,3:2|0:0,0:0:0:0:
359,81,171875,2,0,L|287:143,1,95,2|0,0:0|0:0,0:0:0:0:
122,62,172105,6,0,L|29:42,1,95,2|0,0:0|0:0,0:0:0:0:
213,208,172336,2,0,L|305:227,1,95,2|0,0:0|0:0,0:0:0:0:
512,25,172567,6,0,L|501:73,1,47.5,4|0,3:1|0:0,0:0:0:0:
362,45,173028,1,8,3:3:0:0:
434,31,173144,1,8,3:3:0:0:
506,19,173259,1,8,3:3:0:0:
384,200,173490,6,0,L|363:292,1,95,12|0,3:2|0:0,0:0:0:0:
446,278,173721,2,0,L|466:370,1,95,2|0,0:0|0:0,0:0:0:0:
275,240,173951,6,0,L|183:260,1,95,2|0,0:0|0:0,0:0:0:0:
512,153,174182,2,0,L|420:133,1,95,2|0,0:0|0:0,0:0:0:0:
135,195,174413,6,0,L|88:186,1,47.5,4|0,3:1|0:0,0:0:0:0:
19,245,174875,2,0,L|0:152,2,95,8|8|8,3:3|3:3|3:3,0:0:0:0:
94,270,175182,5,8,3:3:0:0:
90,281,175259,1,8,3:3:0:0:
86,293,175336,2,0,L|171:334,1,95,12|0,3:2|0:0,0:0:0:0:
209,266,175567,2,0,L|302:247,1,95,2|0,0:0|0:0,0:0:0:0:
451,287,175798,6,0,L|432:380,1,95,2|0,0:0|0:0,0:0:0:0:
153,149,176061,1,8,3:2:0:0:
157,125,176132,1,8,3:3:0:0:
162,101,176204,1,8,3:3:0:0:
166,79,176276,5,4,3:1:0:0:
485,25,176499,1,8,3:2:0:0:
223,172,176723,6,0,L|208:268,1,95,8|0,3:3|0:0,0:0:0:0:
215,272,176891,1,8,3:2:0:0:
222,278,176947,1,12,3:2:0:0:
358,199,177183,5,12,3:2:0:0:
47,275,177415,1,8,3:2:0:0:
374,347,177648,5,8,3:2:0:0:
392,347,177762,1,8,3:2:0:0:
409,354,177877,1,8,3:2:0:0:
419,370,177991,1,8,3:2:0:0:
461,358,178106,6,0,L|489:209,1,132.999995941162,4|0,3:1|0:0,0:0:0:0:
413,139,178493,1,0,3:2:0:0:
417,126,178589,1,0,3:2:0:0:
422,113,178686,1,0,3:2:0:0:
313,133,178880,5,2,3:2:0:0:
512,71,179073,1,0,3:2:0:0:
350,217,179267,5,2,3:2:0:0:
232,180,179460,1,0,3:2:0:0:
129,259,179654,6,0,L|0:292,1,132.999995941162,0|0,3:2|0:0,0:0:0:0:
10,197,180041,1,8,3:2:0:0:
24,200,180138,1,0,3:2:0:0:
38,202,180235,1,0,3:2:0:0:
67,358,180428,5,2,3:2:0:0:
91,136,180622,1,0,3:2:0:0:
26,88,180815,6,0,L|11:23,1,66.4999979705811,2|0,3:2|0:0,0:0:0:0:
99,131,181009,2,0,L|113:66,1,66.4999979705811,0|0,3:2|0:0,0:0:0:0:
259,284,181202,6,0,P|194:269|128:258,1,132.999995941162,8|0,3:2|0:0,0:0:0:0:
209,87,181589,1,0,3:2:0:0:
221,91,181686,1,0,3:2:0:0:
233,95,181783,2,0,B|252:132|252:132|340:154,1,132.999995941162,0|2,3:2|3:2,0:0:0:0:
455,16,182170,5,0,3:2:0:0:
386,291,182364,1,2,3:2:0:0:
342,79,182557,1,0,3:2:0:0:
512,306,182751,6,0,B|492:350|492:350|409:367,1,132.999995941162,0|0,3:2|3:2,0:0:0:0:
330,339,183041,1,0,3:2:0:0:
321,328,183138,2,0,L|256:313,2,66.4999979705811,8|0|0,3:2|3:2|3:2,0:0:0:0:
464,241,183525,5,2,3:2:0:0:
237,191,183718,2,0,L|172:176,2,66.4999979705811,0|0|2,3:2|3:2|3:2,0:0:0:0:
297,142,184106,1,0,3:2:0:0:
31,230,184299,6,0,L|0:100,1,132.999995941162,4|0,3:1|0:0,0:0:0:0:
235,89,184686,1,0,3:2:0:0:
222,94,184783,1,0,3:2:0:0:
214,105,184880,2,0,L|149:89,1,66.4999979705811,0|0,3:2|0:0,0:0:0:0:
329,58,185073,5,2,3:2:0:0:
71,3,185267,1,0,3:2:0:0:
283,145,185460,5,2,3:2:0:0:
412,117,185654,1,0,3:2:0:0:
504,199,185847,6,0,L|465:369,1,132.999995941162,2|0,3:2|0:0,0:0:0:0:
396,344,186138,1,0,3:0:0:0:
389,341,186235,2,0,B|373:362|373:362|333:368,2,66.4999979705811,10|0|0,3:2|3:2|3:2,0:0:0:0:
249,229,186622,5,2,3:2:0:0:
512,273,186815,1,0,3:2:0:0:
218,330,187009,2,0,L|141:315,2,66.4999979705811,2|0|0,3:2|0:0|3:2,0:0:0:0:
389,248,187396,6,0,L|411:116,1,132.999995941162,8|0,3:2|0:0,0:0:0:0:
342,34,187783,1,0,3:2:0:0:
346,21,187880,1,0,3:2:0:0:
351,8,187976,1,0,3:2:0:0:
488,154,188170,5,2,3:2:0:0:
220,98,188364,1,0,3:2:0:0:
125,164,188557,6,0,L|60:178,1,66.4999979705811,2|0,3:2|0:0,0:0:0:0:
67,98,188751,2,0,L|2:83,1,66.4999979705811,0|0,3:2|0:0,0:0:0:0:
236,14,188944,5,0,3:2:0:0:
201,223,189138,5,0,3:2:0:0:
189,241,189235,1,0,3:2:0:0:
177,260,189331,1,8,3:2:0:0:
165,279,189428,1,0,3:2:0:0:
172,299,189525,1,0,3:2:0:0:
181,320,189622,1,0,3:2:0:0:
190,343,189718,6,0,L|127:365,1,66.4999979705811,2|0,3:2|3:2,0:0:0:0:
319,305,189912,2,0,L|246:293,1,66.4999979705811,0|0,3:2|3:2,0:0:0:0:
26,269,190106,5,2,3:2:0:0:
23,256,190202,1,0,3:2:0:0:
20,242,190299,1,0,3:2:0:0:
16,229,190396,1,0,3:2:0:0:
48,200,190493,6,0,L|74:56,1,132.999995941162,4|0,3:1|0:0,0:0:0:0:
240,152,190880,1,0,3:2:0:0:
227,157,190976,1,0,3:2:0:0:
222,169,191073,2,0,L|157:154,1,66.4999979705811,0|0,3:2|0:0,0:0:0:0:
6,12,191267,5,2,3:2:0:0:
278,74,191460,1,0,3:2:0:0:
196,32,191654,5,2,3:2:0:0:
332,1,191847,1,0,3:2:0:0:
435,75,192041,6,0,L|412:206,1,132.999995941162,0|0,3:2|0:0,0:0:0:0:
344,149,192428,1,8,3:2:0:0:
341,135,192525,1,0,3:2:0:0:
338,121,192622,1,0,3:2:0:0:
501,167,192815,5,2,3:2:0:0:
223,247,193009,1,0,3:2:0:0:
204,240,193106,1,0,3:0:0:0:
185,232,193202,2,0,L|194:297,1,66.4999979705811,2|0,3:2|0:0,0:0:0:0:
268,310,193396,2,0,L|258:375,1,66.4999979705811,0|0,3:2|0:0,0:0:0:0:
0,203,193589,6,0,L|133:182,1,132.999995941162,8|0,3:2|0:0,0:0:0:0:
276,310,193976,2,0,L|266:375,1,66.4999979705811,0|0,3:2|3:2,0:0:0:0:
78,259,194170,6,0,L|57:124,1,132.999995941162,0|2,3:2|3:2,0:0:0:0:
182,27,194557,1,0,3:2:0:0:
134,318,194751,1,2,3:2:0:0:
96,65,194944,1,0,3:2:0:0:
229,328,195138,6,0,B|260:361|260:361|345:342,1,132.999995941162,0|0,3:2|3:2,0:0:0:0:
394,286,195428,1,0,3:2:0:0:
401,294,195525,2,0,L|465:310,2,66.4999979705811,8|0|0,3:2|3:2|3:2,0:0:0:0:
182,159,195912,5,2,3:2:0:0:
382,206,196106,2,0,L|446:222,2,66.4999979705811,0|0|2,3:2|3:2|3:2,0:0:0:0:
361,132,196493,1,0,3:2:0:0:
19,223,196686,6,0,B|-16:192|-16:192|4:108,1,132.999995941162,4|0,3:1|0:0,0:0:0:0:
145,163,197073,1,0,3:2:0:0:
154,172,197170,1,0,3:2:0:0:
163,181,197267,2,0,L|138:320,1,132.999995941162,0|2,3:2|3:2,0:0:0:0:
38,340,197654,5,0,3:2:0:0:
4,108,197847,1,2,3:2:0:0:
157,382,198041,1,0,3:2:0:0:
208,105,198235,6,0,L|76:125,1,132.999995941162,0|0,3:2|0:0,0:0:0:0:
82,255,198622,1,8,3:2:0:0:
79,266,198718,1,0,3:2:0:0:
76,279,198815,1,0,3:2:0:0:
157,382,199009,5,2,3:2:0:0:
191,174,199202,1,0,3:2:0:0:
133,91,199396,6,0,L|114:27,1,66.4999979705811,2|0,3:2|0:0,0:0:0:0:
207,63,199589,2,0,L|219:-2,1,66.4999979705811,0|0,3:2|0:0,0:0:0:0:
321,197,199783,6,0,L|190:173,1,132.999995941162,8|0,3:2|0:0,0:0:0:0:
388,146,200170,1,0,3:2:0:0:
93,286,200364,2,0,L|158:274,1,66.4999979705811,0|0,3:2|0:0,0:0:0:0:
447,328,200557,5,2,3:2:0:0:
247,219,200751,1,0,3:2:0:0:
291,373,200944,5,2,3:2:0:0:
400,173,201138,1,0,3:2:0:0:
357,275,201331,5,0,3:2:0:0:
351,278,201428,1,0,3:2:0:0:
350,284,201525,1,0,3:2:0:0:
352,289,201622,1,0,3:2:0:0:
357,292,201718,5,8,3:2:0:0:
395,282,201815,1,0,3:2:0:0:
423,253,201912,1,0,3:2:0:0:
431,213,202009,1,0,3:2:0:0:
411,178,202105,5,2,3:2:0:0:
342,152,202202,1,0,3:2:0:0:
325,80,202299,1,0,3:2:0:0:
366,19,202396,1,0,3:2:0:0:
439,19,202493,5,2,3:2:0:0:
445,30,202589,1,0,3:2:0:0:
449,42,202686,1,0,3:2:0:0:
451,55,202783,1,0,3:2:0:0:
445,67,202880,6,0,P|415:78|396:105,1,66.4999979705811,4|0,3:2|3:2,0:0:0:0:
320,93,203073,2,0,P|321:125|341:151,1,66.4999979705811,0|0,3:2|3:2,0:0:0:0:
496,210,203267,5,8,3:2:0:0:
493,203,203364,1,0,3:2:0:0:
487,199,203460,1,0,3:2:0:0:
481,196,203557,1,0,3:2:0:0:
474,194,203654,2,0,P|459:224|429:238,1,66.4999979705811,0|0,3:2|3:2,0:0:0:0:
390,303,203847,2,0,P|357:297|334:274,1,66.4999979705811,0|0,3:2|3:2,0:0:0:0:
267,260,204041,2,0,P|261:227|277:198,3,66.4999979705811,8|0|0|0,3:2|3:2|3:2|3:2,0:0:0:0:
512,384,204428,5,4,3:2:0:0:
465,355,204525,1,0,3:2:0:0:
413,340,204622,1,0,3:2:0:0:
361,334,204718,1,0,3:2:0:0:
306,333,204815,1,8,3:2:0:0:
296,341,204912,1,0,3:2:0:0:
282,344,205009,1,0,3:2:0:0:
269,342,205105,1,0,3:2:0:0:
257,335,205202,5,4,3:2:0:0:
279,265,205299,1,0,3:2:0:0:
261,193,205396,1,0,3:2:0:0:
200,151,205493,1,0,3:2:0:0:
127,154,205589,1,8,3:2:0:0:
73,203,205686,1,0,3:2:0:0:
69,276,205783,1,0,3:2:0:0:
105,339,205880,1,0,3:2:0:0:
173,362,205976,5,4,3:2:0:0:
176,356,206073,1,0,3:2:0:0:
176,349,206170,1,0,3:2:0:0:
174,342,206267,1,0,3:2:0:0:
170,336,206364,1,8,3:2:0:0:
166,330,206460,1,0,3:2:0:0:
160,325,206557,1,0,3:2:0:0:
153,322,206654,1,0,3:2:0:0:
146,320,206751,6,0,L|135:254,5,66.4999979705811,0|0|0|0|8|0,3:2|3:2|3:2|3:2|3:2|3:2,0:0:0:0:
187,202,207331,2,0,L|177:136,1,66.4999979705811,0|0,3:2|3:2,0:0:0:0:
6,6,207525,6,0,P|27:30|59:38,1,66.4999979705811,4|0,3:2|3:2,0:0:0:0:
83,107,207718,2,0,P|113:93|130:65,1,66.4999979705811,0|0,3:2|3:2,0:0:0:0:
244,11,207912,5,8,3:2:0:0:
245,24,208009,1,0,3:2:0:0:
246,37,208105,1,0,3:2:0:0:
247,50,208202,1,0,3:2:0:0:
247,62,208299,6,0,P|278:73|299:99,1,66.4999979705811,4|0,3:2|3:2,0:0:0:0:
373,117,208493,2,0,P|372:149|354:177,1,66.4999979705811,0|0,3:2|3:2,0:0:0:0:
187,202,208686,2,0,P|154:196|115:191,3,66.4999979705811,8|0|0|0,3:2|3:2|3:2|3:2,0:0:0:0:
0,350,209073,5,4,3:2:0:0:
45,341,209170,1,0,3:2:0:0:
90,333,209267,1,0,3:2:0:0:
135,325,209364,1,0,3:2:0:0:
180,318,209460,1,8,3:2:0:0:
190,309,209557,1,0,3:2:0:0:
200,300,209654,1,0,3:2:0:0:
210,291,209751,1,0,3:2:0:0:
220,247,209847,5,0,3:2:0:0:
267,261,209944,1,0,3:2:0:0:
315,273,210041,1,0,3:2:0:0:
363,287,210138,1,0,3:2:0:0:
404,259,210235,5,8,3:2:0:0:
395,210,210331,1,0,3:2:0:0:
387,160,210428,1,0,3:2:0:0:
379,112,210525,1,0,3:2:0:0:
418,86,210622,5,4,3:2:0:0:
420,79,210718,1,0,3:2:0:0:
422,72,210815,1,0,3:2:0:0:
424,65,210912,1,0,3:2:0:0:
426,58,211009,1,8,3:2:0:0:
428,51,211105,1,0,3:2:0:0:
430,44,211202,1,0,3:2:0:0:
432,37,211299,1,0,3:2:0:0:
398,18,211396,6,0,L|325:29,7,66.4999979705811,4|0|0|0|8|0|0|0,3:2|3:2|3:2|3:2|3:2|3:2|3:2|3:2,0:0:0:0:
181,198,212170,5,4,3:2:0:0:
110,179,212267,1,0,3:2:0:0:
73,116,212364,1,0,3:2:0:0:
91,45,212460,1,0,3:2:0:0:
154,8,212557,1,8,3:2:0:0:
225,27,212654,1,0,3:2:0:0:
262,90,212751,1,0,3:2:0:0:
244,160,212847,1,0,3:2:0:0:
170,126,212944,5,0,3:2:0:0:
152,122,213041,1,0,3:2:0:0:
143,106,213138,1,0,3:2:0:0:
148,88,213235,1,0,3:2:0:0:
164,78,213331,1,8,3:2:0:0:
182,83,213428,1,0,3:2:0:0:
191,99,213525,1,0,3:2:0:0:
186,117,213622,1,0,3:2:0:0:
167,104,213718,5,4,3:2:0:0:
177,156,213815,1,0,3:2:0:0:
185,208,213912,1,0,3:2:0:0:
192,260,214009,1,0,3:2:0:0:
227,288,214105,5,8,3:2:0:0:
223,305,214202,1,0,3:2:0:0:
220,323,214299,1,0,3:2:0:0:
218,341,214396,1,0,3:2:0:0:
266,354,214493,5,4,3:2:0:0:
336,336,214589,1,0,3:2:0:0:
407,318,214686,1,0,3:2:0:0:
478,300,214783,1,0,3:2:0:0:
447,233,214880,6,0,L|461:168,1,66.4999979705811,8|8,3:2|3:2,0:0:0:0:
312,165,215073,2,0,L|376:179,1,66.4999979705811,8|8,3:2|3:2,0:0:0:0:
512,8,215267,6,0,L|432:19,1,80.750001540184,4|0,3:2|0:0,0:0:0:0:
338,86,215460,2,0,L|258:97,1,80.750001540184,2|0,0:0|0:0,0:0:0:0:
0,52,215654,6,0,P|25:18|69:10,1,80.750001540184,8|0,3:2|0:0,0:0:0:0:
74,85,215847,2,0,P|114:98|134:138,1,80.750001540184,2|0,0:0|0:0,0:0:0:0:
161,324,216041,5,0,3:2:0:0:
168,323,216235,1,0,3:2:0:0:
199,48,216428,5,10,3:2:0:0:
192,47,216622,1,0,3:2:0:0:
21,384,216815,6,0,P|180:356|340:336,1,323.000006160736,8|8,3:2|3:2,0:0:0:0:
352,325,217299,1,0,3:0:0:0:
367,321,217396,1,2,3:2:0:0:
323,179,217589,6,0,P|285:191|263:224,1,80.750001540184,0|0,3:2|0:0,0:0:0:0:
480,324,217783,1,0,3:2:0:0:
466,294,217880,1,0,3:2:0:0:
435,285,217976,2,0,P|411:253|372:242,1,80.750001540184,10|0,3:2|0:0,0:0:0:0:
200,156,218170,2,0,L|187:76,1,80.750001540184,0|0,3:2|0:0,0:0:0:0:
512,11,218364,6,0,B|493:160|493:160|496:164|496:164|473:330,1,323.000006160736,4|8,3:2|3:2,0:0:0:0:
418,384,218847,1,0,0:0:0:0:
413,368,218944,1,2,0:0:0:0:
312,271,219138,5,0,3:2:0:0:
272,261,219235,1,0,3:2:0:0:
235,279,219331,1,0,3:2:0:0:
197,245,219428,1,0,3:2:0:0:
147,262,219525,1,10,3:2:0:0:
104,226,219622,1,0,3:2:0:0:
118,176,219718,1,0,3:2:0:0:
169,166,219815,1,0,3:2:0:0:
216,147,219912,5,8,3:2:0:0:
236,98,220009,1,0,3:2:0:0:
222,49,220105,1,2,3:2:0:0:
177,28,220202,1,0,3:2:0:0:
127,43,220299,2,0,P|97:68|57:74,1,80.750001540184,8|0,3:2|0:0,0:0:0:0:
41,180,220493,2,0,P|78:194|103:225,1,80.750001540184,2|0,3:2|0:0,0:0:0:0:
307,154,220686,6,0,P|387:166|471:181,1,161.500003080368,0|0,3:2|3:2,0:0:0:0:
511,117,220976,1,0,3:2:0:0:
500,114,221073,1,10,3:2:0:0:
229,75,221267,1,0,3:2:0:0:
387,347,221460,6,0,B|412:373|412:373|469:359|469:359|495:297|495:297|425:280|425:280|423:282|423:282|337:262,1,323.000006160736,4|8,3:2|3:2,0:0:0:0:
263,332,222041,2,0,B|184:346|184:346|183:350|183:350|106:363,1,161.500003080368,2|0,0:0|3:2,0:0:0:0:
0,162,222428,5,0,3:2:0:0:
7,169,222525,1,0,3:2:0:0:
14,166,222622,1,10,3:2:0:0:
21,175,222718,1,0,3:2:0:0:
28,170,222815,1,0,3:2:0:0:
35,178,222912,1,0,3:2:0:0:
52,168,223009,5,8,3:2:0:0:
91,167,223105,1,0,3:2:0:0:
114,201,223202,1,2,3:2:0:0:
161,192,223299,1,0,3:2:0:0:
221,244,223396,5,8,3:2:0:0:
255,227,223493,1,0,3:2:0:0:
291,248,223589,1,2,3:2:0:0:
328,242,223686,1,0,3:2:0:0:
398,205,223783,5,0,3:2:0:0:
410,196,223880,1,0,3:2:0:0:
410,178,223976,1,0,3:2:0:0:
395,191,224073,1,0,3:2:0:0:
395,280,224170,5,10,3:2:0:0:
383,289,224267,1,0,3:2:0:0:
383,307,224364,1,0,3:2:0:0:
398,294,224460,1,0,3:2:0:0:
474,258,224557,5,4,3:2:0:0:
481,260,224654,1,0,3:2:0:0:
488,262,224751,1,2,3:2:0:0:
495,264,224847,1,0,3:2:0:0:
511,243,224944,6,0,L|457:248,5,53.8333343601227,8|0|0|2|0|0,3:2|0:0|0:0|0:0|0:0|0:0,0:0:0:0:
389,207,225331,6,0,L|312:181,1,80.750001540184,0|0,3:2|0:0,0:0:0:0:
298,256,225525,2,0,L|221:281,1,80.750001540184,0|0,3:2|0:0,0:0:0:0:
167,183,225718,6,0,L|90:157,1,80.750001540184,10|0,3:2|0:0,0:0:0:0:
76,232,225912,2,0,L|0:257,1,80.750001540184,0|0,3:2|0:0,0:0:0:0:
7,55,226105,5,8,3:2:0:0:
26,19,226202,1,0,3:2:0:0:
62,0,226299,1,2,3:2:0:0:
102,2,226396,1,0,3:2:0:0:
142,72,226493,5,8,3:2:0:0:
180,57,226589,1,0,3:2:0:0:
219,67,226686,1,2,3:2:0:0:
248,96,226783,1,0,3:2:0:0:
316,157,226880,5,0,3:2:0:0:
383,130,226976,1,0,3:2:0:0:
455,125,227073,1,0,3:2:0:0:
496,65,227170,1,0,3:2:0:0:
417,0,227267,5,10,3:2:0:0:
402,71,227364,1,0,3:2:0:0:
388,141,227460,1,0,3:2:0:0:
368,211,227557,1,0,3:2:0:0:
429,285,227654,6,0,L|440:334,2,50.6666666666667,4|0|0,3:2|0:0|0:0,0:0:0:0:
388,141,228041,2,0,L|376:91,2,50.6666666666667,8|0|0,3:2|0:0|0:0,0:0:0:0:
348,374,228428,5,0,3:2:0:0:
325,369,228525,1,0,3:2:0:0:
302,364,228622,1,0,3:2:0:0:
283,359,228718,1,0,3:2:0:0:
237,304,228815,5,10,3:2:0:0:
214,309,228912,1,0,3:2:0:0:
191,314,229009,1,0,3:2:0:0:
172,319,229105,1,0,3:2:0:0:
113,265,229202,5,8,3:2:0:0:
92,224,229299,1,0,3:2:0:0:
73,182,229396,1,2,3:2:0:0:
54,139,229493,1,0,3:2:0:0:
121,101,229589,5,8,3:2:0:0:
170,107,229686,1,0,3:2:0:0:
221,120,229783,1,2,3:2:0:0:
274,131,229880,1,0,3:2:0:0:
324,195,229976,5,0,3:2:0:0:
331,193,230073,1,0,3:2:0:0:
338,191,230170,1,0,3:2:0:0:
345,189,230267,1,0,3:2:0:0:
408,138,230364,5,10,3:2:0:0:
415,140,230460,1,0,3:2:0:0:
422,142,230557,1,0,3:2:0:0:
429,144,230654,1,0,3:2:0:0:
481,216,230751,6,0,B|497:192|497:192|498:187|498:187|515:168|515:168|510:126|510:126|408:100|408:100|403:100|403:100|294:72,1,323.000006160736,4|8,3:2|3:2,0:0:0:0:
453,30,231331,1,2,0:0:0:0:
249,197,231525,2,0,B|171:214|171:214|169:217|169:217|92:234,1,161.500003080368,0|0,3:2|3:2,0:0:0:0:
0,41,231912,5,10,3:2:0:0:
1,33,232009,1,0,3:2:0:0:
6,27,232105,1,0,3:2:0:0:
13,23,232202,1,0,3:2:0:0:
20,22,232299,5,8,3:2:0:0:
36,67,232396,1,0,3:2:0:0:
52,112,232493,1,2,3:2:0:0:
69,156,232589,1,0,3:2:0:0:
114,173,232686,6,0,L|101:252,1,80.750001540184,8|0,3:2|0:0,0:0:0:0:
181,106,232880,2,0,L|202:183,1,80.750001540184,2|0,0:0|0:0,0:0:0:0:
15,236,233073,5,0,3:2:0:0:
307,282,233267,1,0,3:2:0:0:
314,284,233364,1,0,3:2:0:0:
321,286,233460,1,10,3:2:0:0:
387,241,233654,1,0,3:2:0:0:
193,369,233847,6,0,B|106:358|106:358|104:360|104:360|5:347|5:347|49:299|49:299|84:293|84:293|81:292|81:292|115:287,1,323.000006160736,4|8,3:2|3:2,0:0:0:0:
15,236,234428,1,2,0:0:0:0:
238,278,234622,2,0,L|316:292,1,80.750001540184,0|0,3:2|0:0,0:0:0:0:
297,368,234815,2,0,L|375:353,1,80.750001540184,0|0,3:2|0:0,0:0:0:0:
499,239,235009,5,10,3:2:0:0:
500,231,235105,1,0,3:2:0:0:
501,223,235202,1,0,3:2:0:0:
502,215,235299,1,0,3:2:0:0:
503,207,235396,5,8,3:2:0:0:
461,233,235493,1,0,3:2:0:0:
478,277,235589,2,0,L|490:200,1,52.2500015945435,2|0,0:0|3:2,0:0:0:0:
301,109,235783,5,8,3:2:0:0:
344,132,235880,1,0,3:2:0:0:
374,95,235976,1,2,3:2:0:0:
310,324,236170,5,0,3:2:0:0:
308,275,236267,1,0,3:2:0:0:
261,267,236364,2,0,B|254:286|254:286|221:301,1,52.2500015945435,0|0,3:2|3:2,0:0:0:0:
123,204,236557,5,10,3:2:0:0:
97,198,236654,1,0,3:2:0:0:
71,192,236751,1,0,3:2:0:0:
45,186,236847,1,0,3:2:0:0:
27,137,236944,6,0,B|192:121|192:121|195:123|195:123|348:107,1,323.000006160736,4|8,3:2|3:2,0:0:0:0:
405,56,237428,1,0,3:2:0:0:
414,57,237525,1,2,3:2:0:0:
442,241,237718,5,0,3:2:0:0:
506,0,237912,1,0,3:2:0:0:
412,348,238105,5,10,3:2:0:0:
348,107,238299,1,0,3:2:0:0:
298,365,238493,5,8,3:2:0:0:
261,349,238589,1,0,3:2:0:0:
222,335,238686,1,2,3:2:0:0:
184,319,238783,1,0,3:2:0:0:
163,276,238880,5,8,3:2:0:0:
233,261,238976,1,0,3:2:0:0:
304,249,239073,1,2,3:2:0:0:
375,236,239170,1,0,3:2:0:0:
446,222,239267,1,8,3:2:0:0:
449,214,239364,1,0,3:2:0:0:
453,207,239460,1,0,3:2:0:0:
457,199,239557,1,0,3:2:0:0:
435,153,239654,5,10,3:2:0:0:
357,130,239751,1,0,3:2:0:0:
280,106,239847,1,0,3:2:0:0:
201,85,239944,1,0,3:2:0:0:
136,133,240041,6,0,L|56:144,1,80.750001540184,4|0,3:2|3:2,0:0:0:0:
276,194,240235,2,0,L|194:172,1,80.750001540184,0|0,3:2|3:2,0:0:0:0:
46,44,240428,1,8,3:2:0:0:
42,36,240525,1,0,3:2:0:0:
38,28,240622,1,0,3:2:0:0:
34,20,240718,1,0,3:2:0:0:
39,13,240815,6,0,L|119:32,1,80.750001540184,0|0,3:2|3:2,0:0:0:0:
122,103,241009,2,0,L|202:84,1,80.750001540184,0|0,3:2|3:2,0:0:0:0:
306,0,241202,2,0,L|291:79,3,80.750001540184,8|0|0|0,3:2|3:2|3:2|3:2,0:0:0:0:
487,117,241589,5,4,3:2:0:0:
478,156,241686,1,0,3:2:0:0:
469,195,241783,1,0,3:2:0:0:
460,234,241880,1,0,3:2:0:0:
449,272,241976,1,8,3:2:0:0:
461,282,242073,1,0,3:2:0:0:
469,295,242170,1,0,3:2:0:0:
473,310,242267,1,0,3:2:0:0:
472,326,242364,5,4,3:2:0:0:
421,376,242460,1,0,3:2:0:0:
349,361,242557,1,0,3:2:0:0:
318,295,242654,1,0,3:2:0:0:
344,227,242751,1,8,3:2:0:0:
412,206,242847,1,0,3:2:0:0:
476,171,242944,1,0,3:2:0:0:
483,98,243041,1,0,3:2:0:0:
433,44,243138,5,4,3:2:0:0:
408,47,243235,1,0,3:2:0:0:
389,62,243331,1,0,3:2:0:0:
381,85,243428,1,0,3:2:0:0:
384,108,243525,1,8,3:2:0:0:
399,126,243622,1,0,3:2:0:0:
420,137,243718,1,0,3:2:0:0:
444,136,243815,1,0,3:2:0:0:
466,125,243912,6,0,L|455:205,5,80.750001540184,0|0|0|0|8|0,3:2|3:2|3:2|3:2|3:2|3:2,0:0:0:0:
512,253,244493,2,0,L|501:333,1,80.750001540184,0|0,3:2|3:2,0:0:0:0:
187,256,244686,6,0,P|203:220|238:201,1,80.750001540184,4|0,3:2|3:2,0:0:0:0:
232,129,244880,2,0,P|271:133|299:161,1,80.750001540184,0|0,3:2|3:2,0:0:0:0:
423,352,245073,5,8,3:2:0:0:
421,359,245170,1,0,3:2:0:0:
417,366,245267,1,0,3:2:0:0:
411,372,245364,1,0,3:2:0:0:
402,374,245460,2,0,P|382:339|345:327,1,80.750001540184,4|0,3:2|3:2,0:0:0:0:
338,258,245654,2,0,P|299:265|276:297,1,80.750001540184,0|0,3:2|3:2,0:0:0:0:
166,373,245847,2,0,P|127:366|87:361,3,80.750001540184,8|0|0|0,3:2|3:2|3:2|3:2,0:0:0:0:
5,207,246235,5,4,3:2:0:0:
52,197,246331,1,0,3:2:0:0:
99,188,246428,1,0,3:2:0:0:
146,179,246525,1,0,3:2:0:0:
193,171,246622,1,8,3:2:0:0:
200,156,246718,1,0,3:2:0:0:
207,141,246815,1,0,3:2:0:0:
214,126,246912,1,0,3:2:0:0:
201,83,247009,5,0,3:2:0:0:
255,97,247105,1,0,3:2:0:0:
309,112,247202,1,0,3:2:0:0:
363,127,247299,1,0,3:2:0:0:
407,111,247396,5,8,3:2:0:0:
428,162,247493,1,0,3:2:0:0:
448,214,247589,1,0,3:2:0:0:
469,266,247686,1,0,3:2:0:0:
439,306,247783,5,4,3:2:0:0:
431,303,247880,1,0,3:2:0:0:
423,300,247976,1,0,3:2:0:0:
415,298,248073,1,0,3:2:0:0:
407,295,248170,1,8,3:2:0:0:
399,292,248267,1,0,3:2:0:0:
391,289,248364,1,0,3:2:0:0:
383,286,248460,1,0,3:2:0:0:
352,300,248557,6,0,L|271:310,7,80.750001540184,4|0|0|0|8|0|0|0,3:2|3:2|3:2|3:2|3:2|3:2|3:2|3:2,0:0:0:0:
85,80,249331,5,4,3:2:0:0:
57,155,249428,1,0,3:2:0:0:
30,231,249525,1,0,3:2:0:0:
80,292,249622,5,0,3:2:0:0:
158,278,249718,1,8,3:2:0:0:
238,264,249815,1,0,3:2:0:0:
267,191,249912,5,0,3:2:0:0:
216,129,250009,1,0,3:2:0:0:
163,67,250105,5,0,3:2:0:0:
149,104,250202,1,0,3:2:0:0:
135,142,250299,1,0,3:2:0:0:
160,172,250396,5,0,3:2:0:0:
199,165,250493,1,8,3:2:0:0:
239,159,250589,1,0,3:2:0:0:
254,122,250686,5,0,3:2:0:0:
228,91,250783,1,0,3:2:0:0:
192,123,250880,5,4,3:2:0:0:
237,138,250976,1,0,3:2:0:0:
282,154,251073,1,0,3:2:0:0:
327,169,251170,1,0,3:2:0:0:
348,207,251267,5,8,3:2:0:0:
363,202,251364,1,0,3:2:0:0:
378,197,251460,1,0,3:2:0:0:
393,193,251557,1,0,3:2:0:0:
427,151,251654,5,4,3:2:0:0:
382,93,251751,1,0,3:2:0:0:
425,35,251847,1,0,3:2:0:0:
495,54,251944,1,0,3:2:0:0:
467,71,252041,5,8,3:2:0:0:
432,61,252138,1,8,3:2:0:0:
410,90,252235,1,8,3:2:0:0:
432,119,252331,1,8,3:2:0:0:
469,113,252428,6,0,B|461:153|461:153|377:191,1,132.999995941162,6|0,2:2|0:0,0:0:0:0:
256,6,252712,1,2,2:2:0:0:
256,6,252996,1,2,2:2:0:0:
256,6,253281,1,2,2:2:0:0:
256,6,253565,1,2,2:2:0:0:
256,6,253849,1,2,2:2:0:0:
256,6,254134,1,2,2:2:0:0:
256,6,254418,1,2,2:2:0:0:
256,6,254702,1,2,2:2:0:0:
256,6,254987,1,2,2:2:0:0:
256,6,255271,1,2,2:2:0:0:
256,6,255555,1,2,2:2:0:0:
219,367,255840,5,4,3:1:0:0:
261,23,256124,1,12,3:2:0:0:
71,167,256409,5,12,3:2:0:0:
57,164,256480,1,8,3:2:0:0:
43,162,256551,1,8,3:2:0:0:
415,209,256693,1,12,3:2:0:0:
507,292,256977,5,4,3:1:0:0:
463,281,257072,1,8,3:3:0:0:
419,271,257167,1,8,3:3:0:0:
376,258,257262,1,8,3:2:0:0:
333,245,257356,1,8,3:3:0:0:
290,233,257451,1,8,3:3:0:0:
243,251,257546,5,10,3:2:0:0:
227,242,257641,1,8,3:3:0:0:
210,247,257736,1,8,3:3:0:0:
170,233,257830,1,10,3:2:0:0:
158,247,257925,1,8,3:3:0:0:
140,248,258020,1,8,3:3:0:0:
99,229,258115,5,10,3:2:0:0:
69,196,258209,1,8,3:3:0:0:
69,151,258304,1,8,3:3:0:0:
90,112,258399,1,8,3:2:0:0:
129,92,258494,1,8,3:3:0:0:
173,93,258589,1,8,3:3:0:0:
205,122,258683,5,10,3:2:0:0:
220,130,258778,1,8,3:3:0:0:
237,128,258873,1,8,3:3:0:0:
253,135,258968,1,10,3:2:0:0:
268,127,259063,1,8,3:3:0:0:
300,143,259157,1,8,3:3:0:0:
339,122,259252,6,0,L|426:109,2,88.6666639607748,10|8|8,3:2|3:3|3:3,0:0:0:0:
88,150,259537,2,0,L|0:162,2,88.6666639607748,10|8|8,3:2|3:3|3:3,0:0:0:0:
477,277,259821,6,0,L|457:363,1,88.6666639607748,10|8,3:2|3:3,0:0:0:0:
405,185,260010,1,8,3:3:0:0:
414,193,260105,2,0,L|394:279,1,88.6666639607748,10|8,3:2|3:3,0:0:0:0:
223,359,260295,5,8,3:3:0:0:
234,355,260390,2,0,P|194:337|182:296,2,88.6666639607748,4|8|8,3:1|3:3|3:3,0:0:0:0:
102,303,260674,2,0,P|106:260|141:236,2,88.6666639607748,12|8|8,3:2|3:3|3:3,0:0:0:0:
312,0,260958,6,0,L|297:88,2,88.6666639607748,8|8|8,3:2|3:3|3:3,0:0:0:0:
259,285,261243,2,0,L|275:198,2,88.6666639607748,12|8|8,3:2|3:3|3:3,0:0:0:0:
110,0,261527,5,4,3:1:0:0:
56,5,261622,1,8,3:3:0:0:
15,38,261717,1,8,3:3:0:0:
2,89,261811,1,8,3:2:0:0:
17,140,261906,1,8,3:3:0:0:
60,170,262001,1,8,3:3:0:0:
113,177,262096,5,10,3:2:0:0:
129,169,262191,1,8,3:3:0:0:
156,182,262285,1,8,3:3:0:0:
183,166,262380,1,10,3:2:0:0:
211,195,262475,1,8,3:3:0:0:
248,173,262570,1,8,3:3:0:0:
275,211,262664,5,10,3:2:0:0:
323,187,262759,1,8,3:3:0:0:
375,194,262854,1,8,3:3:0:0:
416,227,262949,1,8,3:2:0:0:
433,277,263044,1,8,3:3:0:0:
419,328,263138,1,8,3:3:0:0:
380,365,263233,5,10,3:2:0:0:
370,350,263328,1,8,3:3:0:0:
381,328,263423,1,8,3:3:0:0:
361,304,263518,1,10,3:2:0:0:
387,283,263612,1,8,3:3:0:0:
357,253,263707,1,8,3:3:0:0:
378,217,263802,5,10,3:2:0:0:
431,212,263897,1,8,3:3:0:0:
473,181,263991,1,8,3:3:0:0:
492,131,264086,1,8,3:2:0:0:
475,80,264181,1,8,3:3:0:0:
434,44,264276,1,8,3:3:0:0:
380,39,264371,5,10,3:2:0:0:
366,57,264465,1,8,3:3:0:0:
347,45,264560,1,8,3:3:0:0:
325,69,264655,1,10,3:2:0:0:
281,56,264750,1,8,3:3:0:0:
249,91,264845,1,8,3:3:0:0:
184,59,264939,6,0,L|96:43,2,88.6666639607748,4|8|8,3:1|3:3|3:3,0:0:0:0:
431,212,265224,2,0,L|343:196,2,88.6666639607748,12|8|8,3:2|3:3|3:3,0:0:0:0:
114,300,265508,5,8,3:2:0:0:
104,297,265555,1,8,3:3:0:0:
94,294,265603,1,8,3:3:0:0:
85,292,265650,1,8,3:3:0:0:
75,289,265698,1,8,3:3:0:0:
66,287,265745,1,8,3:3:0:0:
28,248,265792,6,0,L|45:334,2,88.6666639607748,12|8|8,3:2|3:3|3:3,0:0:0:0:
249,91,266077,5,4,3:1:0:0:
240,133,266172,1,8,3:3:0:0:
232,175,266266,1,8,3:3:0:0:
224,218,266361,1,8,3:2:0:0:
217,260,266456,1,8,3:3:0:0:
207,302,266551,1,8,3:3:0:0:
198,346,266646,5,10,3:2:0:0:
220,360,266740,1,8,3:3:0:0:
254,343,266835,1,8,3:3:0:0:
282,373,266930,1,10,3:2:0:0:
300,365,267025,1,8,3:3:0:0:
324,373,267119,1,8,3:3:0:0:
355,349,267214,5,10,3:2:0:0:
323,306,267309,1,8,3:3:0:0:
321,252,267404,1,8,3:3:0:0:
350,207,267499,1,8,3:2:0:0:
399,190,267593,1,8,3:3:0:0:
451,201,267688,1,8,3:3:0:0:
485,241,267783,5,10,3:2:0:0:
473,254,267878,1,8,3:3:0:0:
455,256,267973,1,8,3:3:0:0:
433,275,268067,1,10,3:2:0:0:
418,265,268162,1,8,3:3:0:0:
400,267,268257,1,8,3:3:0:0:
350,207,268352,6,0,L|263:187,2,88.6666639607748,10|8|8,3:2|3:3|3:3,0:0:0:0:
334,113,268636,2,0,P|342:69|353:26,2,88.6666639607748,10|8|8,3:2|3:3|3:3,0:0:0:0:
164,320,268920,6,0,P|124:302|104:263,1,88.6666639607748,10|8,3:2|3:3,0:0:0:0:
19,272,269110,1,8,3:3:0:0:
26,267,269205,2,0,P|30:223|61:193,1,88.6666639607748,10|8,3:2|3:3,0:0:0:0:
241,259,269394,5,8,3:3:0:0:
244,268,269489,2,0,P|287:277|330:287,2,88.6666639607748,4|8|8,3:1|3:3|3:3,0:0:0:0:
124,133,269773,2,0,P|80:123|37:113,2,88.6666639607748,12|8|8,3:2|3:3|3:3,0:0:0:0:
424,263,270058,6,0,L|404:353,2,88.6666639607748,8|8|8,3:2|3:3|3:3,0:0:0:0:
24,129,270342,2,0,L|58:-27,1,132.999995941162,12|0,3:2|0:0,0:0:0:0:
306,178,270627,6,0,P|294:236|243:267,1,123.499994346619,4|0,3:1|3:2,0:0:0:0:
237,126,271018,1,0,3:2:0:0:
192,333,271148,2,0,P|133:339|87:300,1,123.499994346619,10|0,3:2|0:0,0:0:0:0:
56,62,271670,5,0,3:2:0:0:
53,74,271931,5,0,3:2:0:0:
218,219,272061,1,0,3:2:0:0:
261,4,272192,1,10,3:2:0:0:
256,13,272453,6,0,L|195:1,1,61.7499971733095,0|0,3:2|0:0,0:0:0:0:
362,1,272713,6,0,P|350:66|341:122,1,123.499994346619,4|0,3:2|3:2,0:0:0:0:
429,79,273105,1,0,3:2:0:0:
227,224,273235,2,0,P|217:285|206:345,1,123.499994346619,10|0,3:2|0:0,0:0:0:0:
503,350,273757,6,0,L|382:324,1,123.499994346619,0|0,3:2|3:2,0:0:0:0:
478,256,274148,1,0,3:2:0:0:
318,369,274279,6,0,L|304:308,1,61.7499971733095,10|0,3:2|0:0,0:0:0:0:
353,258,274540,2,0,L|340:197,1,61.7499971733095,0|0,3:2|0:0,0:0:0:0:
246,30,274800,5,4,3:2:0:0:
255,34,275061,5,0,3:2:0:0:
225,186,275192,1,0,3:2:0:0:
195,338,275322,2,0,B|106:354|106:354|105:358|105:358|14:374,1,185.249991519928,10|0,3:2|0:0,0:0:0:0:
0,270,275844,2,0,L|59:285,1,61.7499971733095,0|0,3:2|0:0,0:0:0:0:
142,200,276105,5,0,3:2:0:0:
202,349,276235,1,0,3:2:0:0:
301,222,276366,1,10,3:2:0:0:
294,230,276627,6,0,L|281:169,1,61.7499971733095,0|0,3:2|0:0,0:0:0:0:
202,349,276887,2,0,P|262:335|322:323,1,123.499994346619,4|0,3:2|3:2,0:0:0:0:
218,211,277279,1,0,3:2:0:0:
397,377,277409,6,0,P|402:315|410:254,1,123.499994346619,10|0,3:2|3:2,0:0:0:0:
338,146,277950,5,8,3:2:0:0:
336,136,278020,1,8,3:2:0:0:
334,128,278090,1,8,3:2:0:0:
333,120,278160,1,8,3:2:0:0:
331,112,278230,1,8,3:2:0:0:
366,48,278354,5,8,3:2:0:0:
266,74,278478,1,8,3:2:0:0:
357,227,278602,1,8,3:2:0:0:
433,2,278726,1,8,3:2:0:0:
156,48,278850,1,8,3:2:0:0:
445,178,278974,6,0,P|432:238|422:299,1,123.499994346619,4|0,3:1|3:2,0:0:0:0:
411,95,279365,1,0,3:2:0:0:
349,298,279495,2,0,P|287:306|227:320,1,123.499994346619,10|0,3:2|0:0,0:0:0:0:
20,170,280017,1,0,3:2:0:0:
26,176,280278,5,0,3:2:0:0:
80,45,280408,1,0,3:2:0:0:
98,250,280539,2,0,B|87:273|87:273|53:288,1,61.7499971733095,10|0,3:2|0:0,0:0:0:0:
89,53,280800,2,0,L|149:41,1,61.7499971733095,0|0,3:2|0:0,0:0:0:0:
372,176,281060,6,0,L|348:297,1,123.499994346619,4|0,3:2|3:2,0:0:0:0:
278,230,281452,1,0,3:2:0:0:
480,124,281582,2,0,L|503:2,1,123.499994346619,10|0,3:2|0:0,0:0:0:0:
278,230,282104,6,0,L|218:214,1,61.7499971733095,0|0,3:2|0:0,0:0:0:0:
129,100,282365,1,0,3:2:0:0:
195,308,282495,1,0,3:2:0:0:
239,60,282626,6,0,L|249:0,2,61.7499971733095,10|0|0,3:2|0:0|3:2,0:0:0:0:
319,40,283017,1,0,0:0:0:0:
73,45,283147,6,0,L|92:166,1,123.499994346619,4|0,3:2|3:2,0:0:0:0:
143,0,283539,1,0,3:2:0:0:
107,240,283669,2,0,L|87:361,1,123.499994346619,10|0,3:2|0:0,0:0:0:0:
0,112,284191,6,0,P|34:64|93:61,1,123.499994346619,0|0,3:2|3:2,0:0:0:0:
129,125,284582,1,0,3:2:0:0:
215,361,284713,2,0,P|186:351|167:327,1,61.7499971733095,10|0,3:2|0:0,0:0:0:0:
394,162,284974,2,0,P|400:191|388:219,1,61.7499971733095,0|0,3:2|0:0,0:0:0:0:
137,122,285234,6,0,L|152:0,1,123.499994346619,4|0,3:2|3:2,0:0:0:0:
202,181,285626,1,0,3:2:0:0:
362,49,285756,2,0,L|422:37,1,61.7499971733095,10|0,3:2|0:0,0:0:0:0:
509,210,286017,5,0,3:2:0:0:
491,205,286147,1,0,3:2:0:0:
469,175,286278,5,8,3:3:0:0:
400,330,286408,1,0,3:2:0:0:
353,254,286539,1,8,3:2:0:0:
311,347,286669,1,8,3:2:0:0:
265,272,286800,5,8,3:3:0:0:
196,117,286930,1,8,3:3:0:0:
149,193,287060,1,8,3:3:0:0:
107,100,287191,1,8,3:3:0:0:
18,328,287321,6,0,B|50:356|50:356|129:339,1,123.499994346619,4|0,3:1|3:2,0:0:0:0:
78,267,287713,1,0,3:2:0:0:
271,283,287843,2,0,L|398:257,1,123.499994346619,10|0,3:2|0:0,0:0:0:0:
489,84,288365,5,0,3:2:0:0:
492,96,288626,5,0,3:2:0:0:
327,241,288756,1,0,3:2:0:0:
284,26,288887,1,10,3:2:0:0:
280,36,289147,6,0,L|219:24,1,61.7499971733095,0|0,3:2|0:0,0:0:0:0:
0,95,289408,6,0,L|121:116,1,123.499994346619,4|0,3:2|3:2,0:0:0:0:
76,33,289800,1,0,3:2:0:0:
254,169,289930,2,0,P|316:157|375:148,1,123.499994346619,10|0,3:2|0:0,0:0:0:0:
512,384,290452,6,0,P|485:329|428:311,1,123.499994346619,0|0,3:2|3:2,0:0:0:0:
378,236,290843,1,0,3:2:0:0:
194,373,290974,2,0,L|133:362,2,61.7499971733095,10|0|0,3:2|0:0|3:2,0:0:0:0:
477,211,291495,5,4,3:2:0:0:
473,220,291756,5,0,3:2:0:0:
321,190,291887,1,0,3:2:0:0:
168,157,292017,2,0,B|137:137|137:137|111:54,1,123.499994346619,10|0,3:2|0:0,0:0:0:0:
326,199,292539,2,0,L|311:258,1,61.7499971733095,0|0,3:2|0:0,0:0:0:0:
230,209,292800,5,0,3:2:0:0:
170,358,292930,1,0,3:2:0:0:
71,231,293060,1,10,3:2:0:0:
78,239,293321,6,0,L|91:178,1,61.7499971733095,0|0,3:2|0:0,0:0:0:0:
232,80,293582,2,0,P|171:67|111:53,1,123.499994346619,4|0,3:2|3:2,0:0:0:0:
28,97,293974,1,0,3:2:0:0:
268,147,294104,2,0,P|328:159|388:173,1,123.499994346619,10|0,3:2|3:2,0:0:0:0:
507,66,294495,5,0,3:2:0:0:
500,63,294626,2,0,P|471:73|449:98,1,61.7499971733095,8|0,3:3|3:2,0:0:0:0:
418,240,294887,5,8,3:2:0:0:
355,35,295017,1,8,3:2:0:0:
342,307,295147,6,0,P|313:296|291:271,1,61.7499971733095,8|8,3:3|3:3,0:0:0:0:
223,276,295408,2,0,P|224:245|241:216,1,61.7499971733095,8|8,3:3|3:3,0:0:0:0:
500,63,295669,6,0,P|487:123|477:184,1,123.499994346619,4|0,3:1|3:2,0:0:0:0:
508,253,296060,1,0,3:2:0:0:
360,109,296191,2,0,P|300:98|238:88,1,123.499994346619,10|0,3:2|3:2,0:0:0:0:
178,18,296582,5,0,3:2:0:0:
171,15,296713,1,0,3:2:0:0:
207,192,296974,5,0,3:2:0:0:
163,21,297104,1,0,3:2:0:0:
113,253,297234,2,0,L|173:264,1,61.7499971733095,10|0,3:2|0:0,0:0:0:0:
271,81,297495,5,0,3:2:0:0:
100,125,297626,1,0,3:2:0:0:
220,331,297756,6,0,P|279:319|341:307,1,123.499994346619,4|0,3:2|3:2,0:0:0:0:
370,238,298147,1,0,3:2:0:0:
122,242,298278,2,0,P|63:254|0:265,1,123.499994346619,10|0,3:2|3:2,0:0:0:0:
80,333,298669,1,0,3:2:0:0:
214,198,298800,6,0,L|223:137,1,61.7499971733095,0|0,3:2|0:0,0:0:0:0:
320,17,299060,1,0,3:2:0:0:
295,173,299191,1,0,3:2:0:0:
368,126,299321,6,0,L|428:136,2,61.7499971733095,10|0|0,3:2|0:0|3:2,0:0:0:0:
411,60,299713,1,0,3:2:0:0:
145,152,299843,6,0,L|23:132,1,123.499994346619,4|0,3:2|3:2,0:0:0:0:
100,58,300234,1,0,3:2:0:0:
218,249,300365,6,0,P|211:279|206:309,1,61.7499971733095,10|0,3:2|0:0,0:0:0:0:
150,163,300626,1,0,3:2:0:0:
116,357,300756,1,0,3:2:0:0:
297,290,300887,6,0,L|357:301,1,61.7499971733095,0|0,3:2|0:0,0:0:0:0:
60,243,301147,2,0,L|0:231,1,61.7499971733095,0|0,3:2|3:2,0:0:0:0:
373,373,301408,6,0,L|494:351,1,123.499994346619,10|0,3:2|3:2,0:0:0:0:
512,268,301800,1,0,3:2:0:0:
310,186,301930,6,0,B|275:214|275:214|296:289,1,123.499994346619,4|0,3:2|3:2,0:0:0:0:
389,239,302321,1,0,3:2:0:0:
183,206,302452,2,0,L|122:194,1,61.7499971733095,10|0,3:2|0:0,0:0:0:0:
53,72,302713,5,0,3:2:0:0:
35,67,302843,1,0,3:2:0:0:
21,32,302974,5,8,3:3:0:0:
156,3,303104,1,0,3:2:0:0:
218,52,303234,5,8,3:2:0:0:
300,34,303365,1,8,3:2:0:0:
496,137,303495,5,8,3:3:0:0:
362,100,303626,1,8,3:3:0:0:
295,155,303756,5,8,3:3:0:0:
214,133,303887,1,8,3:3:0:0:
96,207,304017,5,12,3:2:0:0:
168,219,304147,1,0,3:2:0:0:
195,287,304278,1,0,3:2:0:0:
162,353,304408,1,0,3:2:0:0:
105,244,304539,5,12,3:2:0:0:
141,250,304669,1,0,3:2:0:0:
155,284,304800,1,0,3:2:0:0:
138,318,304930,1,0,3:2:0:0:
38,317,305060,5,8,3:2:0:0:
107,290,305191,1,0,3:2:0:0:
151,231,305321,1,0,3:2:0:0:
220,258,305452,1,0,3:2:0:0:
290,236,305582,6,2,L|349:252,5,41.1666647822063,10|2|2|2|2|2,3:2|0:0|0:0|3:2|0:0|0:0,0:0:0:0:
446,358,306104,5,12,3:2:0:0:
462,285,306234,1,0,3:2:0:0:
478,212,306365,1,0,3:2:0:0:
490,139,306495,1,0,3:2:0:0:
414,113,306626,5,12,3:2:0:0:
406,76,306756,1,0,3:2:0:0:
398,40,306887,1,0,3:2:0:0:
392,3,307017,1,0,3:2:0:0:
512,35,307147,5,8,3:2:0:0:
438,50,307278,1,0,3:2:0:0:
366,66,307408,1,0,3:2:0:0:
293,80,307539,1,0,3:2:0:0:
255,146,307669,6,2,L|190:136,4,41.1666647822063,10|2|2|2|2,3:2|0:0|0:0|3:2|0:0,0:0:0:0:
338,258,308191,5,12,3:2:0:0:
409,278,308321,1,0,3:2:0:0:
481,259,308452,1,0,3:2:0:0:
483,332,308582,1,0,3:2:0:0:
410,356,308713,5,12,3:2:0:0:
381,368,308843,1,0,3:2:0:0:
352,380,308974,1,0,3:2:0:0:
324,366,309104,1,0,3:2:0:0:
273,305,309234,5,8,3:2:0:0:
289,226,309365,1,0,3:2:0:0:
309,148,309495,1,0,3:2:0:0:
333,71,309626,1,0,3:2:0:0:
275,17,309756,6,2,L|234:9,5,41.1666647822063,10|2|2|2|2|2,3:2|0:0|0:0|3:2|0:0|0:0,0:0:0:0:
141,78,310278,5,12,3:2:0:0:
74,44,310408,1,0,3:2:0:0:
14,89,310539,1,0,3:2:0:0:
28,162,310669,1,0,3:2:0:0:
138,123,310800,5,12,3:2:0:0:
171,140,310930,1,0,3:2:0:0:
201,117,311060,1,0,3:2:0:0:
194,80,311191,1,0,3:2:0:0:
41,165,311321,6,0,L|26:224,1,61.7499971733095,4|0,3:2|3:2,0:0:0:0:
163,214,311582,2,0,L|103:231,1,61.7499971733095,0|0,3:2|3:2,0:0:0:0:
16,348,311843,6,0,L|91:365,2,61.7499971733095,4|0|0,3:2|3:2|3:2,0:0:0:0:
11,338,312234,1,0,3:2:0:0:
160,306,312365,5,12,3:2:0:0:
209,360,312495,1,0,3:2:0:0:
282,350,312626,1,0,3:2:0:0:
317,285,312756,1,0,3:2:0:0:
393,278,312887,5,12,3:2:0:0:
404,243,313017,1,0,3:2:0:0:
381,214,313147,1,0,3:2:0:0:
344,215,313278,1,0,3:2:0:0:
266,227,313408,5,8,3:2:0:0:
207,181,313539,1,0,3:2:0:0:
220,108,313669,1,0,3:2:0:0:
292,95,313800,1,0,3:2:0:0:
342,40,313930,6,2,L|336:0,5,41.1666647822063,10|2|2|2|2|2,3:2|0:0|0:0|3:2|0:0|0:0,0:0:0:0:
460,62,314452,5,12,3:2:0:0:
444,134,314582,1,0,3:2:0:0:
379,173,314713,1,0,3:2:0:0:
395,245,314843,1,0,3:2:0:0:
471,253,314974,5,12,3:2:0:0:
466,283,315104,1,0,3:2:0:0:
461,313,315234,1,0,3:2:0:0:
455,343,315365,1,0,3:2:0:0:
412,363,315495,5,8,3:2:0:0:
342,337,315626,1,0,3:2:0:0:
273,364,315756,1,0,3:2:0:0:
203,338,315887,1,0,3:2:0:0:
194,264,316017,6,2,L|154:254,4,41.1666647822063,10|2|2|2|2,3:2|0:0|0:0|3:2|0:0,0:0:0:0:
12,170,316539,5,12,3:2:0:0:
84,156,316669,1,0,3:2:0:0:
156,141,316800,1,0,3:2:0:0:
228,125,316930,1,0,3:2:0:0:
278,178,317060,5,12,3:2:0:0:
318,185,317191,1,0,3:2:0:0:
358,194,317321,1,0,3:2:0:0:
398,202,317452,1,0,3:2:0:0:
461,162,317582,5,8,3:2:0:0:
447,89,317713,1,0,3:2:0:0:
476,20,317843,1,0,3:2:0:0:
402,10,317974,1,0,3:2:0:0:
348,62,318104,6,2,L|307:54,5,41.1666647822063,10|2|2|2|2|2,3:2|0:0|0:0|3:2|0:0|0:0,0:0:0:0:
195,110,318626,5,12,3:2:0:0:
146,54,318756,1,0,3:2:0:0:
74,73,318887,1,0,3:2:0:0:
60,146,319017,1,0,3:2:0:0:
156,102,319147,5,12,3:2:0:0:
132,74,319278,1,0,3:2:0:0:
96,84,319408,1,0,3:2:0:0:
89,120,319539,1,0,3:2:0:0:
147,190,319669,6,0,L|128:249,1,61.7499971733095,4|0,3:2|3:2,0:0:0:0:
0,231,319930,2,0,L|50:266,1,61.7499971733095,0|0,3:2|3:2,0:0:0:0:
216,238,320191,6,0,L|275:222,2,61.7499971733095,4|0|0,3:2|3:2|3:2,0:0:0:0:
213,248,320582,1,0,3:2:0:0:
110,325,320713,5,12,3:2:0:0:
181,344,320843,1,0,3:2:0:0:
253,360,320974,1,0,3:2:0:0:
318,324,321104,1,0,3:2:0:0:
383,358,321234,5,12,3:2:0:0:
380,333,321365,1,0,3:2:0:0:
376,308,321495,1,0,3:2:0:0:
372,283,321626,1,0,3:2:0:0:
307,247,321756,5,12,3:2:0:0:
339,173,321887,1,0,3:2:0:0:
293,106,322017,1,0,3:2:0:0:
325,32,322147,1,0,3:2:0:0:
405,24,322278,6,2,L|414:64,5,41.1666647822063,14|2|2|2|2|2,3:2|0:0|0:0|3:2|0:0|0:0,0:0:0:0:
510,136,322800,5,12,3:2:0:0:
491,214,322930,1,0,3:2:0:0:
412,231,323060,1,0,3:2:0:0:
345,185,323191,1,0,3:2:0:0:
300,243,323321,5,12,3:2:0:0:
270,235,323452,1,0,3:2:0:0:
240,243,323582,1,0,3:2:0:0:
222,268,323713,1,0,3:2:0:0:
145,275,323843,5,4,3:2:0:0:
90,333,323974,1,0,3:2:0:0:
13,306,324104,1,0,3:2:0:0:
11,225,324234,1,0,3:2:0:0:
92,209,324365,6,2,L|74:262,4,41.1666647822063,6|2|2|2|2,3:2|0:0|0:0|3:2|0:0,0:0:0:0:
8,91,324887,5,12,3:2:0:0:
80,55,325017,1,0,3:2:0:0:
129,118,325147,1,0,3:2:0:0:
201,154,325278,1,0,3:2:0:0:
275,123,325408,5,12,3:2:0:0:
293,120,325539,1,0,3:2:0:0:
311,117,325669,1,0,3:2:0:0:
329,115,325800,1,0,3:2:0:0:
375,180,325930,5,4,3:2:0:0:
432,124,326060,1,0,3:2:0:0:
500,81,326191,1,0,3:2:0:0:
481,6,326321,1,0,3:2:0:0:
400,2,326452,6,2,B|391:20|391:20|371:26,5,41.1666647822063,6|2|2|2|2|2,3:2|0:0|0:0|3:2|0:0|0:0,0:0:0:0:
329,115,326974,5,12,3:2:0:0:
257,94,327104,1,0,3:2:0:0:
186,73,327234,1,0,3:2:0:0:
145,10,327365,1,0,3:2:0:0:
82,48,327495,5,12,3:2:0:0:
79,66,327626,1,0,3:2:0:0:
75,84,327756,1,0,3:2:0:0:
72,102,327887,1,0,3:2:0:0:
131,149,328017,6,0,L|139:210,1,61.7499971733095,4|0,3:2|3:2,0:0:0:0:
47,194,328278,1,8,3:3:0:0:
212,167,328408,1,8,3:3:0:0:
193,291,328539,5,12,3:3:0:0:
75,271,328669,1,8,3:3:0:0:
79,384,328800,5,8,3:3:0:0:
252,354,328930,1,8,3:3:0:0:
345,384,329060,5,12,3:2:0:0:
368,307,329191,1,0,3:2:0:0:
440,272,329321,1,0,3:2:0:0:
426,192,329452,1,0,3:2:0:0:
350,164,329582,5,12,3:2:0:0:
357,134,329713,1,0,3:2:0:0:
364,103,329843,1,0,3:2:0:0:
374,73,329974,1,0,3:2:0:0:
442,34,330104,5,4,3:2:0:0:
460,111,330234,1,0,3:2:0:0:
482,188,330365,1,0,3:2:0:0:
501,265,330495,1,0,3:2:0:0:
436,313,330626,6,2,L|390:304,4,41.1666647822063,6|2|2|2|2,3:2|0:0|0:0|3:2|0:0,0:0:0:0:
274,251,331147,5,12,3:2:0:0:
251,180,331278,1,0,3:2:0:0:
224,110,331408,1,0,3:2:0:0:
195,41,331539,1,0,3:2:0:0:
124,19,331669,5,12,3:2:0:0:
116,48,331800,1,0,3:2:0:0:
108,78,331930,1,0,3:2:0:0:
99,107,332060,1,0,3:2:0:0:
32,146,332191,5,4,3:2:0:0:
89,209,332321,1,0,3:2:0:0:
100,295,332452,1,0,3:2:0:0:
183,280,332582,1,0,3:2:0:0:
252,330,332713,6,2,L|246:370,5,41.1666647822063,6|2|2|2|2|2,3:2|0:0|0:0|3:2|0:0|0:0,0:0:0:0:
269,190,333234,5,12,3:2:0:0:
312,129,333365,1,0,3:2:0:0:
385,118,333495,1,0,3:2:0:0:
430,58,333626,1,0,3:2:0:0:
501,35,333756,5,12,3:2:0:0:
504,64,333887,1,0,3:2:0:0:
508,95,334017,1,0,3:2:0:0:
512,125,334147,1,0,3:2:0:0:
454,173,334278,5,4,3:2:0:0:
505,234,334408,1,0,3:2:0:0:
482,311,334539,1,0,3:2:0:0:
403,325,334669,1,0,3:2:0:0:
346,267,334800,6,2,L|305:259,4,41.1666647822063,6|2|2|2|2,3:2|0:0|0:0|3:2|0:0,0:0:0:0:
224,181,335321,5,12,3:2:0:0:
154,208,335452,1,0,3:2:0:0:
84,231,335584,1,0,3:2:0:0:
14,255,335715,1,0,3:2:0:0:
44,322,335847,5,12,3:2:0:0:
79,334,335978,1,0,3:2:0:0:
114,345,336110,1,0,3:2:0:0:
149,358,336242,1,0,3:2:0:0:
211,313,336373,5,4,3:2:0:0:
157,9,336719,1,0,3:2:0:0:
303,42,337040,5,4,3:2:0:0:
259,384,337370,1,0,3:2:0:0:
88,38,337659,5,0,3:2:0:0:
83,25,337714,1,0,3:2:0:0:
79,12,337769,1,4,3:1:0:0:
256,192,337898,12,0,343962,0:0:0:0:
