osu file format v14

[General]
AudioFilename: shortened.mp3
AudioLeadIn: 0
PreviewTime: 60783
Countdown: 0
SampleSet: Soft
StackLeniency: 0.4
Mode: 0
LetterboxInBreaks: 0
WidescreenStoryboard: 1

[Editor]
Bookmarks: 245,11742,34736,57730,61322,84316,130304
DistanceSpacing: 2
BeatDivisor: 4
GridSize: 8
TimelineZoom: 1

[Metadata]
Title:Pitch Fucker
TitleUnicode:Pitch Fucker
Artist:Kraus
ArtistUnicode:Kraus
Creator:dsco
Version:Insane: Anxiety
Source:
Tags:noise rock experimental indie end tomorrow will
BeatmapID:1184133
BeatmapSetID:559928

[Difficulty]
HPDrainRate:4.2
CircleSize:4.2
OverallDifficulty:7.2
ApproachRate:8.2
SliderMultiplier:1.5
SliderTickRate:1

[Events]
//Background and Video events
0,0,"bg2.jpg",0,0
//Break Periods
2,57930,60602
//Storyboard Layer 0 (Background)
//Storyboard Layer 1 (Fail)
//Storyboard Layer 2 (Pass)
//Storyboard Layer 3 (Foreground)
//Storyboard Sound Samples

[TimingPoints]
245,359.281437125748,4,2,0,75,1,0
61322,359.281437125748,4,2,0,75,1,0
130483,-100,4,2,0,25,0,0

[Colours]
Combo1 : 216,202,180
Combo2 : 153,210,228
Combo3 : 255,212,218
Combo4 : 255,245,165

[HitObjects]
93,262,245,6,0,P|128:281|189:272,1,75,4|0,0:0|0:0,0:0:0:0:
185,279,514,2,0,L|203:138,1,112.5
156,65,963,5,2,0:0:0:0:
156,65,1143,1,0,0:0:0:0:
298,111,1322,1,8,0:0:0:0:
200,168,1502,1,0,0:0:0:0:
339,218,1682,6,0,L|439:216,1,75,4|0,0:0|0:0,0:0:0:0:
435,214,1951,2,0,P|468:181|465:96,1,112.5
392,36,2400,5,2,0:0:0:0:
392,36,2580,1,0,0:0:0:0:
294,148,2759,1,8,0:0:0:0:
239,49,2939,1,0,0:0:0:0:
373,114,3119,6,0,P|381:150|351:213,1,75,4|0,0:0|0:0,0:0:0:0:
289,261,3478,1,8,0:0:0:0:
234,162,3658,1,2,0:0:0:0:
212,164,3747,1,0,0:0:0:0:
194,178,3837,6,0,L|188:224,3,37.5,2|0|0|0,3:0|0:0|0:0|0:0,0:0:0:0:
167,221,4197,2,0,L|162:258,3,37.5,2|0|0|0,3:0|0:0|0:0|0:0,0:0:0:0:
138,265,4556,6,0,P|99:278|28:248,1,112.5,4|0,0:0|0:0,0:0:0:0:
20,237,4915,1,8,0:0:0:0:
94,152,5095,1,2,0:0:0:0:
97,130,5184,1,0,0:0:0:0:
100,107,5274,6,0,P|128:98|164:101,3,37.5,2|0|0|0,3:0|0:0|0:0|0:0,0:0:0:0:
150,79,5634,2,0,P|168:77|186:78,3,37.5,2|0|0|0,3:0|0:0|0:0|0:0,0:0:0:0:
209,61,5993,6,0,B|246:68|246:68|295:52,1,75,4|0,0:0|0:0,0:0:0:0:
303,50,6262,2,0,B|380:22|380:22|367:53,1,112.5
336,162,6712,5,2,0:0:0:0:
336,162,6891,1,0,0:0:0:0:
482,134,7071,1,8,0:0:0:0:
424,229,7250,1,0,0:0:0:0:
396,82,7430,6,0,P|363:63|315:69,1,75,4|0,0:0|0:0,0:0:0:0:
307,73,7700,2,0,P|258:89|187:78,1,112.5
108,16,8149,5,2,0:0:0:0:
108,16,8328,1,0,0:0:0:0:
16,135,8508,1,8,0:0:0:0:
121,94,8688,1,0,0:0:0:0:
100,241,8867,6,0,L|112:322,1,75,4|0,0:0|0:0,0:0:0:0:
215,359,9227,1,8,0:0:0:0:
269,256,9406,1,0,0:0:0:0:
272,233,9495,1,0,0:0:0:0:
275,211,9586,6,0,L|269:173,3,37.5,2|0|0|0,3:0|0:0|0:0|0:0,0:0:0:0:
253,189,9945,2,0,L|247:151,3,37.5,2|0|0|0,3:0|0:0|0:0|0:0,0:0:0:0:
231,167,10304,6,0,L|215:68,1,75,4|0,0:0|0:0,0:0:0:0:
214,71,10574,2,0,B|247:37|247:37|316:28,1,112.5,8|2,3:0|0:0,0:0:0:0:
431,43,11023,5,8,0:0:0:0:
363,133,11203,1,0,3:0:0:0:
363,133,11382,1,0,3:0:0:0:
509,101,11562,1,8,0:0:0:0:
395,200,11742,6,0,P|386:249|398:295,1,75,4|0,0:0|0:0,0:0:0:0:
431,335,12101,1,0,0:0:0:0:
431,335,12280,1,0,0:0:0:0:
291,279,12460,2,0,B|281:247|281:247|284:177,1,75,12|0,0:0|0:0,0:0:0:0:
291,132,12819,1,0,0:0:0:0:
291,132,12999,1,0,0:0:0:0:
157,201,13179,2,0,P|101:206|66:194,1,75,4|0,0:0|0:0,0:0:0:0:
23,157,13538,1,0,0:0:0:0:
23,157,13718,1,0,0:0:0:0:
150,78,13897,5,12,0:0:0:0:
208,124,14076,1,0,0:0:0:0:
242,190,14256,1,0,0:0:0:0:
247,264,14435,1,0,0:0:0:0:
222,335,14616,6,0,P|284:340|322:330,1,75,4|0,0:0|0:0,0:0:0:0:
358,297,14975,1,0,0:0:0:0:
358,297,15155,1,0,0:0:0:0:
235,213,15334,2,0,B|223:177|223:177|231:133,1,75,12|0,0:0|0:0,0:0:0:0:
251,68,15694,1,0,0:0:0:0:
251,68,15873,1,0,0:0:0:0:
374,151,16053,2,0,L|372:247,1,75,4|0,0:0|0:0,0:0:0:0:
368,301,16412,1,0,0:0:0:0:
368,301,16592,1,0,0:0:0:0:
240,223,16771,5,12,0:0:0:0:
271,331,16951,1,0,0:0:0:0:
240,223,17131,1,8,0:0:0:0:
271,331,17311,1,0,0:0:0:0:
128,291,17490,6,0,L|131:214,1,75,4|0,0:0|0:0,0:0:0:0:
137,142,17849,1,0,0:0:0:0:
137,142,18029,1,0,0:0:0:0:
253,48,18209,2,0,L|249:125,1,75,12|0,0:0|0:0,0:0:0:0:
250,198,18568,1,0,0:0:0:0:
250,198,18748,1,0,0:0:0:0:
346,305,18927,2,0,L|350:227,1,75,4|0,0:0|0:0,0:0:0:0:
355,155,19286,1,0,0:0:0:0:
355,155,19466,1,0,0:0:0:0:
253,48,19646,5,12,0:0:0:0:
179,57,19825,1,0,0:0:0:0:
125,107,20005,1,0,0:0:0:0:
110,179,20184,1,0,0:0:0:0:
141,246,20364,6,0,L|133:330,1,75,4|0,0:0|0:0,0:0:0:0:
197,368,20724,1,0,0:0:0:0:
197,368,20903,1,0,0:0:0:0:
282,243,21083,2,0,B|290:201|290:201|278:145,1,75,12|0,0:0|0:0,0:0:0:0:
264,97,21442,1,0,0:0:0:0:
264,97,21622,1,0,0:0:0:0:
361,209,21801,2,0,P|391:222|442:217,1,75,4|0,0:0|0:0,0:0:0:0:
487,169,22161,1,0,0:0:0:0:
487,169,22340,1,0,0:0:0:0:
355,97,22520,5,12,0:0:0:0:
361,209,22700,1,0,0:0:0:0:
355,97,22879,1,8,0:0:0:0:
361,209,23059,1,0,0:0:0:0:
427,75,23239,6,0,P|404:39|341:22,1,75,4|0,0:0|0:0,0:0:0:0:
303,41,23598,1,0,0:0:0:0:
303,41,23777,1,0,0:0:0:0:
172,114,23957,2,0,L|92:104,1,75,12|0,0:0|0:0,0:0:0:0:
56,42,24316,1,0,0:0:0:0:
56,42,24496,1,0,0:0:0:0:
205,50,24676,2,0,P|236:80|243:134,1,75,4|0,0:0|0:0,0:0:0:0:
213,177,25035,1,0,0:0:0:0:
213,177,25215,1,0,0:0:0:0:
352,230,25394,5,12,0:0:0:0:
380,162,25573,1,0,0:0:0:0:
353,94,25753,1,0,0:0:0:0:
285,66,25932,1,0,0:0:0:0:
218,94,26113,6,0,L|134:86,1,75,4|0,0:0|0:0,0:0:0:0:
69,79,26472,1,0,0:0:0:0:
69,79,26652,1,0,0:0:0:0:
165,194,26831,2,0,L|249:203,1,75,12|0,0:0|0:0,0:0:0:0:
314,209,27190,1,0,0:0:0:0:
314,209,27370,1,0,0:0:0:0:
199,304,27550,2,0,L|114:295,1,75,4|0,0:0|0:0,0:0:0:0:
51,289,27909,1,0,0:0:0:0:
51,289,28089,1,0,0:0:0:0:
116,154,28268,5,12,0:0:0:0:
20,212,28448,1,0,0:0:0:0:
116,154,28628,1,8,0:0:0:0:
20,212,28808,1,0,0:0:0:0:
163,253,28987,6,0,P|213:255|241:244,1,75,4|0,0:0|0:0,0:0:0:0:
284,190,29346,1,0,0:0:0:0:
284,190,29526,1,0,0:0:0:0:
320,334,29706,2,0,P|356:300|369:272,1,75,12|0,0:0|0:0,0:0:0:0:
361,205,30065,1,0,0:0:0:0:
361,205,30245,1,0,0:0:0:0:
489,281,30424,2,0,P|490:230|479:202,1,75,4|0,0:0|0:0,0:0:0:0:
426,160,30783,1,0,0:0:0:0:
426,160,30963,1,0,0:0:0:0:
288,99,31143,5,12,0:0:0:0:
294,174,31322,1,0,0:0:0:0:
251,235,31502,1,0,0:0:0:0:
257,310,31681,1,0,0:0:0:0:
197,356,31861,6,0,L|120:345,1,75,4|0,0:0|0:0,0:0:0:0:
48,332,32221,1,0,0:0:0:0:
48,332,32400,1,0,0:0:0:0:
144,217,32580,2,0,L|156:140,1,75,12|0,0:0|0:0,0:0:0:0:
169,68,32940,1,0,0:0:0:0:
169,68,33119,1,0,0:0:0:0:
284,164,33298,2,0,L|360:176,1,75,4|0,0:0|0:0,0:0:0:0:
432,189,33658,1,0,0:0:0:0:
432,189,33837,1,0,0:0:0:0:
292,242,34017,5,12,0:0:0:0:
403,258,34196,1,0,0:0:0:0:
292,242,34376,1,8,0:0:0:0:
403,258,34555,1,0,0:0:0:0:
284,164,34736,6,0,B|271:131|271:131|280:47|280:47|308:17,1,150,4|2,0:0|0:0,0:0:0:0:
413,163,35454,2,0,L|395:339,1,150,8|2,0:0|0:0,0:0:0:0:
241,221,36173,5,4,0:0:0:0:
241,221,36353,1,0,0:0:0:0:
228,333,36532,1,2,0:0:0:0:
121,190,36891,2,0,B|104:112|104:112|121:29,1,150,8|2,0:0|0:0,0:0:0:0:
297,68,37610,5,4,0:0:0:0:
297,68,37789,1,0,0:0:0:0:
193,112,37969,1,2,0:0:0:0:
241,284,38328,2,0,B|270:245|270:245|263:131,1,150,8|2,0:0|0:0,0:0:0:0:
116,40,39047,5,4,0:0:0:0:
116,40,39227,1,0,0:0:0:0:
122,151,39406,1,2,0:0:0:0:
272,54,39765,2,0,P|313:43|350:41,1,75,8|0,0:0|0:0,0:0:0:0:
431,68,40125,1,2,0:0:0:0:
353,229,40484,6,0,B|276:220|276:220|323:154,1,150,4|2,0:0|0:0,0:0:0:0:
405,318,41203,2,0,L|236:296,1,150,8|2,0:0|0:0,0:0:0:0:
79,273,41921,5,4,0:0:0:0:
79,273,42101,1,0,0:0:0:0:
147,184,42280,1,2,0:0:0:0:
222,347,42640,2,0,L|391:325,1,150,8|2,0:0|0:0,0:0:0:0:
414,154,43358,5,4,0:0:0:0:
414,154,43538,1,0,0:0:0:0:
388,262,43718,1,2,0:0:0:0:
262,134,44077,2,0,P|221:115|101:135,1,150,8|2,0:0|0:0,0:0:0:0:
166,297,44795,5,4,0:0:0:0:
166,297,44975,1,0,0:0:0:0:
270,258,45155,1,2,0:0:0:0:
106,184,45514,2,0,P|80:200|59:247,1,75,8|0,0:0|0:0,0:0:0:0:
91,322,45873,1,8,0:0:0:0:
211,188,46233,6,0,B|231:114|231:114|222:29,1,150,4|2,0:0|0:0,0:0:0:0:
103,176,46951,2,0,B|83:249|83:249|92:334,1,150,8|2,0:0|0:0,0:0:0:0:
266,360,47670,5,4,0:0:0:0:
266,360,47849,1,0,0:0:0:0:
205,264,48029,1,2,0:0:0:0:
373,326,48388,2,0,B|481:336|481:336|447:293,1,150,8|2,0:0|0:0,0:0:0:0:
341,163,49107,5,4,0:0:0:0:
341,163,49286,1,0,0:0:0:0:
447,199,49466,1,2,0:0:0:0:
276,254,49825,2,0,P|197:260|118:211,1,150,8|2,0:0|0:0,0:0:0:0:
201,62,50544,5,4,0:0:0:0:
201,62,50724,1,0,0:0:0:0:
114,131,50903,1,2,0:0:0:0:
292,140,51262,2,0,P|223:146|199:158,1,75,8|0,0:0|0:0,0:0:0:0:
152,208,51622,1,2,0:0:0:0:
292,319,51981,6,0,L|468:299,1,150,4|2,0:0|0:0,0:0:0:0:
440,123,52700,2,0,L|264:143,1,150,8|2,0:0|0:0,0:0:0:0:
136,229,53418,5,4,0:0:0:0:
136,229,53598,1,0,0:0:0:0:
102,121,53777,1,2,0:0:0:0:
251,222,54137,2,0,P|247:262|142:345,1,150,8|2,0:0|0:0,0:0:0:0:
184,159,54855,5,4,0:0:0:0:
184,159,55035,1,0,0:0:0:0:
75,189,55215,1,2,0:0:0:0:
197,57,55574,2,0,L|350:72,1,150,8|2,0:0|0:0,0:0:0:0:
427,230,56292,5,4,0:0:0:0:
427,230,56472,1,0,0:0:0:0:
315,216,56652,1,2,0:0:0:0:
160,305,57011,1,8,0:0:0:0:
238,260,57191,1,0,0:0:0:0:
177,165,57370,1,8,0:0:0:0:
298,354,57730,5,4,0:0:0:0:
131,57,61322,6,0,P|172:38|225:54,1,75,4|0,0:0|0:0,0:0:0:0:
223,48,61591,2,0,B|234:87|234:87|219:171,1,112.5
117,227,62040,5,2,0:0:0:0:
117,227,62220,1,0,0:0:0:0:
217,337,62399,1,8,0:0:0:0:
105,340,62579,1,0,0:0:0:0:
227,249,62759,6,0,P|249:208|250:163,1,75,4|0,0:0|0:0,0:0:0:0:
253,158,63028,2,0,B|284:113|284:113|346:93,1,112.5
460,74,63477,5,2,0:0:0:0:
460,74,63657,1,0,0:0:0:0:
372,195,63836,1,8,0:0:0:0:
339,95,64016,1,0,0:0:0:0:
205,164,64196,6,0,P|192:204|207:263,1,75,4|0,0:0|0:0,0:0:0:0:
264,327,64555,1,8,0:0:0:0:
362,271,64735,1,2,0:0:0:0:
363,248,64824,1,0,0:0:0:0:
364,226,64914,6,0,L|360:176,3,37.5,2|0|0|0,3:0|0:0|0:0|0:0,0:0:0:0:
343,174,65274,2,0,L|345:136,3,37.5,2|0|0|0,3:0|0:0|0:0|0:0,0:0:0:0:
364,121,65633,6,0,P|330:100|250:96,1,112.5,4|0,0:0|0:0,0:0:0:0:
238,101,65992,1,8,0:0:0:0:
158,180,66172,1,2,0:0:0:0:
140,192,66261,1,0,0:0:0:0:
118,197,66351,6,0,B|94:199|94:199|72:189,3,37.5,2|0|0|0,3:0|0:0|0:0|0:0,0:0:0:0:
61,183,66711,2,0,B|39:172|39:172|26:152,3,37.5,2|0|0|0,3:0|0:0|0:0|0:0,0:0:0:0:
23,141,67070,6,0,P|4:113|9:66,1,75,4|0,0:0|0:0,0:0:0:0:
18,52,67339,2,0,L|145:44,1,112.5
239,113,67789,5,2,0:0:0:0:
239,113,67968,1,0,0:0:0:0:
375,52,68148,1,8,0:0:0:0:
270,13,68327,1,0,0:0:0:0:
311,157,68507,6,0,B|329:191|329:191|319:228,1,75,4|0,0:0|0:0,0:0:0:0:
314,248,68777,2,0,B|293:313|293:313|252:338,1,112.5
141,352,69226,5,2,0:0:0:0:
141,352,69405,1,0,0:0:0:0:
169,205,69585,1,8,0:0:0:0:
85,279,69765,1,0,0:0:0:0:
37,140,69944,6,0,P|25:105|72:40,1,112.5,4|0,0:0|0:0,0:0:0:0:
80,36,70304,1,8,0:0:0:0:
192,72,70483,1,2,0:0:0:0:
213,79,70572,1,0,0:0:0:0:
235,79,70663,6,0,L|275:75,3,37.5,2|0|0|0,3:0|0:0|0:0|0:0,0:0:0:0:
288,90,71022,2,0,L|328:85,3,37.5,2|0|0|0,3:0|0:0|0:0|0:0,0:0:0:0:
341,100,71381,6,0,B|443:87,1,75,4|0,0:0|0:0,0:0:0:0:
435,88,71651,2,0,B|483:113|483:113|491:179,1,112.5,8|2,3:0|0:0,0:0:0:0:
372,203,72100,5,8,0:0:0:0:
463,268,72280,1,0,3:0:0:0:
463,268,72459,1,0,3:0:0:0:
400,131,72639,1,8,0:0:0:0:
303,245,72819,6,0,P|249:258|211:252,1,75,4|0,0:0|0:0,0:0:0:0:
209,249,73088,2,0,P|162:219|133:150,1,112.5
157,60,73537,5,2,0:0:0:0:
157,60,73717,1,0,0:0:0:0:
60,172,73896,1,8,0:0:0:0:
31,63,74076,1,0,0:0:0:0:
136,170,74256,6,0,B|161:180|161:180|234:162,1,75,4|0,0:0|0:0,0:0:0:0:
223,154,74525,2,0,P|271:125|341:133,1,112.5
410,222,74974,5,2,0:0:0:0:
410,222,75154,1,0,0:0:0:0:
434,75,75333,1,8,0:0:0:0:
485,174,75513,1,0,0:0:0:0:
354,101,75693,6,0,B|315:94|315:94|268:108,1,75,4|0,0:0|0:0,0:0:0:0:
213,197,76052,1,8,0:0:0:0:
108,156,76232,1,0,0:0:0:0:
99,135,76321,1,0,0:0:0:0:
98,112,76411,6,0,L|102:63,3,37.5,2|0|0|0,3:0|0:0|0:0|0:0,0:0:0:0:
79,76,76771,2,0,L|83:27,3,37.5,2|0|0|0,3:0|0:0|0:0|0:0,0:0:0:0:
97,20,77130,6,0,P|132:9|205:27,1,112.5,4|0,0:0|0:0,0:0:0:0:
217,39,77489,1,8,0:0:0:0:
251,153,77669,1,2,0:0:0:0:
249,175,77758,1,0,0:0:0:0:
247,197,77848,6,0,P|234:220|208:236,3,37.5,2|0|0|0,3:0|0:0|0:0|0:0,0:0:0:0:
230,248,78208,2,0,P|207:261|176:262,3,37.5,2|0|0|0,3:0|0:0|0:0|0:0,0:0:0:0:
189,284,78567,6,0,L|109:294,1,75,4|0,0:0|0:0,0:0:0:0:
97,305,78836,2,0,B|70:274|70:274|75:182,1,112.5
86,86,79286,5,2,0:0:0:0:
86,86,79465,1,0,0:0:0:0:
227,135,79645,1,8,0:0:0:0:
155,50,79824,1,0,0:0:0:0:
182,196,80004,6,0,P|225:211|266:199,1,75,4|0,0:0|0:0,0:0:0:0:
273,195,80274,2,0,B|306:173|306:173|388:167,1,112.5
498,165,80723,5,2,0:0:0:0:
498,165,80902,1,0,0:0:0:0:
497,315,81082,1,8,0:0:0:0:
441,217,81262,1,0,0:0:0:0:
310,289,81441,6,0,L|188:276,1,112.5,4|0,0:0|0:0,0:0:0:0:
176,274,81801,1,8,0:0:0:0:
87,206,81980,1,2,0:0:0:0:
81,184,82069,1,0,0:0:0:0:
86,162,82160,6,0,L|94:107,3,37.5,2|0|0|0,3:0|0:0|0:0|0:0,0:0:0:0:
113,130,82519,2,0,L|130:78,3,37.5,2|0|0|0,3:0|0:0|0:0|0:0,0:0:0:0:
144,103,82878,6,0,P|180:76|232:72,1,75,4|0,0:0|0:0,0:0:0:0:
233,69,83148,2,0,B|263:110|263:110|252:178,1,112.5,8|2,3:0|0:0,0:0:0:0:
215,284,83597,5,8,0:0:0:0:
331,299,83777,1,0,3:0:0:0:
331,299,83956,1,0,3:0:0:0:
254,171,84136,1,8,0:0:0:0:
336,46,84316,6,0,P|355:91|352:128,1,75,4|0,0:0|0:0,0:0:0:0:
328,185,84675,1,2,0:0:0:0:
328,185,84854,1,0,0:0:0:0:
217,286,85034,2,0,L|136:274,1,75,12|0,0:0|0:0,0:0:0:0:
74,305,85393,1,2,0:0:0:0:
74,305,85573,1,0,0:0:0:0:
181,199,85753,2,0,P|194:144|182:116,1,75,4|0,0:0|0:0,0:0:0:0:
141,70,86112,1,2,0:0:0:0:
141,70,86292,1,0,0:0:0:0:
278,133,86471,5,12,0:0:0:0:
251,66,86650,1,0,0:0:0:0:
293,7,86830,1,2,0:0:0:0:
365,10,87009,1,0,0:0:0:0:
402,71,87190,6,0,B|440:83|440:83|467:133,1,75,4|0,0:0|0:0,0:0:0:0:
466,188,87549,1,2,0:0:0:0:
466,188,87729,1,0,0:0:0:0:
335,115,87908,2,0,B|353:150|353:150|337:204,1,75,12|0,0:0|0:0,0:0:0:0:
298,242,88267,1,2,0:0:0:0:
298,242,88447,1,0,0:0:0:0:
256,97,88627,2,0,B|243:134|243:134|195:162,1,75,4|0,0:0|0:0,0:0:0:0:
140,161,88986,1,2,0:0:0:0:
140,161,89166,1,0,0:0:0:0:
88,21,89345,5,12,0:0:0:0:
58,128,89525,1,0,0:0:0:0:
88,21,89705,1,8,0:0:0:0:
58,128,89885,1,0,0:0:0:0:
180,42,90064,6,0,B|214:24|214:24|276:27,1,75,4|0,0:0|0:0,0:0:0:0:
324,37,90423,1,2,0:0:0:0:
324,37,90603,1,0,0:0:0:0:
429,142,90783,2,0,L|335:138,1,75,12|0,0:0|0:0,0:0:0:0:
279,135,91142,1,2,0:0:0:0:
279,135,91321,1,0,0:0:0:0:
172,220,91501,2,0,B|205:241|205:241|267:243,1,75,4|0,0:0|0:0,0:0:0:0:
314,237,91860,1,2,0:0:0:0:
314,237,92040,1,0,0:0:0:0:
206,341,92220,5,12,0:0:0:0:
134,340,92399,1,0,0:0:0:0:
101,277,92579,1,2,0:0:0:0:
141,218,92758,1,0,0:0:0:0:
213,227,92938,6,0,L|200:121,1,75,4|0,0:0|0:0,0:0:0:0:
196,78,93298,1,2,0:0:0:0:
196,78,93477,1,0,0:0:0:0:
286,198,93657,2,0,L|298:304,1,75,12|0,0:0|0:0,0:0:0:0:
303,347,94017,1,2,0:0:0:0:
303,347,94196,1,0,0:0:0:0:
151,364,94375,2,0,L|139:258,1,75,4|0,0:0|0:0,0:0:0:0:
134,215,94735,1,2,0:0:0:0:
134,215,94914,1,0,0:0:0:0:
249,119,95094,5,12,0:0:0:0:
167,41,95274,1,0,0:0:0:0:
249,119,95453,1,8,0:0:0:0:
167,41,95633,1,0,0:0:0:0:
204,186,95813,6,0,P|244:199|292:190,1,75,4|0,0:0|0:0,0:0:0:0:
326,141,96172,1,2,0:0:0:0:
326,141,96351,1,0,0:0:0:0:
200,59,96531,2,0,B|161:50|161:50|112:58,1,75,12|0,0:0|0:0,0:0:0:0:
53,75,96890,1,2,0:0:0:0:
53,75,97070,1,0,0:0:0:0:
117,209,97250,2,0,L|109:288,1,75,4|0,0:0|0:0,0:0:0:0:
60,340,97609,1,2,0:0:0:0:
60,340,97789,1,0,0:0:0:0:
207,361,97968,5,12,0:0:0:0:
187,291,98148,1,0,0:0:0:0:
234,237,98327,1,2,0:0:0:0:
305,245,98506,1,0,0:0:0:0:
338,310,98687,6,0,P|403:310|435:291,1,75,4|0,0:0|0:0,0:0:0:0:
464,254,99046,1,2,0:0:0:0:
464,254,99226,1,0,0:0:0:0:
488,107,99405,2,0,P|455:50|423:31,1,75,12|0,0:0|0:0,0:0:0:0:
376,25,99764,1,2,0:0:0:0:
376,25,99944,1,0,0:0:0:0:
236,78,100124,2,0,P|203:134|203:171,1,75,4|0,0:0|0:0,0:0:0:0:
221,215,100483,1,2,0:0:0:0:
221,215,100663,1,0,0:0:0:0:
360,163,100842,5,12,0:0:0:0:
303,260,101022,1,0,0:0:0:0:
360,163,101202,1,8,0:0:0:0:
303,260,101382,1,0,0:0:0:0:
441,204,101561,6,0,L|448:104,1,75,4|0,0:0|0:0,0:0:0:0:
412,62,101920,1,2,0:0:0:0:
412,62,102100,1,0,0:0:0:0:
357,200,102280,2,0,L|364:100,1,75,12|0,0:0|0:0,0:0:0:0:
328,58,102639,1,2,0:0:0:0:
328,58,102819,1,0,0:0:0:0:
273,196,102998,2,0,L|280:96,1,75,12|0,0:0|0:0,0:0:0:0:
244,54,103357,1,2,0:0:0:0:
244,54,103537,1,0,0:0:0:0:
189,192,103717,5,12,0:0:0:0:
147,133,103896,1,0,0:0:0:0:
76,142,104076,1,2,0:0:0:0:
49,208,104255,1,0,0:0:0:0:
95,264,104435,6,0,P|140:276|179:269,1,75,4|0,0:0|0:0,0:0:0:0:
228,229,104795,1,2,0:0:0:0:
228,229,104974,1,0,0:0:0:0:
286,366,105154,2,0,P|326:342|349:309,1,75,12|0,0:0|0:0,0:0:0:0:
355,247,105514,1,2,0:0:0:0:
355,247,105693,1,0,0:0:0:0:
487,303,105872,2,0,P|498:258|492:219,1,75,4|0,0:0|0:0,0:0:0:0:
452,169,106232,1,2,0:0:0:0:
452,169,106411,1,0,0:0:0:0:
409,312,106591,5,12,0:0:0:0:
350,218,106771,1,0,0:0:0:0:
409,312,106950,1,8,0:0:0:0:
350,218,107130,1,0,0:0:0:0:
215,284,107310,6,0,B|173:291|173:291|128:283,1,75,4|0,0:0|0:0,0:0:0:0:
69,266,107669,1,2,0:0:0:0:
69,266,107848,1,0,0:0:0:0:
185,173,108028,2,0,L|274:177,1,75,12|0,0:0|0:0,0:0:0:0:
334,180,108387,1,2,0:0:0:0:
334,180,108567,1,0,0:0:0:0:
227,65,108747,2,0,B|186:53|186:53|140:57,1,75,4|0,0:0|0:0,0:0:0:0:
78,67,109106,1,2,0:0:0:0:
78,67,109285,1,0,0:0:0:0:
185,173,109465,5,12,0:0:0:0:
114,168,109644,1,0,0:0:0:0:
87,232,109824,1,2,0:0:0:0:
138,280,110003,1,0,0:0:0:0:
201,246,110184,6,0,P|241:224|259:186,1,75,4|0,0:0|0:0,0:0:0:0:
246,124,110543,1,2,0:0:0:0:
246,124,110723,1,0,0:0:0:0:
133,222,110902,2,0,P|131:266|156:302,1,75,12|0,0:0|0:0,0:0:0:0:
215,321,111261,1,2,0:0:0:0:
215,321,111441,1,0,0:0:0:0:
186,174,111621,2,0,P|148:150|105:153,1,75,4|0,0:0|0:0,0:0:0:0:
59,195,111980,1,2,0:0:0:0:
59,195,112160,1,0,0:0:0:0:
118,58,112339,5,12,0:0:0:0:
24,119,112519,1,0,0:0:0:0:
118,58,112699,1,8,0:0:0:0:
24,119,112879,1,0,0:0:0:0:
128,224,113058,6,0,B|165:239|165:239|226:237,1,75,4|0,0:0|0:0,0:0:0:0:
274,234,113417,1,2,0:0:0:0:
274,234,113597,1,0,0:0:0:0:
149,149,113777,2,0,B|185:164|185:164|246:163,1,75,12|0,0:0|0:0,0:0:0:0:
295,159,114136,1,2,0:0:0:0:
295,159,114316,1,0,0:0:0:0:
170,75,114495,2,0,B|206:90|206:90|267:88,1,75,4|0,0:0|0:0,0:0:0:0:
315,84,114854,1,2,0:0:0:0:
315,84,115034,1,0,0:0:0:0:
187,2,115214,5,12,0:0:0:0:
116,15,115393,1,0,0:0:0:0:
87,81,115573,1,2,0:0:0:0:
124,142,115752,1,0,0:0:0:0:
196,146,115932,6,0,L|287:137,1,75,4|0,0:0|0:0,0:0:0:0:
347,130,116292,1,2,0:0:0:0:
347,130,116471,1,0,0:0:0:0:
232,227,116651,2,0,B|191:235|191:235|139:216,1,75,12|0,0:0|0:0,0:0:0:0:
95,182,117010,1,2,0:0:0:0:
95,182,117190,1,0,0:0:0:0:
49,39,117369,2,0,P|81:20|141:17,1,75,4|0,0:0|0:0,0:0:0:0:
194,32,117729,1,2,0:0:0:0:
194,32,117908,1,0,0:0:0:0:
320,120,118088,5,12,0:0:0:0:
368,18,118268,1,0,0:0:0:0:
320,120,118447,1,8,0:0:0:0:
368,18,118627,1,0,0:0:0:0:
234,86,118807,6,0,P|194:90|150:79,1,75,4|0,0:0|0:0,0:0:0:0:
105,32,119166,1,2,0:0:0:0:
105,32,119345,1,0,0:0:0:0:
23,157,119525,2,0,L|27:239,1,75,12|0,0:0|0:0,0:0:0:0:
31,305,119884,1,2,0:0:0:0:
31,305,120064,1,0,0:0:0:0:
125,187,120244,2,0,B|165:180|165:180|213:198,1,75,4|0,0:0|0:0,0:0:0:0:
248,250,120603,1,2,0:0:0:0:
248,250,120783,1,0,0:0:0:0:
350,144,120962,5,12,0:0:0:0:
365,75,121141,1,0,0:0:0:0:
305,38,121321,1,2,0:0:0:0:
251,83,121500,1,0,0:0:0:0:
276,150,121681,6,0,L|365:144,1,75,4|0,0:0|0:0,0:0:0:0:
425,137,122040,1,2,0:0:0:0:
425,137,122220,1,0,0:0:0:0:
347,264,122399,2,0,P|302:279|260:278,1,75,12|0,0:0|0:0,0:0:0:0:
207,245,122759,1,2,0:0:0:0:
207,245,122938,1,0,0:0:0:0:
79,322,123118,2,0,B|67:286|67:286|77:247,1,75,4|0,0:0|0:0,0:0:0:0:
97,178,123477,1,2,0:0:0:0:
97,178,123657,1,0,0:0:0:0:
238,132,123836,5,12,0:0:0:0:
128,107,124016,1,0,0:0:0:0:
238,132,124196,1,8,0:0:0:0:
128,107,124376,1,0,0:0:0:0:
223,221,124555,6,0,L|298:211,1,75,4|0,0:0|0:0,0:0:0:0:
369,197,124914,1,2,0:0:0:0:
369,197,125094,1,0,0:0:0:0:
439,64,125274,2,0,P|419:108|420:149,1,75,12|0,0:0|0:0,0:0:0:0:
447,203,125633,1,2,0:0:0:0:
447,203,125813,1,0,0:0:0:0:
323,120,125992,2,0,B|284:110|284:110|239:114,1,75,4|0,0:0|0:0,0:0:0:0:
174,123,126351,1,2,0:0:0:0:
174,123,126531,1,0,0:0:0:0:
202,270,126711,5,12,0:0:0:0:
165,330,126890,1,0,0:0:0:0:
95,321,127070,1,2,0:0:0:0:
76,253,127249,1,0,0:0:0:0:
132,209,127429,6,0,B|93:206|93:206|50:185,1,75,4|0,0:0|0:0,0:0:0:0:
42,117,127789,1,2,0:0:0:0:
42,117,127968,1,0,0:0:0:0:
174,48,128148,2,0,L|272:58,1,75,12|0,0:0|0:0,0:0:0:0:
322,65,128507,1,2,0:0:0:0:
322,65,128687,1,0,0:0:0:0:
235,186,128866,2,0,P|221:229|232:284,1,75,4|0,0:0|0:0,0:0:0:0:
266,319,129226,1,2,0:0:0:0:
266,319,129405,1,0,0:0:0:0:
360,202,129585,5,12,0:0:0:0:
377,312,129765,1,0,0:0:0:0:
360,202,129944,1,8,0:0:0:0:
377,312,130124,1,0,0:0:0:0:
192,281,130304,5,4,0:0:0:0:
256,192,130483,12,0,134076,0:0:0:0:
