osu file format v14

[General]
AudioFilename: shortened.mp3
AudioLeadIn: 0
PreviewTime: 60783
Countdown: 0
SampleSet: Soft
StackLeniency: 0.5
Mode: 0
LetterboxInBreaks: 0
WidescreenStoryboard: 1

[Editor]
Bookmarks: 245,11742,34736,57730,61322,84316,130304
DistanceSpacing: 1.5
BeatDivisor: 4
GridSize: 8
TimelineZoom: 1

[Metadata]
Title:Pitch Fucker
TitleUnicode:Pitch Fucker
Artist:Kraus
ArtistUnicode:Kraus
Creator:dsco
Version:Hard: Restlessness
Source:
Tags:noise rock experimental indie end tomorrow will
BeatmapID:1186953
BeatmapSetID:559928

[Difficulty]
HPDrainRate:4.1
CircleSize:4.1
OverallDifficulty:6.1
ApproachRate:7.1
SliderMultiplier:1.2
SliderTickRate:1

[Events]
//Background and Video events
0,0,"bg2.jpg",0,0
//Break Periods
2,57930,60393
//Storyboard Layer 0 (Background)
//Storyboard Layer 1 (Fail)
//Storyboard Layer 2 (Pass)
//Storyboard Layer 3 (Foreground)
//Storyboard Sound Samples

[TimingPoints]
245,359.281437125748,4,2,0,75,1,0
61322,359.281437125748,4,2,0,75,1,0
130483,-100,4,2,0,25,0,0

[Colours]
Combo1 : 216,202,180
Combo2 : 153,210,228
Combo3 : 255,212,218
Combo4 : 255,245,165

[HitObjects]
95,137,245,6,0,L|93:43,2,90,4|0|0,0:0|0:0|0:0,0:0:0:0:
151,206,963,2,0,P|186:216|231:201,1,60,2|0,0:0|0:0,0:0:0:0:
290,173,1322,2,0,P|319:169|347:180,1,60,8|0,0:0|0:0,0:0:0:0:
398,254,1682,6,0,L|499:265,2,90,4|0|0,0:0|0:0|0:0,0:0:0:0:
319,297,2400,2,0,L|237:287,1,60,2|0,0:0|0:0,0:0:0:0:
173,318,2759,2,0,P|168:266|176:243,1,60,8|0,0:0|0:0,0:0:0:0:
238,200,3119,6,0,B|254:140|254:140|231:68,1,120,4|8,0:0|0:0,0:0:0:0:
161,33,3658,1,2,0:0:0:0:
73,48,3837,2,0,B|65:77|65:77|76:113,1,60,0|0,3:0|0:0,0:0:0:0:
162,117,4197,2,0,B|171:144|171:144|163:174,1,60,0|0,3:0|0:0,0:0:0:0:
87,223,4556,6,0,P|74:286|117:336,1,120,4|8,0:0|0:0,0:0:0:0:
188,300,5095,1,2,0:0:0:0:
244,230,5274,2,0,L|260:164,1,60,0|0,3:0|0:0,0:0:0:0:
344,145,5634,1,0,3:0:0:0:
344,145,5813,1,8,0:0:0:0:
401,215,5993,6,0,P|433:215|481:174,2,90,4|0|0,0:0|0:0|0:0,0:0:0:0:
325,263,6712,2,0,L|252:247,1,60,2|0,0:0|0:0,0:0:0:0:
180,277,7071,2,0,L|107:261,1,60,8|0,0:0|0:0,0:0:0:0:
51,207,7430,6,0,P|34:254|43:307,2,90,4|0|0,0:0|0:0|0:0,0:0:0:0:
134,172,8149,2,0,L|192:185,1,60,2|0,0:0|0:0,0:0:0:0:
278,159,8508,2,0,L|291:100,1,60,8|0,0:0|0:0,0:0:0:0:
367,53,8867,6,0,P|422:49|475:96,1,120,4|8,0:0|0:0,0:0:0:0:
454,175,9406,1,2,0:0:0:0:
379,226,9586,2,0,L|374:159,1,60,0|0,3:0|0:0,0:0:0:0:
308,104,9945,2,0,P|273:94|227:107,1,60,0|0,3:0|0:0,0:0:0:0:
187,160,10304,6,0,L|86:145,2,90,4|8|2,0:0|0:0|0:0,0:0:0:0:
256,218,11023,2,0,P|267:253|256:285,1,60,8|0,0:0|0:0,0:0:0:0:
196,335,11382,1,0,3:0:0:0:
196,335,11562,1,8,0:0:0:0:
111,305,11742,6,0,B|30:280|30:280|76:265,1,120,4|0,0:0|0:0,0:0:0:0:
236,221,12460,2,0,L|370:229,1,120,12|0,0:0|0:0,0:0:0:0:
183,280,13179,2,0,P|157:226|185:159,1,120,4|0,0:0|0:0,0:0:0:0:
280,26,13897,2,0,B|302:76|302:76|298:145,1,120,12|0,0:0|0:0,0:0:0:0:
285,321,14616,6,0,L|421:301,1,120,4|0,0:0|0:0,0:0:0:0:
488,145,15334,2,0,L|369:160,1,120,12|0,0:0|0:0,0:0:0:0:
189,141,16053,2,0,P|173:89|209:32,1,120,4|0,0:0|0:0,0:0:0:0:
270,201,16771,6,0,L|265:266,1,60,12|0,0:0|0:0,0:0:0:0:
186,305,17131,2,0,L|121:299,1,60,8|0,0:0|0:0,0:0:0:0:
55,245,17490,6,0,B|41:187|41:187|57:113,1,120,4|0,0:0|0:0,0:0:0:0:
211,41,18209,2,0,L|340:56,1,120,12|0,0:0|0:0,0:0:0:0:
465,175,18927,2,0,B|464:235|464:235|438:289,1,120,4|0,0:0|0:0,0:0:0:0:
250,287,19646,2,0,L|264:168,1,120,12|0,0:0|0:0,0:0:0:0:
368,21,20364,6,0,L|499:8,1,120,4|0,0:0|0:0,0:0:0:0:
383,156,21083,2,0,L|252:169,1,120,12|0,0:0|0:0,0:0:0:0:
191,332,21801,2,0,L|322:319,1,120,4|0,0:0|0:0,0:0:0:0:
135,279,22520,6,0,P|103:280|73:267,1,60,12|0,0:0|0:0,0:0:0:0:
86,180,22879,2,0,P|63:157|50:127,1,60,8|0,0:0|0:0,0:0:0:0:
121,74,23239,6,0,B|154:64|154:64|254:82,1,120,4|0,0:0|0:0,0:0:0:0:
367,203,23957,2,0,P|367:161|316:97,1,120,12|0,0:0|0:0,0:0:0:0:
176,206,24676,2,0,B|169:269|169:269|185:339,1,120,4|0,0:0|0:0,0:0:0:0:
249,157,25394,2,0,P|231:78|163:45,1,120,12|0,0:0|0:0,0:0:0:0:
29,104,26113,6,0,P|27:172|40:244,1,120,4|0,0:0|0:0,0:0:0:0:
161,349,26831,2,0,P|162:281|149:209,1,120,12|0,0:0|0:0,0:0:0:0:
106,56,27550,2,0,B|163:38|163:38|222:42,1,120,4|0,0:0|0:0,0:0:0:0:
385,119,28268,6,0,L|314:112,1,60,12|0,0:0|0:0,0:0:0:0:
252,167,28628,2,0,L|181:160,1,60,8|0,0:0|0:0,0:0:0:0:
117,212,28987,6,0,P|103:177|145:83,1,120,4|0,0:0|0:0,0:0:0:0:
206,262,29706,2,0,B|163:298|163:298|86:287,1,120,12|0,0:0|0:0,0:0:0:0:
219,155,30424,2,0,L|341:142,1,120,4|0,0:0|0:0,0:0:0:0:
443,288,31143,2,0,P|390:328|320:327,1,120,12|0,0:0|0:0,0:0:0:0:
185,238,31861,6,0,B|180:177|180:177|192:101,1,120,4|0,0:0|0:0,0:0:0:0:
347,32,32580,2,0,L|328:163,1,120,12|0,0:0|0:0,0:0:0:0:
252,312,33298,2,0,P|205:336|137:325,1,120,4|0,0:0|0:0,0:0:0:0:
85,156,34017,6,0,L|92:96,1,60,12|0,0:0|0:0,0:0:0:0:
178,67,34376,2,0,L|170:126,1,60,8|0,0:0|0:0,0:0:0:0:
158,215,34736,6,0,P|208:235|287:200,1,120,4|2,0:0|0:0,0:0:0:0:
379,74,35454,2,0,B|403:132|403:132|393:211,1,120,8|2,0:0|0:0,0:0:0:0:
290,334,36173,2,0,L|215:325,1,60,4|0,0:0|0:0,0:0:0:0:
141,309,36532,2,0,P|125:265|149:178,1,120,2|8,0:0|0:0,0:0:0:0:
293,106,37250,1,2,0:0:0:0:
409,242,37610,6,0,L|495:239,2,60,4|0|2,0:0|0:0|0:0,0:0:0:0:
255,333,38328,2,0,B|243:270|243:270|256:203,1,120,8|2,0:0|0:0,0:0:0:0:
411,129,39047,2,0,L|497:125,2,60,4|0|2,0:0|0:0|0:0,0:0:0:0:
240,73,39765,2,0,L|180:74,1,60,8|0,0:0|0:0,0:0:0:0:
89,79,40125,1,2,0:0:0:0:
178,234,40484,6,0,B|243:242|243:242|315:227,1,120,4|2,0:0|0:0,0:0:0:0:
132,156,41203,2,0,P|95:196|96:275,1,120,8|2,0:0|0:0,0:0:0:0:
260,316,41921,2,0,L|318:304,1,60,4|0,0:0|0:0,0:0:0:0:
405,280,42280,2,0,P|422:220|389:154,1,120,2|8,0:0|0:0,0:0:0:0:
265,51,42999,1,2,0:0:0:0:
201,219,43358,6,0,L|208:285,2,60,4|0|2,0:0|0:0|0:0,0:0:0:0:
92,74,44077,2,0,P|63:110|61:187,1,120,8|2,0:0|0:0,0:0:0:0:
216,95,44795,2,0,L|209:35,2,60,4|0|2,0:0|0:0|0:0,0:0:0:0:
343,221,45514,2,0,P|383:226|419:215,1,60,8|0,0:0|0:0,0:0:0:0:
479,174,45873,1,8,0:0:0:0:
300,150,46233,6,0,P|267:187|267:255,1,120,4|2,0:0|0:0,0:0:0:0:
395,130,46951,2,0,B|401:73|401:73|378:13,1,120,8|2,0:0|0:0,0:0:0:0:
205,63,47670,2,0,P|166:70|139:62,1,60,4|0,0:0|0:0,0:0:0:0:
66,25,48029,2,0,B|53:87|53:87|58:148,1,120,2|8,0:0|0:0,0:0:0:0:
80,321,48747,1,2,0:0:0:0:
210,196,49107,6,0,L|204:124,2,60,4|0|2,0:0|0:0|0:0,0:0:0:0:
354,303,49825,2,0,P|403:275|426:207,1,120,8|2,0:0|0:0,0:0:0:0:
291,98,50544,2,0,L|298:31,2,60,4|0|2,0:0|0:0|0:0,0:0:0:0:
133,183,51262,2,0,P|100:184|69:175,1,60,8|0,0:0|0:0,0:0:0:0:
22,102,51622,1,2,0:0:0:0:
199,132,51981,6,0,B|212:190|212:190|194:269,1,120,4|2,0:0|0:0,0:0:0:0:
114,90,52700,2,0,P|147:58|226:45,1,120,8|2,0:0|0:0,0:0:0:0:
369,138,53418,2,0,L|366:204,1,60,4|0,0:0|0:0,0:0:0:0:
363,287,53777,2,0,B|301:305|301:305|228:280,1,120,2|8,0:0|0:0,0:0:0:0:
78,227,54496,1,2,0:0:0:0:
220,116,54855,6,0,L|281:109,2,60,4|0|2,0:0|0:0|0:0,0:0:0:0:
40,132,55574,2,0,P|27:91|58:19,1,120,8|2,0:0|0:0,0:0:0:0:
139,180,56292,2,0,L|130:252,2,60,4|0|2,0:0|0:0|0:0,0:0:0:0:
259,48,57011,2,0,L|321:40,1,60,8|0,0:0|0:0,0:0:0:0:
403,72,57370,1,8,0:0:0:0:
300,219,57730,5,4,0:0:0:0:
418,237,61322,6,0,P|429:287|415:338,2,90,4|0|0,0:0|0:0|0:0,0:0:0:0:
343,185,62040,2,0,L|276:180,1,60,2|0,0:0|0:0,0:0:0:0:
204,222,62399,2,0,P|191:181|198:145,1,60,8|0,0:0|0:0,0:0:0:0:
256,100,62759,6,0,L|349:108,2,90,4|0|0,0:0|0:0|0:0,0:0:0:0:
176,58,63477,2,0,L|109:52,1,60,2|0,0:0|0:0,0:0:0:0:
32,86,63836,2,0,P|23:136|31:163,1,60,8|0,0:0|0:0,0:0:0:0:
89,207,64196,6,0,B|149:224|149:224|232:202,1,120,4|8,0:0|0:0,0:0:0:0:
289,180,64735,1,2,0:0:0:0:
371,214,64914,2,0,P|409:218|451:197,1,60,0|0,3:0|0:0,0:0:0:0:
477,135,65274,2,0,P|481:97|460:55,1,60,0|0,3:0|0:0,0:0:0:0:
396,33,65633,6,0,L|269:49,1,120,4|8,0:0|0:0,0:0:0:0:
187,31,66172,1,2,0:0:0:0:
100,50,66351,2,0,P|81:85|87:124,1,60,0|0,3:0|0:0,0:0:0:0:
167,132,66711,2,0,P|168:170|192:202,1,60,0|0,3:0|0:0,0:0:0:0:
250,241,67070,6,0,B|302:243|302:243|358:227,2,90,4|0|0,0:0|0:0|0:0,0:0:0:0:
165,274,67789,2,0,L|89:273,1,60,2|0,0:0|0:0,0:0:0:0:
37,213,68148,2,0,B|30:182|30:182|40:139,1,60,8|0,0:0|0:0,0:0:0:0:
112,105,68507,6,0,L|105:12,2,90,4|0|0,0:0|0:0|0:0,0:0:0:0:
190,150,69226,2,0,P|220:160|264:149,1,60,2|0,0:0|0:0,0:0:0:0:
330,192,69585,2,0,L|337:132,1,60,8|0,0:0|0:0,0:0:0:0:
402,70,69944,6,0,B|417:120|417:120|409:209,1,120,4|8,0:0|0:0,0:0:0:0:
402,276,70483,1,2,0:0:0:0:
331,332,70663,2,0,L|253:318,1,60,0|0,3:0|0:0,0:0:0:0:
183,335,71022,2,0,P|166:301|166:259,1,60,0|0,3:0|0:0,0:0:0:0:
215,205,71381,6,0,B|228:144|228:144|206:75,1,120,4|8,0:0|0:0,0:0:0:0:
137,36,71920,1,2,0:0:0:0:
55,73,72100,2,0,P|43:105|43:148,1,60,0|0,3:0|0:0,0:0:0:0:
90,204,72459,1,0,3:0:0:0:
90,204,72639,1,8,0:0:0:0:
168,250,72819,6,0,B|275:236,2,90,4|0|0,0:0|0:0|0:0,0:0:0:0:
82,277,73537,2,0,P|69:312|78:352,1,60,2|0,0:0|0:0,0:0:0:0:
159,353,73896,2,0,L|235:344,1,60,8|0,0:0|0:0,0:0:0:0:
303,316,74256,6,0,L|402:327,2,90,4|0|0,0:0|0:0|0:0,0:0:0:0:
256,238,74974,2,0,P|244:194|254:154,1,60,2|0,0:0|0:0,0:0:0:0:
313,121,75333,2,0,P|312:91|301:63,1,60,8|0,0:0|0:0,0:0:0:0:
219,24,75693,6,0,L|90:35,1,120,4|8,0:0|0:0,0:0:0:0:
28,89,76232,1,2,0:0:0:0:
99,144,76411,2,0,P|111:180|103:218,1,60,0|0,3:0|0:0,0:0:0:0:
50,270,76771,2,0,B|45:306|45:306|55:337,1,60,0|0,3:0|0:0,0:0:0:0:
137,357,77130,6,0,P|215:358|272:324,1,120,4|8,0:0|0:0,0:0:0:0:
296,263,77669,1,2,0:0:0:0:
249,186,77848,2,0,L|252:113,1,60,0|0,3:0|0:0,0:0:0:0:
316,63,78208,2,0,B|349:59|349:59|389:66,1,60,0|0,3:0|0:0,0:0:0:0:
443,122,78567,6,0,P|461:86|459:34,2,90,4|0|0,0:0|0:0|0:0,0:0:0:0:
383,191,79286,2,0,L|307:182,1,60,2|0,0:0|0:0,0:0:0:0:
235,163,79645,2,0,P|232:198|247:238,1,60,8|0,0:0|0:0,0:0:0:0:
298,288,80004,6,0,L|391:273,2,90,4|0|0,0:0|0:0|0:0,0:0:0:0:
223,339,80723,2,0,P|186:341|160:328,1,60,2|0,0:0|0:0,0:0:0:0:
76,341,81082,2,0,P|55:310|53:280,1,60,8|0,0:0|0:0,0:0:0:0:
109,217,81441,6,0,P|125:177|101:100,1,120,4|8,0:0|0:0,0:0:0:0:
43,40,81980,1,2,0:0:0:0:
132,25,82160,2,0,B|165:23|165:23|210:31,1,60,0|0,3:0|0:0,0:0:0:0:
249,96,82519,2,0,B|275:100|275:100|308:98,1,60,0|0,3:0|0:0,0:0:0:0:
371,33,82878,6,0,P|398:74|378:161,1,120,4|8,0:0|0:0,0:0:0:0:
317,192,83417,1,2,0:0:0:0:
382,254,83597,2,0,P|387:293|376:321,1,60,0|0,3:0|0:0,0:0:0:0:
299,350,83956,1,0,3:0:0:0:
299,350,84136,1,8,0:0:0:0:
225,298,84316,6,0,B|164:302|164:302|90:291,1,120,4|0,0:0|0:0,0:0:0:0:
208,146,85034,2,0,B|269:142|269:142|344:153,1,120,12|0,0:0|0:0,0:0:0:0:
161,221,85753,2,0,P|128:190|128:97,1,120,4|0,0:0|0:0,0:0:0:0:
270,22,86471,2,0,L|396:31,1,120,12|0,0:0|0:0,0:0:0:0:
413,210,87190,6,0,P|372:231|286:207,1,120,4|2,0:0|0:0,0:0:0:0:
201,70,87908,2,0,B|168:53|168:53|60:65,1,120,12|2,0:0|0:0,0:0:0:0:
23,231,88627,2,0,L|168:214,1,120,4|2,0:0|0:0,0:0:0:0:
303,138,89345,6,0,P|337:129|369:132,1,60,12|0,0:0|0:0,0:0:0:0:
385,217,89705,2,0,P|418:226|444:244,1,60,8|0,0:0|0:0,0:0:0:0:
415,326,90064,6,0,B|360:347|360:347|290:341,1,120,4|2,0:0|0:0,0:0:0:0:
120,321,90783,2,0,P|93:268|103:200,1,120,12|2,0:0|0:0,0:0:0:0:
271,248,91501,2,0,B|281:270|281:270|135:246,1,120,4|2,0:0|0:0,0:0:0:0:
81,109,92220,2,0,P|117:76|199:58,1,120,12|2,0:0|0:0,0:0:0:0:
362,79,92938,6,0,L|377:215,1,120,4|2,0:0|0:0,0:0:0:0:
271,345,93657,2,0,L|256:209,1,120,12|2,0:0|0:0,0:0:0:0:
121,106,94375,2,0,L|135:226,1,120,4|2,0:0|0:0,0:0:0:0:
199,57,95094,6,0,P|169:27|149:19,1,60,12|0,0:0|0:0,0:0:0:0:
64,32,95453,2,0,P|35:63|28:84,1,60,8|0,0:0|0:0,0:0:0:0:
41,169,95813,6,0,L|56:305,1,120,4|2,0:0|0:0,0:0:0:0:
212,203,96531,2,0,P|206:149|157:102,1,120,12|2,0:0|0:0,0:0:0:0:
155,284,97250,2,0,B|214:305|214:305|290:291,1,120,4|2,0:0|0:0,0:0:0:0:
443,247,97968,2,0,L|431:115,1,120,12|0,0:0|0:0,0:0:0:0:
265,57,98687,6,0,P|207:49|137:67,1,120,4|2,0:0|0:0,0:0:0:0:
36,203,99405,2,0,B|46:297|46:297|62:270,1,120,12|2,0:0|0:0,0:0:0:0:
220,194,100124,2,0,P|173:158|104:138,1,120,0|6,0:0|0:0,0:0:0:0:
192,302,100842,6,0,P|231:305|274:298,1,60,12|0,0:0|0:0,0:0:0:0:
328,351,101202,2,0,P|350:318|365:277,1,60,8|0,0:0|0:0,0:0:0:0:
438,257,101561,6,0,B|452:131,1,120,4|2,0:0|0:0,0:0:0:0:
303,33,102280,2,0,P|244:21|178:31,1,120,12|0,0:0|0:0,0:0:0:0:
332,131,102998,2,0,B|320:250,1,120,4|2,0:0|0:0,0:0:0:0:
152,321,103717,2,0,P|92:320|35:300,1,120,12|0,0:0|0:0,0:0:0:0:
105,135,104435,6,0,L|270:152,1,120,4|2,0:0|0:0,0:0:0:0:
399,105,105154,2,0,B|351:71|351:71|263:62,1,120,12|2,0:0|0:0,0:0:0:0:
272,243,105872,2,0,B|332:250|332:250|387:228,1,120,4|2,0:0|0:0,0:0:0:0:
225,147,106591,6,0,P|190:159|172:176,1,60,12|0,0:0|0:0,0:0:0:0:
144,259,106950,2,0,L|149:327,1,60,8|0,0:0|0:0,0:0:0:0:
217,378,107310,6,0,L|370:366,1,120,4|2,0:0|0:0,0:0:0:0:
438,220,108028,2,0,L|318:229,1,120,12|2,0:0|0:0,0:0:0:0:
183,109,108747,2,0,L|336:97,1,120,4|2,0:0|0:0,0:0:0:0:
162,212,109465,6,0,B|100:222|100:222|29:199,1,120,12|0,0:0|0:0,0:0:0:0:
42,26,110184,6,0,P|106:6|188:44,1,120,4|2,0:0|0:0,0:0:0:0:
170,197,110902,2,0,P|120:151|112:61,1,120,12|2,0:0|0:0,0:0:0:0:
255,1,111621,2,0,P|240:66|166:118,1,120,4|2,0:0|0:0,0:0:0:0:
25,123,112339,6,0,L|12:190,1,60,12|0,0:0|0:0,0:0:0:0:
98,214,112699,2,0,L|102:282,1,60,8|0,0:0|0:0,0:0:0:0:
192,283,113058,6,0,B|251:303|251:303|356:268,1,120,4|2,0:0|0:0,0:0:0:0:
472,216,113777,2,0,L|453:83,1,120,12|2,0:0|0:0,0:0:0:0:
304,195,114495,2,0,B|249:213|249:213|190:193,1,120,4|2,0:0|0:0,0:0:0:0:
16,143,115214,2,0,L|154:112,1,120,12|2,0:0|0:0,0:0:0:0:
305,77,115932,6,0,B|365:64|365:64|441:85,1,120,4|2,0:0|0:0,0:0:0:0:
266,166,116651,2,0,B|222:119|222:119|204:44,1,120,12|2,0:0|0:0,0:0:0:0:
363,156,117369,2,0,B|344:217|344:217|288:269,1,120,4|2,0:0|0:0,0:0:0:0:
123,258,118088,6,0,P|106:223|101:192,1,60,12|0,0:0|0:0,0:0:0:0:
12,212,118447,2,0,P|14:173|25:143,1,60,8|0,0:0|0:0,0:0:0:0:
102,113,118807,6,0,B|150:100|150:100|261:113,1,120,4|2,0:0|0:0,0:0:0:0:
357,225,119525,2,0,L|211:207,1,120,12|2,0:0|0:0,0:0:0:0:
292,38,120244,2,0,L|438:56,1,120,4|2,0:0|0:0,0:0:0:0:
244,120,120962,2,0,L|104:101,1,120,12|0,0:0|0:0,0:0:0:0:
82,280,121681,6,0,B|130:320|130:320|222:302,1,120,4|2,0:0|0:0,0:0:0:0:
308,171,122399,2,0,P|336:231|303:308,1,120,12|2,0:0|0:0,0:0:0:0:
204,147,123118,2,0,B|192:87|192:87|204:25,1,120,4|2,0:0|0:0,0:0:0:0:
380,1,123836,6,0,P|387:35|384:63,1,60,12|0,0:0|0:0,0:0:0:0:
456,115,124196,2,0,P|430:138|404:149,1,60,8|0,0:0|0:0,0:0:0:0:
395,237,124555,6,0,P|362:226|314:146,1,120,4|2,0:0|0:0,0:0:0:0:
490,201,125274,2,0,L|483:339,1,120,12|2,0:0|0:0,0:0:0:0:
309,363,125992,2,0,B|243:371|243:371|171:343,1,120,4|2,0:0|0:0,0:0:0:0:
139,179,126711,2,0,B|275:188,1,120,12|0,0:0|0:0,0:0:0:0:
431,140,127429,6,0,L|441:13,1,120,4|2,0:0|0:0,0:0:0:0:
260,3,128148,2,0,L|269:122,1,120,12|2,0:0|0:0,0:0:0:0:
114,166,128866,2,0,L|84:42,1,120,4|2,0:0|0:0,0:0:0:0:
202,186,129585,6,0,P|204:219|199:253,1,60,12|0,0:0|0:0,0:0:0:0:
138,311,129944,2,0,P|105:313|71:307,1,60,8|0,0:0|0:0,0:0:0:0:
26,235,130304,5,4,0:0:0:0:
256,192,130483,12,0,134076,0:0:0:0:
