osu file format v14

[General]
AudioFilename: shortened.mp3
AudioLeadIn: 0
PreviewTime: 60783
Countdown: 0
SampleSet: Soft
StackLeniency: 0.4
Mode: 0
LetterboxInBreaks: 0
WidescreenStoryboard: 0

[Editor]
Bookmarks: 245,11742,34736,57730,61322,84316,130304
DistanceSpacing: 2
BeatDivisor: 4
GridSize: 8
TimelineZoom: 1

[Metadata]
Title:Pitch Fucker
TitleUnicode:Pitch Fucker
Artist:Kraus
ArtistUnicode:Kraus
Creator:dsco
Version:Extreme: Hysteria
Source:
Tags:noise rock experimental indie end tomorrow will
BeatmapID:1186951
BeatmapSetID:559928

[Difficulty]
HPDrainRate:4.3
CircleSize:5.3
OverallDifficulty:8.3
ApproachRate:9.3
SliderMultiplier:2.8
SliderTickRate:1

[Events]
//Background and Video events
0,0,"bg2.jpg",0,0
//Break Periods
2,57930,60768
//Storyboard Layer 0 (Background)
//Storyboard Layer 1 (Fail)
//Storyboard Layer 2 (Pass)
//Storyboard Layer 3 (Foreground)
//Storyboard Sound Samples

[TimingPoints]
245,359.281437125748,4,2,0,75,1,0
34736,-133.333333333333,4,2,0,75,0,0
61322,359.281437125748,4,2,0,75,1,0
84316,-100,4,2,0,65,0,0
130393,-100,4,2,0,25,0,0

[Colours]
Combo1 : 216,202,180
Combo2 : 153,210,228
Combo3 : 255,212,218
Combo4 : 255,245,165

[HitObjects]
134,173,245,6,0,L|298:159,1,140,6|0,0:0|0:0,0:0:0:0:
339,185,514,2,0,L|199:196,1,140,2|0,0:0|0:0,0:0:0:0:
134,173,783,2,0,L|270:161,1,70,2|0,0:0|0:0,0:0:0:0:
339,185,963,5,4,3:0:0:0:
60,208,1143,1,0,3:2:0:0:
339,185,1322,1,8,3:2:0:0:
134,173,1502,1,0,3:2:0:0:
411,211,1682,6,0,P|420:145|389:59,1,140,6|0,0:0|0:0,0:0:0:0:
347,28,1951,2,0,P|391:81|410:148,1,140,2|0,0:0|0:0,0:0:0:0:
411,211,2221,2,0,P|420:167|411:102,1,70,2|0,0:0|0:0,0:0:0:0:
347,28,2400,5,4,3:0:0:0:
392,304,2580,1,0,3:2:0:0:
347,28,2759,1,8,3:2:0:0:
411,211,2939,1,0,3:2:0:0:
139,161,3119,6,0,P|102:159|54:168,1,70,6|0,0:0|0:0,0:0:0:0:
1,145,3298,2,0,P|33:131|67:124,1,70,2|0,0:0|0:0,0:0:0:0:
175,307,3478,1,8,3:2:0:0:
229,76,3658,1,0,2:0:0:0:
212,69,3747,1,0,2:0:0:0:
195,64,3837,5,8,3:0:0:0:
237,119,3927,1,8,3:0:0:0:
307,128,4017,1,8,3:0:0:0:
362,86,4107,1,8,3:0:0:0:
371,16,4197,1,0,3:0:0:0:
338,77,4286,1,0,3:0:0:0:
331,146,4376,1,0,3:0:0:0:
350,213,4466,1,0,3:0:0:0:
393,268,4556,6,0,B|455:236|455:236|484:172|484:172|419:205,1,210,6|0,0:0|0:0,0:0:0:0:
363,330,4915,1,8,3:2:0:0:
121,230,5095,1,0,2:0:0:0:
122,247,5184,1,0,2:0:0:0:
124,264,5274,5,8,3:0:0:0:
193,269,5364,1,8,3:3:0:0:
240,216,5453,1,8,3:3:0:0:
229,147,5544,1,8,3:3:0:0:
170,114,5633,1,0,3:0:0:0:
216,164,5723,1,0,3:0:0:0:
286,172,5813,1,0,3:0:0:0:
344,135,5903,1,0,3:0:0:0:
367,69,5993,6,0,P|343:132|388:207,1,140,6|0,0:0|0:0,0:0:0:0:
435,223,6262,2,0,P|369:204|335:145,1,140,2|0,0:0|0:0,0:0:0:0:
367,69,6532,2,0,P|343:132|361:184,1,70,2|0,0:0|0:0,0:0:0:0:
435,223,6712,5,4,3:0:0:0:
157,189,6891,1,0,3:2:0:0:
435,223,7071,1,8,3:2:0:0:
367,69,7250,1,0,3:2:0:0:
336,359,7430,6,0,L|197:342,1,140,6|0,0:0|0:0,0:0:0:0:
136,305,7700,2,0,L|274:322,1,140,2|0,0:0|0:0,0:0:0:0:
336,359,7969,2,0,L|228:345,1,70,2|0,0:0|0:0,0:0:0:0:
136,305,8149,5,4,3:0:0:0:
405,281,8328,1,0,3:2:0:0:
136,305,8508,1,8,3:2:0:0:
336,359,8688,1,0,3:2:0:0:
99,210,8867,6,0,P|88:171|102:114,1,70,6|0,0:0|0:0,0:0:0:0:
149,101,9047,2,0,P|158:61|185:27,2,46.6666666666667,2|0|0,0:0|0:0|3:0,0:0:0:0:
177,166,9227,1,8,3:2:0:0:
435,59,9406,1,0,0:0:0:0:
417,56,9496,1,0,0:0:0:0:
400,57,9586,5,8,3:0:0:0:
356,111,9676,1,8,3:0:0:0:
290,125,9765,1,8,3:0:0:0:
229,94,9855,1,8,3:0:0:0:
203,31,9945,1,0,3:0:0:0:
264,64,10035,1,0,3:0:0:0:
290,125,10125,1,0,3:0:0:0:
271,192,10215,1,0,3:0:0:0:
213,230,10304,6,0,L|22:199,1,140,6|0,0:0|0:0,0:0:0:0:
11,238,10574,2,0,L|149:260,1,140,2|0,0:0|0:0,0:0:0:0:
213,230,10843,1,2,3:0:0:0:
193,97,11023,5,8,3:2:0:0:
233,363,11203,1,0,3:0:0:0:
213,230,11382,1,0,3:0:0:0:
491,261,11562,1,8,3:2:0:0:
233,363,11742,5,4,0:0:0:0:
223,296,11921,1,2,3:0:0:0:
290,286,12101,1,2,3:0:0:0:
300,353,12280,1,2,3:0:0:0:
111,259,12460,5,12,0:0:0:0:
121,192,12640,1,2,3:0:0:0:
54,182,12819,1,2,3:0:0:0:
44,249,12999,1,2,3:0:0:0:
249,199,13179,5,4,0:0:0:0:
239,132,13358,1,2,3:0:0:0:
306,122,13538,1,2,3:0:0:0:
316,189,13718,1,2,3:0:0:0:
127,95,13897,5,12,0:0:0:0:
137,28,14077,1,2,3:0:0:0:
70,18,14256,1,2,3:0:0:0:
61,85,14436,1,2,3:0:0:0:
256,287,14616,5,4,0:0:0:0:
325,273,14795,1,2,3:0:0:0:
394,259,14975,1,2,3:0:0:0:
462,245,15155,1,2,3:0:0:0:
323,88,15334,5,12,0:0:0:0:
300,154,15514,1,2,3:0:0:0:
278,221,15694,1,2,3:0:0:0:
256,287,15873,1,2,3:0:0:0:
462,245,16053,5,4,0:0:0:0:
416,192,16233,1,2,3:0:0:0:
369,139,16412,1,2,3:0:0:0:
323,87,16592,1,2,3:0:0:0:
256,287,16771,5,12,0:0:0:0:
462,245,16951,1,2,3:0:0:0:
256,287,17131,1,12,0:0:0:0:
462,245,17310,1,2,3:0:0:0:
198,158,17490,5,4,0:0:0:0:
220,91,17670,1,2,3:0:0:0:
151,106,17849,1,2,3:0:0:0:
173,39,18029,1,2,3:0:0:0:
290,211,18209,5,12,0:0:0:0:
268,144,18388,1,2,3:0:0:0:
337,159,18568,1,2,3:0:0:0:
315,92,18747,1,2,3:0:0:0:
198,264,18927,5,4,0:0:0:0:
220,197,19107,1,2,3:0:0:0:
151,212,19286,1,2,3:0:0:0:
173,145,19466,1,2,3:0:0:0:
290,317,19646,5,12,0:0:0:0:
268,250,19825,1,2,3:0:0:0:
337,265,20005,1,2,3:0:0:0:
315,198,20185,1,2,3:0:0:0:
39,138,20364,5,4,0:0:0:0:
108,123,20544,1,2,3:0:0:0:
177,134,20724,1,2,3:0:0:0:
236,170,20903,1,2,3:0:0:0:
126,357,21083,5,12,0:0:0:0:
78,305,21262,1,2,3:0:0:0:
82,235,21442,1,2,3:0:0:0:
133,189,21622,1,2,3:0:0:0:
330,258,21801,5,4,0:0:0:0:
306,324,21981,1,2,3:0:0:0:
239,299,22161,1,2,3:0:0:0:
264,233,22340,1,2,3:0:0:0:
462,306,22520,5,12,0:0:0:0:
427,99,22700,1,2,3:0:0:0:
462,306,22879,1,12,0:0:0:0:
427,99,23059,1,2,3:0:0:0:
331,360,23239,5,4,0:0:0:0:
320,292,23418,1,2,3:0:0:0:
344,227,23598,1,2,3:0:0:0:
333,159,23777,1,2,3:0:0:0:
212,331,23957,5,12,0:0:0:0:
201,263,24137,1,2,3:0:0:0:
255,219,24316,1,2,3:0:0:0:
244,151,24496,1,2,3:0:0:0:
123,323,24676,5,4,0:0:0:0:
112,255,24855,1,2,3:0:0:0:
180,244,25035,1,2,3:0:0:0:
169,176,25215,1,2,3:0:0:0:
48,348,25394,5,12,0:0:0:0:
37,280,25574,1,2,3:0:0:0:
102,305,25753,1,2,3:0:0:0:
91,237,25933,1,2,3:0:0:0:
351,337,26113,5,4,0:0:0:0:
362,269,26292,1,2,3:0:0:0:
351,337,26472,1,2,3:0:0:0:
362,269,26652,1,2,3:0:0:0:
151,265,26831,5,12,0:0:0:0:
140,197,27011,1,2,3:0:0:0:
151,265,27191,1,2,3:0:0:0:
140,197,27370,1,2,3:0:0:0:
351,193,27550,5,4,0:0:0:0:
362,125,27730,1,2,3:0:0:0:
351,193,27909,1,2,3:0:0:0:
362,125,28089,1,2,3:0:0:0:
250,377,28268,5,12,0:0:0:0:
229,172,28448,1,2,3:0:0:0:
250,377,28628,1,12,0:0:0:0:
229,172,28807,1,2,3:0:0:0:
498,245,28987,5,4,0:0:0:0:
432,263,29167,1,2,3:0:0:0:
363,263,29346,1,2,3:0:0:0:
296,245,29526,1,2,3:0:0:0:
178,81,29706,5,12,0:0:0:0:
227,129,29885,1,2,3:0:0:0:
244,195,30065,1,2,3:0:0:0:
226,262,30244,1,2,3:0:0:0:
18,233,30424,5,4,0:0:0:0:
35,166,30604,1,2,3:0:0:0:
94,131,30783,1,2,3:0:0:0:
162,148,30963,1,2,3:0:0:0:
356,223,31143,5,12,0:0:0:0:
339,290,31322,1,2,3:0:0:0:
274,309,31502,1,2,3:0:0:0:
226,262,31682,1,2,3:0:0:0:
425,199,31861,5,4,0:0:0:0:
356,223,32041,1,2,3:0:0:0:
332,154,32221,1,2,3:0:0:0:
401,130,32400,1,2,3:0:0:0:
311,316,32580,5,12,0:0:0:0:
287,247,32759,1,2,3:0:0:0:
356,223,32939,1,2,3:0:0:0:
380,292,33119,1,2,3:0:0:0:
194,202,33298,5,4,0:0:0:0:
263,178,33478,1,2,3:0:0:0:
287,247,33658,1,2,3:0:0:0:
218,271,33837,1,2,3:0:0:0:
308,85,34017,5,12,0:0:0:0:
218,271,34197,1,2,3:0:0:0:
308,85,34376,1,12,0:0:0:0:
218,271,34556,1,2,3:0:0:0:
427,255,34736,6,0,L|218:270,1,210.000008010865,4|0,0:0|0:0,0:0:0:0:
99,96,35454,2,0,L|308:81,1,210.000008010865,8|0,0:0|0:0,0:0:0:0:
216,269,36173,5,0,3:0:0:0:
216,269,36352,1,0,3:0:0:0:
98,95,36532,1,0,0:0:0:0:
366,166,36891,1,8,0:0:0:0:
98,95,37250,1,0,0:0:0:0:
171,363,37610,5,4,0:0:0:0:
171,363,37789,1,0,3:0:0:0:
224,161,37969,1,0,0:0:0:0:
444,320,38328,1,8,0:0:0:0:
171,363,38688,1,0,0:0:0:0:
386,190,39047,5,0,3:0:0:0:
386,190,39227,1,0,3:0:0:0:
181,157,39406,1,0,0:0:0:0:
391,330,39765,1,8,0:0:0:0:
186,362,39945,1,0,3:0:0:0:
386,190,40125,1,8,0:0:0:0:
71,186,40484,5,4,0:0:0:0:
71,186,40664,1,0,3:0:0:0:
186,362,40843,1,0,0:0:0:0:
173,88,41203,1,8,0:0:0:0:
186,362,41562,1,0,0:0:0:0:
416,213,41921,5,0,3:0:0:0:
416,213,42101,1,0,3:0:0:0:
210,222,42280,1,0,0:0:0:0:
426,52,42640,1,8,0:0:0:0:
352,316,42999,1,0,0:0:0:0:
218,77,43358,5,4,0:0:0:0:
218,77,43538,1,0,3:0:0:0:
389,190,43718,1,0,0:0:0:0:
117,203,44077,1,8,0:0:0:0:
330,33,44436,1,0,0:0:0:0:
258,296,44795,5,0,3:0:0:0:
258,296,44975,1,0,3:0:0:0:
248,91,45155,1,0,0:0:0:0:
446,278,45514,1,8,0:0:0:0:
253,193,45694,1,0,3:0:0:0:
490,83,45873,1,8,0:0:0:0:
258,296,46233,6,0,P|186:274|159:142,1,210.000008010865,4|0,0:0|0:0,0:0:0:0:
308,13,46951,2,0,B|325:116|325:116|245:202,1,210.000008010865,8|0,0:0|0:0,0:0:0:0:
44,167,47670,5,0,3:0:0:0:
44,167,47849,1,0,3:0:0:0:
253,193,48029,1,0,0:0:0:0:
3,304,48388,1,8,0:0:0:0:
32,32,48747,1,0,0:0:0:0:
143,283,49107,5,4,0:0:0:0:
143,283,49286,1,0,3:0:0:0:
60,95,49466,1,0,0:0:0:0:
331,200,49825,1,8,0:0:0:0:
66,318,50185,1,0,0:0:0:0:
170,48,50544,5,0,3:0:0:0:
170,48,50724,1,0,3:0:0:0:
173,254,50903,1,0,0:0:0:0:
424,149,51262,1,8,0:0:0:0:
213,149,51442,1,0,3:0:0:0:
431,295,51622,1,8,0:0:0:0:
320,45,51981,5,4,0:0:0:0:
320,45,52161,1,0,3:0:0:0:
318,254,52340,1,0,0:0:0:0:
478,32,52700,1,8,0:0:0:0:
230,145,53059,1,0,0:0:0:0:
452,303,53418,5,0,3:0:0:0:
452,303,53598,1,0,3:0:0:0:
367,116,53777,1,0,0:0:0:0:
118,229,54137,1,8,0:0:0:0:
390,219,54496,1,0,0:0:0:0:
118,229,54855,5,4,0:0:0:0:
118,229,55035,1,0,3:0:0:0:
305,145,55215,1,0,0:0:0:0:
145,365,55574,1,8,0:0:0:0:
35,117,55933,1,0,0:0:0:0:
305,145,56292,5,0,3:0:0:0:
305,145,56472,1,0,3:0:0:0:
119,228,56652,1,0,0:0:0:0:
390,219,57011,1,8,0:0:0:0:
193,144,57191,1,0,3:0:0:0:
312,376,57370,1,8,0:0:0:0:
497,0,57730,5,4,0:0:0:0:
116,304,61322,6,0,B|157:316|157:316|308:288,1,140,6|0,0:0|0:0,0:0:0:0:
321,284,61591,2,0,B|280:272|280:272|129:300,1,140,2|0,0:0|0:0,0:0:0:0:
116,304,61860,2,0,B|157:316|157:316|223:304,1,70,2|0,0:0|0:0,0:0:0:0:
321,284,62040,5,4,3:0:0:0:
49,212,62220,1,0,3:0:0:0:
321,284,62399,1,8,3:2:0:0:
116,304,62579,1,0,3:0:0:0:
370,184,62759,6,0,B|399:155|399:155|265:171,1,140,6|0,0:0|0:0,0:0:0:0:
231,176,63028,2,0,B|202:205|202:205|336:189,1,140,2|0,0:0|0:0,0:0:0:0:
370,184,63298,2,0,B|399:155|399:155|339:161,1,70,2|0,0:0|0:0,0:0:0:0:
231,176,63477,5,4,3:0:0:0:
489,67,63657,1,0,3:0:0:0:
231,176,63836,1,8,3:2:0:0:
370,184,64016,1,0,3:0:0:0:
126,48,64196,6,0,B|120:85|120:85|131:134,1,70,4|0,0:0|0:0,0:0:0:0:
125,186,64375,2,0,B|106:159|106:159|97:123,1,70,2|0,0:0|0:0,0:0:0:0:
307,92,64555,1,8,3:2:0:0:
142,319,64735,1,0,0:0:0:0:
129,308,64824,1,0,0:0:0:0:
116,296,64914,5,8,3:3:0:0:
183,314,65004,1,8,3:3:0:0:
233,264,65094,1,8,3:3:0:0:
214,197,65183,1,8,3:3:0:0:
147,178,65273,1,0,3:3:0:0:
190,230,65363,1,0,3:3:0:0:
259,242,65453,1,0,3:3:0:0:
321,208,65543,1,0,3:3:0:0:
344,142,65633,6,0,B|365:126|391:115|418:113|449:118|476:134|476:134|457:110|429:99|392:106,1,210,4|0,0:0|0:0,0:0:0:0:
321,208,65992,1,8,3:2:0:0:
71,80,66172,1,0,0:0:0:0:
84,68,66261,1,0,0:0:0:0:
99,60,66351,5,8,3:0:0:0:
168,69,66440,1,8,3:0:0:0:
223,111,66531,1,8,3:0:0:0:
292,120,66621,1,8,3:0:0:0:
361,130,66711,1,0,3:0:0:0:
392,66,66801,1,0,3:0:0:0:
343,16,66891,1,0,3:0:0:0:
281,45,66981,1,0,3:0:0:0:
292,120,67070,6,0,P|297:185|233:245,1,140,6|0,0:0|0:0,0:0:0:0:
180,237,67339,2,0,P|247:229|290:176,1,140,2|0,0:0|0:0,0:0:0:0:
292,120,67609,2,0,P|301:166|271:223,1,70,2|0,0:0|0:0,0:0:0:0:
180,237,67789,5,4,3:0:0:0:
451,172,67968,1,0,3:0:0:0:
180,237,68148,1,8,3:2:0:0:
292,120,68327,1,0,3:0:0:0:
18,180,68507,6,0,B|88:190|88:190|155:171,1,140,6|0,0:0|0:0,0:0:0:0:
225,166,68777,2,0,B|155:156|155:156|88:175,1,140,2|0,0:0|0:0,0:0:0:0:
18,180,69046,2,0,L|88:190,1,70,2|0,0:0|0:0,0:0:0:0:
225,166,69226,5,4,3:0:0:0:
6,339,69405,1,0,3:0:0:0:
225,166,69585,1,8,3:2:0:0:
18,180,69765,1,0,3:0:0:0:
252,329,69944,6,0,P|285:336|326:324,1,70,6|0,0:0|0:0,0:0:0:0:
368,276,70124,2,0,L|364:226,2,46.6666666666667,2|0|0,0:0|0:0|3:0,0:0:0:0:
428,313,70304,1,8,3:2:0:0:
193,161,70483,1,0,0:0:0:0:
194,178,70573,1,0,0:0:0:0:
195,195,70662,5,8,3:0:0:0:
247,241,70753,1,8,3:0:0:0:
316,228,70843,1,8,3:0:0:0:
349,167,70933,1,8,3:0:0:0:
322,102,71022,1,0,3:0:0:0:
252,106,71112,1,0,3:0:0:0:
182,111,71202,1,0,3:0:0:0:
112,116,71292,1,0,3:0:0:0:
72,57,71381,6,0,L|234:46,1,140,6|0,0:0|0:0,0:0:0:0:
252,106,71651,2,0,L|414:95,1,140,2|0,0:0|0:0,0:0:0:0:
432,155,71920,1,0,2:0:0:0:
362,33,72100,5,8,3:2:0:0:
234,245,72280,1,0,3:0:0:0:
252,106,72459,1,0,3:0:0:0:
360,365,72639,1,8,3:2:0:0:
82,330,72819,6,0,P|70:264|86:182,1,140,6|0,0:0|0:0,0:0:0:0:
104,126,73088,2,0,P|69:186|57:255,1,140,2|0,0:0|0:0,0:0:0:0:
82,330,73357,2,0,P|70:264|78:209,1,70,2|0,0:0|0:0,0:0:0:0:
104,126,73537,5,4,3:0:0:0:
262,357,73717,1,0,3:0:0:0:
104,126,73896,1,8,3:2:0:0:
82,330,74076,1,0,3:0:0:0:
333,221,74256,6,0,L|355:69,1,140,6|0,0:0|0:0,0:0:0:0:
337,13,74525,2,0,L|316:151,1,140,2|0,0:0|0:0,0:0:0:0:
333,221,74795,2,0,L|350:100,1,70,2|0,0:0|0:0,0:0:0:0:
337,13,74974,5,4,3:0:0:0:
296,290,75154,1,0,3:0:0:0:
337,13,75333,1,8,3:2:0:0:
333,221,75513,1,0,3:0:0:0:
97,77,75693,6,0,B|132:62|132:62|211:73,1,70,6|0,0:0|0:0,0:0:0:0:
233,71,75872,2,0,B|209:49|209:49|171:42,1,70,2|0,0:0|0:0,0:0:0:0:
87,237,76052,1,8,3:2:0:0:
354,152,76232,1,0,0:0:0:0:
349,135,76321,1,0,0:0:0:0:
343,119,76411,5,8,3:0:0:0:
277,98,76501,1,8,3:0:0:0:
218,136,76591,1,8,3:0:0:0:
212,206,76680,1,8,3:0:0:0:
263,255,76771,1,0,3:0:0:0:
242,188,76860,1,0,3:0:0:0:
176,162,76950,1,0,3:0:0:0:
116,197,77039,1,0,3:0:0:0:
49,170,77130,6,0,B|29:155|13:129|9:99|21:67|42:46|42:46|24:84|37:125,1,210,6|0,0:0|0:0,0:0:0:0:
116,197,77489,1,8,3:2:0:0:
332,18,77669,1,0,0:0:0:0:
315,13,77758,1,0,0:0:0:0:
297,12,77848,5,8,3:0:0:0:
302,80,77938,1,8,3:0:0:0:
352,130,78028,1,8,3:0:0:0:
422,136,78118,1,8,3:0:0:0:
479,97,78208,1,0,3:0:0:0:
411,89,78298,1,0,3:0:0:0:
352,130,78388,1,0,3:0:0:0:
334,197,78478,1,0,3:0:0:0:
362,260,78567,6,0,B|388:290|388:290|271:281,1,140,6|0,0:0|0:0,0:0:0:0:
219,295,78836,2,0,B|193:265|193:265|310:274,1,140,2|0,0:0|0:0,0:0:0:0:
362,260,79106,2,0,B|388:290|388:290|335:285,1,70,2|0,0:0|0:0,0:0:0:0:
219,295,79286,5,4,3:0:0:0:
496,320,79465,1,0,3:0:0:0:
219,295,79645,1,8,3:2:0:0:
362,260,79824,1,0,3:0:0:0:
89,326,80004,6,0,P|62:274|64:179,1,140,6|0,0:0|0:0,0:0:0:0:
98,134,80274,2,0,P|68:196|68:266,1,140,2|0,0:0|0:0,0:0:0:0:
89,326,80543,2,0,P|69:292|55:213,1,70,2|0,0:0|0:0,0:0:0:0:
98,134,80723,5,4,3:0:0:0:
352,248,80902,1,0,3:0:0:0:
98,134,81082,1,8,3:2:0:0:
89,326,81262,1,0,3:0:0:0:
352,248,81441,6,0,P|311:237|265:245,1,70,6|0,0:0|0:0,0:0:0:0:
226,280,81621,2,0,P|191:278|157:288,2,46.6666666666667,2|0|0,0:0|0:0|3:0,0:0:0:0:
291,313,81801,1,8,3:2:0:0:
478,106,81980,1,0,0:0:0:0:
462,99,82069,1,0,0:0:0:0:
445,96,82160,5,8,3:0:0:0:
376,110,82250,1,8,3:0:0:0:
308,125,82340,1,8,3:0:0:0:
240,110,82429,1,8,3:0:0:0:
172,96,82520,1,0,3:0:0:0:
240,82,82609,1,0,3:0:0:0:
284,136,82699,1,0,3:0:0:0:
261,202,82789,1,0,3:0:0:0:
191,214,82878,6,0,B|79:202|79:202|124:171,1,140,6|0,0:0|0:0,0:0:0:0:
157,142,83148,2,0,B|179:126|179:126|67:114,1,140,2|0,0:0|0:0,0:0:0:0:
25,58,83417,1,0,3:0:0:0:
157,142,83597,5,8,3:2:0:0:
416,35,83777,1,0,3:0:0:0:
287,89,83956,1,0,3:0:0:0:
395,347,84136,1,8,3:2:0:0:
416,35,84316,5,4,0:0:0:0:
287,89,84495,1,4,0:0:0:0:
416,35,84675,1,4,0:0:0:0:
287,89,84854,1,4,0:0:0:0:
395,347,85034,5,12,0:0:0:0:
341,218,85213,1,4,0:0:0:0:
395,347,85393,1,4,0:0:0:0:
341,218,85572,1,4,0:0:0:0:
83,326,85753,5,4,0:0:0:0:
212,272,85932,1,4,0:0:0:0:
83,326,86112,1,4,0:0:0:0:
212,272,86291,1,4,0:0:0:0:
104,14,86471,5,12,0:0:0:0:
158,143,86650,1,4,0:0:0:0:
104,14,86830,1,4,0:0:0:0:
158,143,87009,1,4,0:0:0:0:
422,45,87190,5,4,0:0:0:0:
284,64,87369,1,4,0:0:0:0:
370,175,87549,1,4,0:0:0:0:
233,194,87729,1,4,0:0:0:0:
508,156,87908,5,12,0:0:0:0:
370,175,88087,1,4,0:0:0:0:
456,286,88267,1,4,0:0:0:0:
319,305,88447,1,4,0:0:0:0:
422,45,88627,5,4,0:0:0:0:
284,64,88806,1,4,0:0:0:0:
370,175,88986,1,4,0:0:0:0:
233,194,89166,1,4,0:0:0:0:
508,156,89345,5,12,0:0:0:0:
233,194,89525,1,4,3:0:0:0:
508,156,89705,1,12,0:0:0:0:
233,194,89884,1,4,3:0:0:0:
456,286,90064,5,4,2:0:0:0:
508,156,90244,1,4,0:0:0:0:
452,28,90423,1,4,0:0:0:0:
402,159,90603,1,4,0:0:0:0:
456,286,90783,5,12,2:0:0:0:
472,146,90963,1,4,0:0:0:0:
358,62,91142,1,4,0:0:0:0:
343,203,91321,1,4,0:0:0:0:
456,286,91501,5,4,2:0:0:0:
435,146,91681,1,4,0:0:0:0:
294,130,91860,1,4,0:0:0:0:
316,271,92040,1,4,0:0:0:0:
456,286,92220,5,12,0:0:0:0:
399,156,92399,1,4,0:0:0:0:
269,213,92579,1,4,0:0:0:0:
326,343,92759,1,4,0:0:0:0:
378,65,92938,5,4,0:0:0:0:
341,200,93118,1,4,0:0:0:0:
476,165,93298,1,4,0:0:0:0:
341,128,93478,1,4,0:0:0:0:
134,319,93657,5,12,0:0:0:0:
171,184,93837,1,4,0:0:0:0:
36,219,94017,1,4,0:0:0:0:
171,256,94197,1,4,0:0:0:0:
378,65,94375,5,4,0:0:0:0:
341,200,94555,1,4,0:0:0:0:
476,165,94735,1,4,0:0:0:0:
341,128,94915,1,4,0:0:0:0:
134,319,95094,5,12,0:0:0:0:
73,45,95274,1,4,3:0:0:0:
134,319,95453,1,12,0:0:0:0:
73,45,95633,1,4,3:0:0:0:
341,128,95813,5,4,0:0:0:0:
204,159,95992,1,4,0:0:0:0:
235,296,96172,1,4,0:0:0:0:
372,265,96351,1,4,0:0:0:0:
67,190,96531,5,12,0:0:0:0:
204,159,96710,1,4,0:0:0:0:
173,22,96890,1,4,0:0:0:0:
36,53,97069,1,4,0:0:0:0:
341,128,97250,5,4,0:0:0:0:
204,159,97429,1,4,0:0:0:0:
235,296,97609,1,4,0:0:0:0:
372,265,97788,1,4,0:0:0:0:
67,190,97968,5,12,0:0:0:0:
204,159,98147,1,4,0:0:0:0:
173,22,98327,1,4,0:0:0:0:
36,53,98506,1,4,0:0:0:0:
98,327,98687,5,4,0:0:0:0:
67,190,98866,1,4,0:0:0:0:
204,159,99046,1,4,0:0:0:0:
173,22,99226,1,4,0:0:0:0:
173,339,99405,5,12,0:0:0:0:
142,202,99585,1,4,0:0:0:0:
283,208,99765,1,4,0:0:0:0:
252,71,99944,1,4,0:0:0:0:
244,351,100124,5,4,0:0:0:0:
213,214,100304,1,4,0:0:0:0:
348,256,100483,1,4,0:0:0:0:
317,119,100663,1,4,0:0:0:0:
244,351,100842,5,12,0:0:0:0:
182,77,101022,1,4,3:0:0:0:
244,351,101202,1,12,0:0:0:0:
182,77,101381,1,4,3:0:0:0:
57,328,101561,5,4,0:0:0:0:
178,256,101741,1,4,0:0:0:0:
212,119,101920,1,4,0:0:0:0:
110,21,102100,1,4,0:0:0:0:
282,242,102280,5,8,0:0:0:0:
314,105,102459,1,4,0:0:0:0:
197,28,102639,1,4,0:0:0:0:
81,108,102819,1,4,0:0:0:0:
355,156,102998,5,0,0:0:0:0:
283,35,103177,1,4,0:0:0:0:
150,85,103357,1,4,0:0:0:0:
176,224,103537,1,4,0:0:0:0:
451,170,103717,5,8,0:0:0:0:
340,83,103896,1,4,0:0:0:0:
253,192,104076,1,4,0:0:0:0:
363,279,104256,1,0,0:0:0:0:
86,317,104435,5,4,0:0:0:0:
104,177,104615,1,4,0:0:0:0:
217,263,104795,1,4,0:0:0:0:
104,177,104975,1,4,0:0:0:0:
330,349,105154,5,12,0:0:0:0:
217,263,105333,1,4,0:0:0:0:
348,208,105514,1,4,0:0:0:0:
217,263,105694,1,4,0:0:0:0:
478,153,105872,5,4,0:0:0:0:
347,208,106052,1,4,0:0:0:0:
365,81,106232,1,4,0:0:0:0:
347,208,106412,1,4,0:0:0:0:
65,171,106591,5,12,0:0:0:0:
347,208,106771,1,4,3:0:0:0:
65,171,106950,1,12,0:0:0:0:
347,208,107130,1,4,3:0:0:0:
108,54,107310,5,4,0:0:0:0:
127,192,107489,1,4,0:0:0:0:
265,173,107669,1,4,0:0:0:0:
284,311,107848,1,4,0:0:0:0:
246,35,108028,5,12,0:0:0:0:
265,173,108207,1,4,0:0:0:0:
127,192,108387,1,4,0:0:0:0:
146,330,108566,1,4,0:0:0:0:
108,54,108747,5,4,0:0:0:0:
127,192,108926,1,4,0:0:0:0:
265,173,109106,1,4,0:0:0:0:
284,311,109285,1,4,0:0:0:0:
246,35,109465,5,12,0:0:0:0:
265,173,109644,1,4,0:0:0:0:
127,192,109824,1,4,0:0:0:0:
146,330,110003,1,4,0:0:0:0:
422,292,110184,5,4,0:0:0:0:
284,311,110363,1,4,0:0:0:0:
146,330,110543,1,4,0:0:0:0:
8,349,110723,1,4,0:0:0:0:
85,80,110902,5,12,0:0:0:0:
223,61,111081,1,4,0:0:0:0:
361,42,111261,1,4,0:0:0:0:
499,23,111441,1,4,0:0:0:0:
422,292,111621,5,4,0:0:0:0:
284,311,111800,1,4,0:0:0:0:
146,330,111980,1,4,0:0:0:0:
8,349,112160,1,4,0:0:0:0:
85,80,112339,5,12,0:0:0:0:
284,311,112519,1,4,3:0:0:0:
85,80,112699,1,12,0:0:0:0:
284,311,112878,1,4,3:0:0:0:
8,349,113058,5,4,0:0:0:0:
47,215,113238,1,4,0:0:0:0:
183,181,113417,1,4,2:0:0:0:
144,315,113597,1,4,0:0:0:0:
222,47,113777,5,12,2:0:0:0:
183,181,113957,1,4,0:0:0:0:
295,263,114136,1,4,0:0:0:0:
334,129,114316,1,4,2:0:0:0:
55,124,114495,5,4,0:0:0:0:
183,181,114675,1,4,0:0:0:0:
149,316,114854,1,4,0:0:0:0:
21,259,115034,1,4,0:0:0:0:
200,43,115214,5,12,0:0:0:0:
183,181,115393,1,4,0:0:0:0:
321,198,115573,1,4,0:0:0:0:
338,60,115753,1,4,0:0:0:0:
304,336,115932,5,4,0:0:0:0:
166,319,116112,1,4,0:0:0:0:
183,181,116292,1,4,0:0:0:0:
200,43,116471,1,4,0:0:0:0:
459,215,116651,5,12,0:0:0:0:
442,353,116831,1,4,0:0:0:0:
304,336,117011,1,4,0:0:0:0:
166,319,117190,1,4,0:0:0:0:
338,60,117369,5,4,0:0:0:0:
476,77,117549,1,4,0:0:0:0:
459,215,117729,1,4,0:0:0:0:
442,353,117908,1,4,0:0:0:0:
166,319,118088,5,12,0:0:0:0:
200,43,118268,1,4,3:0:0:0:
166,319,118447,1,12,0:0:0:0:
200,43,118627,1,4,3:0:0:0:
423,211,118807,5,4,0:0:0:0:
285,194,118986,1,4,0:0:0:0:
302,56,119166,1,4,0:0:0:0:
440,73,119345,1,4,0:0:0:0:
268,332,119525,5,12,0:0:0:0:
285,194,119704,1,4,0:0:0:0:
423,211,119884,1,4,0:0:0:0:
406,349,120063,1,4,0:0:0:0:
147,177,120244,5,4,0:0:0:0:
285,194,120423,1,4,0:0:0:0:
268,332,120603,1,4,0:0:0:0:
130,315,120782,1,4,0:0:0:0:
302,56,120962,5,12,0:0:0:0:
285,194,121141,1,4,0:0:0:0:
147,177,121321,1,4,0:0:0:0:
164,39,121501,1,4,0:0:0:0:
444,40,121681,5,4,0:0:0:0:
306,23,121860,1,4,0:0:0:0:
222,134,122040,1,4,0:0:0:0:
276,262,122220,1,4,0:0:0:0:
168,6,122399,5,12,0:0:0:0:
84,117,122578,1,4,0:0:0:0:
138,245,122758,1,4,0:0:0:0:
276,262,122938,1,4,0:0:0:0:
0,227,123118,5,4,0:0:0:0:
54,355,123297,1,4,0:0:0:0:
192,373,123477,1,4,0:0:0:0:
276,262,123657,1,4,0:0:0:0:
54,355,123836,5,12,0:0:0:0:
91,74,124016,1,4,3:0:0:0:
54,355,124195,1,12,0:0:0:0:
91,74,124375,1,4,3:0:0:0:
316,247,124555,5,4,0:0:0:0:
188,305,124735,1,4,0:0:0:0:
316,247,124914,1,4,0:0:0:0:
188,305,125094,1,4,0:0:0:0:
442,186,125274,5,12,0:0:0:0:
384,58,125454,1,4,0:0:0:0:
442,186,125633,1,4,0:0:0:0:
384,58,125813,1,4,0:0:0:0:
128,169,125992,5,4,0:0:0:0:
256,111,126172,1,4,0:0:0:0:
128,169,126351,1,4,0:0:0:0:
256,111,126531,1,4,0:0:0:0:
0,227,126711,5,12,0:0:0:0:
58,355,126891,1,4,0:0:0:0:
0,227,127070,1,4,0:0:0:0:
58,355,127250,1,4,0:0:0:0:
187,107,127429,5,4,0:0:0:0:
139,239,127609,1,4,0:0:0:0:
48,131,127789,1,4,0:0:0:0:
96,2,127968,1,4,0:0:0:0:
277,214,128148,5,12,0:0:0:0:
187,107,128328,1,4,0:0:0:0:
326,82,128508,1,4,0:0:0:0:
414,188,128687,1,4,0:0:0:0:
139,239,128866,5,4,0:0:0:0:
276,214,129046,1,4,0:0:0:0:
228,347,129226,1,4,0:0:0:0:
93,370,129405,1,4,0:0:0:0:
187,107,129585,5,12,0:0:0:0:
368,320,129765,1,4,3:0:0:0:
187,107,129945,1,12,0:0:0:0:
93,370,130124,1,4,3:0:0:0:
415,99,130304,5,4,0:0:0:0:
256,192,130393,12,0,134076,0:0:0:0:
