osu file format v14

[General]
AudioFilename: shortened.mp3
AudioLeadIn: 0
PreviewTime: 60783
Countdown: 0
SampleSet: Soft
StackLeniency: 0.5
Mode: 0
LetterboxInBreaks: 0
WidescreenStoryboard: 1

[Editor]
Bookmarks: 245,11742,34736,57730,61322,84316,130304
DistanceSpacing: 1.7
BeatDivisor: 4
GridSize: 8
TimelineZoom: 1

[Metadata]
Title:Pitch Fucker
TitleUnicode:Pitch Fucker
Artist:Kraus
ArtistUnicode:Kraus
Creator:dsco
Version:Another: Fright
Source:
Tags:noise rock experimental indie end tomorrow will
BeatmapID:1186952
BeatmapSetID:559928

[Difficulty]
HPDrainRate:4.9
CircleSize:4.9
OverallDifficulty:7.9
ApproachRate:8.9
SliderMultiplier:1.9
SliderTickRate:1

[Events]
//Background and Video events
0,0,"bg2.jpg",0,0
//Break Periods
2,57930,60693
//Storyboard Layer 0 (Background)
//Storyboard Layer 1 (Fail)
//Storyboard Layer 2 (Pass)
//Storyboard Layer 3 (Foreground)
//Storyboard Sound Samples

[TimingPoints]
245,359.281437125748,4,2,0,75,1,0
61322,359.281437125748,4,2,0,75,1,0
84316,-100,4,2,0,65,0,0
130393,-100,4,2,0,25,0,0

[Colours]
Combo1 : 216,202,180
Combo2 : 153,210,228
Combo3 : 255,212,218
Combo4 : 255,245,165

[HitObjects]
180,328,245,6,0,L|174:194,1,95,6|0,0:0|0:0,0:0:0:0:
175,218,514,2,0,B|171:141|171:141|201:163,1,95,2|0,0:0|0:0,0:0:0:0:
196,160,783,2,0,P|229:172|257:173,1,47.5,2|0,0:0|0:0,0:0:0:0:
335,136,963,5,4,3:0:0:0:
294,262,1143,1,0,3:2:0:0:
250,68,1322,1,8,3:2:0:0:
335,136,1502,1,0,3:2:0:0:
184,267,1682,6,0,P|125:266|78:240,1,95,6|0,0:0|0:0,0:0:0:0:
81,243,1951,2,0,P|51:203|40:141,1,95,2|0,0:0|0:0,0:0:0:0:
40,145,2221,2,0,P|50:106|71:77,1,47.5,2|0,0:0|0:0,0:0:0:0:
133,39,2400,5,4,3:0:0:0:
258,83,2580,1,0,3:2:0:0:
184,267,2759,1,8,3:2:0:0:
159,155,2939,1,0,3:2:0:0:
280,313,3119,6,0,P|337:319|400:282,1,95,6|2,0:0|0:0,0:0:0:0:
383,300,3388,1,0,0:0:0:0:
393,290,3478,1,8,3:2:0:0:
257,202,3658,1,0,2:0:0:0:
243,207,3747,1,0,2:0:0:0:
231,213,3837,5,8,3:0:0:0:
200,227,3926,1,8,3:0:0:0:
168,231,4016,1,8,3:0:0:0:
135,227,4106,1,8,3:0:0:0:
105,213,4197,2,0,L|102:161,1,47.5,0|0,3:0|3:0,0:0:0:0:
33,124,4376,2,0,L|29:71,1,47.5,0|0,3:0|3:0,0:0:0:0:
94,26,4556,6,0,B|146:14|146:14|230:24,1,95,6|0,0:0|0:0,0:0:0:0:
201,20,4825,1,0,0:0:0:0:
215,22,4915,1,8,3:2:0:0:
291,164,5095,1,0,0:0:0:0:
305,162,5185,1,0,0:0:0:0:
319,160,5274,5,8,3:0:0:0:
348,144,5364,1,8,3:0:0:0:
366,117,5454,1,8,3:0:0:0:
370,84,5544,1,8,3:0:0:0:
359,54,5634,2,0,P|353:29|355:2,1,47.5,0|0,3:0|3:0,0:0:0:0:
433,22,5813,2,0,P|458:15|485:17,1,47.5,0|0,3:0|3:0,0:0:0:0:
465,95,5993,6,0,B|475:219,1,95,6|0,0:0|0:0,0:0:0:0:
473,203,6262,2,0,P|447:247|378:268,1,95,2|0,0:0|0:0,0:0:0:0:
400,278,6532,2,0,L|344:271,1,47.5,2|0,0:0|0:0,0:0:0:0:
257,304,6712,5,4,3:0:0:0:
376,361,6891,1,0,3:2:0:0:
270,191,7071,1,8,3:2:0:0:
257,304,7250,1,0,3:2:0:0:
381,147,7430,6,0,L|371:27,1,95,6|0,0:0|0:0,0:0:0:0:
372,37,7700,2,0,P|318:22|267:35,1,95,2|0,0:0|0:0,0:0:0:0:
267,35,7969,2,0,P|241:42|207:37,1,47.5,2|0,0:0|0:0,0:0:0:0:
124,8,8149,5,4,3:0:0:0:
174,130,8328,1,0,3:2:0:0:
2,232,8508,1,8,3:2:0:0:
30,121,8688,1,0,3:2:0:0:
187,242,8867,6,0,B|242:248|242:248|322:218,1,95,6|2,0:0|0:0,0:0:0:0:
292,229,9107,2,0,P|292:207|285:192,1,31.6666666666667,0|0,0:0|3:0,0:0:0:0:
305,225,9227,1,8,3:2:0:0:
380,82,9406,1,0,0:0:0:0:
381,68,9496,1,0,0:0:0:0:
382,54,9585,5,8,3:0:0:0:
411,40,9676,1,8,3:0:0:0:
444,39,9765,1,8,3:0:0:0:
475,52,9855,1,8,3:0:0:0:
497,76,9945,2,0,L|494:148,1,47.5,0|0,3:0|3:0,0:0:0:0:
433,177,10125,2,0,L|430:249,1,47.5,0|0,3:0|3:0,0:0:0:0:
369,278,10304,6,0,P|313:292|248:263,1,95,6|0,0:0|0:0,0:0:0:0:
265,276,10574,2,0,P|218:267|173:281,1,95,2|0,0:0|0:0,0:0:0:0:
162,290,10843,1,2,3:0:0:0:
212,96,11023,5,8,3:2:0:0:
133,179,11203,1,0,3:0:0:0:
243,205,11382,1,0,3:0:0:0:
96,69,11562,1,8,3:2:0:0:
52,265,11742,5,4,0:0:0:0:
79,258,11921,1,2,3:0:0:0:
106,251,12101,1,2,3:0:0:0:
133,244,12280,1,2,3:0:0:0:
255,297,12460,5,12,0:0:0:0:
248,270,12639,1,2,3:0:0:0:
241,243,12819,1,2,3:0:0:0:
234,216,12998,1,2,3:0:0:0:
287,94,13180,5,4,0:0:0:0:
260,101,13359,1,2,3:0:0:0:
233,108,13539,1,2,3:0:0:0:
206,115,13718,1,2,3:0:0:0:
84,62,13897,5,12,0:0:0:0:
91,89,14076,1,2,3:0:0:0:
98,116,14256,1,2,3:0:0:0:
105,143,14435,1,2,3:0:0:0:
175,260,14616,5,4,0:0:0:0:
182,233,14795,1,2,3:0:0:0:
189,206,14975,1,2,3:0:0:0:
196,179,15154,1,2,3:0:0:0:
256,60,15334,5,12,0:0:0:0:
263,87,15513,1,2,3:0:0:0:
270,114,15693,1,2,3:0:0:0:
277,141,15872,1,2,3:0:0:0:
345,256,16053,5,4,0:0:0:0:
352,229,16232,1,2,3:0:0:0:
359,202,16412,1,2,3:0:0:0:
366,175,16591,1,2,3:0:0:0:
485,233,16771,6,0,B|496:280|496:280|479:325,1,95,12|2,0:0|3:0,0:0:0:0:
366,175,17131,2,0,B|355:128|355:128|372:83,1,95,12|2,0:0|3:0,0:0:0:0:
298,253,17490,5,4,0:0:0:0:
307,279,17670,1,2,3:0:0:0:
316,305,17849,1,2,3:0:0:0:
325,331,18029,1,2,3:0:0:0:
405,225,18208,5,12,0:0:0:0:
396,199,18388,1,2,3:0:0:0:
387,173,18568,1,2,3:0:0:0:
378,147,18748,1,2,3:0:0:0:
249,116,18927,5,4,0:0:0:0:
258,142,19107,1,2,3:0:0:0:
267,168,19286,1,2,3:0:0:0:
276,194,19466,1,2,3:0:0:0:
361,92,19646,5,12,0:0:0:0:
352,66,19826,1,2,3:0:0:0:
343,40,20005,1,2,3:0:0:0:
334,17,20185,1,2,3:0:0:0:
202,2,20364,5,4,0:0:0:0:
176,11,20544,1,2,3:0:0:0:
150,20,20723,1,2,3:0:0:0:
127,29,20903,1,2,3:0:0:0:
180,151,21083,5,12,0:0:0:0:
185,124,21263,1,2,3:0:0:0:
190,97,21442,1,2,3:0:0:0:
194,72,21622,1,2,3:0:0:0:
63,50,21801,5,4,0:0:0:0:
84,68,21981,1,2,3:0:0:0:
105,86,22160,1,2,3:0:0:0:
125,102,22340,1,2,3:0:0:0:
112,263,22520,6,0,B|64:273|64:273|10:246,1,95,12|0,0:0|3:0,3:0:0:0:
169,189,22879,2,0,B|217:179|217:179|271:206,1,95,12|0,0:0|3:0,3:0:0:0:
193,340,23239,5,4,0:0:0:0:
198,312,23418,1,2,3:0:0:0:
203,284,23598,1,2,3:0:0:0:
208,256,23777,1,2,3:0:0:0:
330,309,23957,5,12,0:0:0:0:
320,283,24136,1,2,3:0:0:0:
310,256,24316,1,2,3:0:0:0:
301,229,24496,1,2,3:0:0:0:
433,213,24676,5,4,0:0:0:0:
411,196,24856,1,2,3:0:0:0:
389,177,25036,1,2,3:0:0:0:
368,158,25215,1,2,3:0:0:0:
474,78,25394,5,12,0:0:0:0:
446,74,25574,1,2,3:0:0:0:
418,69,25754,1,2,3:0:0:0:
390,63,25933,1,2,3:0:0:0:
285,147,26114,5,4,0:0:0:0:
313,142,26293,1,2,3:0:0:0:
341,138,26473,1,2,3:0:0:0:
368,132,26652,1,2,3:0:0:0:
473,216,26831,5,12,0:0:0:0:
445,211,27010,1,2,3:0:0:0:
417,207,27190,1,2,3:0:0:0:
390,202,27370,1,2,3:0:0:0:
285,285,27551,5,4,0:0:0:0:
313,280,27730,1,2,3:0:0:0:
341,276,27910,1,2,3:0:0:0:
368,270,28089,1,2,3:0:0:0:
253,156,28268,6,0,L|230:250,1,95,12|0,0:0|3:0,3:0:0:0:
345,362,28628,2,0,L|367:269,1,95,12|0,0:0|3:0,3:0:0:0:
333,131,28987,5,4,0:0:0:0:
307,139,29167,1,2,3:0:0:0:
280,148,29346,1,2,3:0:0:0:
253,156,29526,1,2,3:0:0:0:
225,286,29706,5,4,0:0:0:0:
217,260,29886,1,2,3:0:0:0:
208,233,30065,1,2,3:0:0:0:
200,206,30245,1,2,3:0:0:0:
71,172,30424,5,4,0:0:0:0:
97,164,30604,1,2,3:0:0:0:
124,155,30783,1,2,3:0:0:0:
151,147,30963,1,2,3:0:0:0:
179,17,31143,5,4,0:0:0:0:
187,43,31323,1,2,3:0:0:0:
196,70,31502,1,2,3:0:0:0:
204,97,31682,1,2,3:0:0:0:
127,204,31861,5,4,0:0:0:0:
135,231,32041,1,2,3:0:0:0:
143,258,32220,1,2,3:0:0:0:
153,284,32400,1,2,3:0:0:0:
279,325,32580,5,12,0:0:0:0:
299,305,32760,1,2,3:0:0:0:
319,285,32939,1,2,3:0:0:0:
336,263,33119,1,2,3:0:0:0:
308,133,33298,5,4,0:0:0:0:
281,126,33478,1,2,3:0:0:0:
254,119,33658,1,2,3:0:0:0:
227,112,33837,1,2,3:0:0:0:
368,190,34017,6,0,B|390:146|390:146|372:67,1,95,12|0,0:0|3:0,0:0:0:0:
238,23,34376,2,0,B|216:67|216:67|234:146,1,95,12|0,0:0|3:0,0:0:0:0:
272,233,34736,6,0,P|332:290|437:270,1,190,4|0,0:0|0:0,0:0:0:0:
431,274,35454,2,0,L|439:156,1,95,8|0,0:0|0:0,0:0:0:0:
446,45,35813,1,0,0:0:0:0:
207,163,36173,5,0,3:0:0:0:
207,163,36352,1,0,3:0:0:0:
339,153,36532,1,0,0:0:0:0:
93,254,36891,2,0,B|-2:246|-2:246|61:152,1,190,8|0,0:0|0:0,0:0:0:0:
256,344,37610,5,4,0:0:0:0:
256,344,37789,1,0,3:0:0:0:
226,223,37969,1,0,0:0:0:0:
468,332,38328,2,0,B|496:283|496:283|336:291,1,190,8|0,0:0|0:0,0:0:0:0:
96,310,39047,5,0,3:0:0:0:
96,310,39227,1,0,3:0:0:0:
114,178,39406,1,0,0:0:0:0:
357,71,39765,2,0,P|370:122|356:180,1,95,8|0,0:0|3:0,0:0:0:0:
244,225,40125,1,8,0:0:0:0:
462,376,40484,5,4,0:0:0:0:
462,376,40664,1,0,3:0:0:0:
416,251,40843,1,0,0:0:0:0:
161,329,41203,2,0,P|78:324|27:219,1,190,8|0,0:0|0:0,0:0:0:0:
264,122,41921,5,0,3:0:0:0:
264,122,42101,1,0,3:0:0:0:
141,71,42280,1,0,0:0:0:0:
300,280,42640,2,0,L|491:253,1,190,8|0,0:0|0:0,0:0:0:0:
370,14,43358,5,4,0:0:0:0:
370,14,43538,1,0,3:0:0:0:
456,115,43718,1,0,0:0:0:0:
198,48,44077,2,0,B|105:24|105:24|8:48,1,190,8|0,0:0|0:0,0:0:0:0:
192,243,44795,5,0,3:0:0:0:
192,243,44975,1,0,3:0:0:0:
61,218,45155,1,0,0:0:0:0:
285,361,45514,2,0,B|305:314|305:314|298:253,1,95,8|0,0:0|3:0,0:0:0:0:
284,138,45873,1,8,0:0:0:0:
37,43,46233,6,0,B|20:86|20:86|196:62,1,190,4|0,0:0|0:0,0:0:0:0:
162,66,46951,2,0,L|293:47,1,95,8|0,0:0|0:0,0:0:0:0:
388,35,47310,1,0,0:0:0:0:
187,210,47670,5,0,3:0:0:0:
187,210,47849,1,0,3:0:0:0:
310,260,48029,1,0,0:0:0:0:
47,304,48388,2,0,B|29:212|29:212|36:105,1,190,8|0,0:0|0:0,0:0:0:0:
265,260,49107,5,4,0:0:0:0:
265,260,49286,1,0,3:0:0:0:
160,343,49466,1,0,0:0:0:0:
401,231,49825,2,0,P|422:149|343:55,1,190,8|0,0:0|0:0,0:0:0:0:
303,324,50544,5,0,3:0:0:0:
303,324,50724,1,0,3:0:0:0:
429,363,50903,1,0,0:0:0:0:
266,152,51262,2,0,B|216:133|216:133|152:143,1,95,8|0,0:0|3:0,0:0:0:0:
42,161,51622,1,8,0:0:0:0:
308,226,51981,5,4,0:0:0:0:
308,226,52161,1,0,3:0:0:0:
330,95,52340,1,0,0:0:0:0:
153,294,52700,2,0,B|176:336|176:336|333:350,1,190,8|0,0:0|0:0,0:0:0:0:
159,143,53418,5,0,3:0:0:0:
159,143,53598,1,0,3:0:0:0:
32,181,53777,1,0,0:0:0:0:
297,207,54137,2,0,L|314:12,1,190,8|0,0:0|0:0,0:0:0:0:
161,237,54855,5,4,0:0:0:0:
161,237,55035,1,0,3:0:0:0:
141,105,55215,1,0,0:0:0:0:
282,329,55574,2,0,B|419:318|419:318|380:281,1,190,8|0,0:0|0:0,0:0:0:0:
117,245,56292,5,0,3:0:0:0:
117,245,56472,1,0,3:0:0:0:
164,369,56652,1,0,0:0:0:0:
308,146,57011,2,0,P|308:84|278:31,1,95,8|0,0:0|3:0,0:0:0:0:
170,8,57370,1,8,0:0:0:0:
313,300,57730,5,4,0:0:0:0:
50,64,61322,6,0,L|158:59,1,95,6|0,0:0|0:0,0:0:0:0:
154,69,61591,2,0,L|262:64,1,95,2|0,0:0|0:0,0:0:0:0:
258,74,61860,2,0,L|326:70,1,47.5,2|0,0:0|0:0,0:0:0:0:
396,26,62040,5,4,3:0:0:0:
348,150,62220,1,0,3:0:0:0:
490,288,62399,1,8,3:2:0:0:
471,175,62579,1,0,3:0:0:0:
387,356,62759,6,0,P|320:365|273:353,1,95,6|0,0:0|0:0,0:0:0:0:
280,365,63028,2,0,P|217:339|182:305,1,95,2|0,0:0|0:0,0:0:0:0:
182,319,63298,2,0,P|153:287|134:249,1,47.5,2|0,0:0|0:0,0:0:0:0:
172,186,63477,5,4,3:0:0:0:
68,270,63657,1,0,3:0:0:0:
129,80,63836,1,8,3:2:0:0:
172,186,64016,1,0,3:0:0:0:
339,77,64196,6,0,P|405:62|470:70,1,95,4|2,0:0|0:0,0:0:0:0:
445,65,64465,1,0,0:0:0:0:
458,68,64555,1,8,3:2:0:0:
408,222,64735,1,0,0:0:0:0:
393,219,64824,1,0,0:0:0:0:
379,217,64914,5,8,3:3:0:0:
350,233,65003,1,8,3:3:0:0:
317,239,65093,1,8,3:3:0:0:
284,235,65183,1,8,3:3:0:0:
254,222,65274,2,0,P|241:193|237:161,1,47.5,0|0,3:3|3:3,0:0:0:0:
163,145,65453,2,0,P|165:112|178:83,1,47.5,0|0,3:3|3:3,0:0:0:0:
228,41,65633,6,0,L|351:39,1,95,4|0,0:0|0:0,0:0:0:0:
337,38,65902,1,0,0:0:0:0:
351,38,65992,1,8,3:2:0:0:
436,175,66172,1,0,0:0:0:0:
440,188,66261,1,0,0:0:0:0:
441,202,66351,5,8,3:0:0:0:
410,215,66440,1,8,3:0:0:0:
379,228,66530,1,8,3:0:0:0:
349,220,66620,1,8,3:0:0:0:
318,207,66711,2,0,B|291:198|291:198|247:208,1,47.5,0|0,3:0|3:0,0:0:0:0:
194,221,66890,2,0,B|176:225|176:225|148:215,1,47.5,0|0,3:0|3:0,0:0:0:0:
72,185,67070,6,0,P|54:135|76:69,1,95,6|0,0:0|0:0,0:0:0:0:
66,81,67339,2,0,L|202:62,1,95,2|0,0:0|0:0,0:0:0:0:
171,77,67609,2,0,L|249:66,1,47.5,2|0,0:0|0:0,0:0:0:0:
318,56,67789,5,4,3:0:0:0:
247,166,67968,1,0,3:0:0:0:
444,141,68148,1,8,3:2:0:0:
391,242,68327,1,0,3:0:0:0:
318,56,68507,6,0,B|268:42|268:42|200:50,1,95,6|0,0:0|0:0,0:0:0:0:
211,49,68777,2,0,B|159:56|159:56|100:91,1,95,2|0,0:0|0:0,0:0:0:0:
110,85,69046,2,0,L|66:112,1,47.5,2|0,0:0|0:0,0:0:0:0:
36,205,69226,5,4,3:0:0:0:
85,329,69405,1,0,3:0:0:0:
260,233,69585,1,8,3:2:0:0:
146,221,69765,1,0,3:0:0:0:
295,351,69944,6,0,P|349:363|403:343,1,95,6|2,0:0|0:0,0:0:0:0:
399,346,70184,2,0,P|401:329|398:311,1,31.6666666666667,0|0,0:0|3:0,0:0:0:0:
411,339,70304,1,8,3:2:0:0:
354,188,70483,1,0,0:0:0:0:
351,201,70572,1,0,0:0:0:0:
353,215,70663,5,8,3:0:0:0:
379,234,70752,1,8,3:0:0:0:
411,243,70842,1,8,3:0:0:0:
444,240,70932,1,8,3:0:0:0:
475,227,71022,2,0,L|478:174,1,47.5,0|0,3:0|3:0,0:0:0:0:
416,125,71202,2,0,L|419:72,1,47.5,0|0,3:0|3:0,0:0:0:0:
357,23,71381,6,0,B|307:14|307:14|245:21,1,95,6|0,0:0|0:0,0:0:0:0:
249,23,71651,2,0,B|205:27|205:27|155:18,1,95,2|0,0:0|0:0,0:0:0:0:
141,14,71920,1,0,2:0:0:0:
166,212,72100,5,8,3:2:0:0:
54,223,72280,1,0,3:0:0:0:
43,111,72459,1,0,3:0:0:0:
241,86,72639,1,8,3:2:0:0:
266,284,72819,6,0,L|144:298,1,95,6|0,0:0|0:0,0:0:0:0:
157,298,73088,2,0,B|135:254|135:254|147:181,1,95,2|0,0:0|0:0,0:0:0:0:
145,194,73357,2,0,B|148:171|148:171|137:149,1,47.5,2|0,0:0|0:0,0:0:0:0:
43,111,73537,5,4,3:0:0:0:
173,84,73717,1,0,3:0:0:0:
34,226,73896,1,8,3:2:0:0:
43,111,74076,1,0,3:0:0:0:
232,173,74256,6,0,P|284:178|367:164,1,95,6|0,0:0|0:0,0:0:0:0:
339,173,74525,2,0,B|369:167|402:153|402:153|390:186,1,95,2|0,0:0|0:0,0:0:0:0:
387,195,74795,2,0,P|383:224|388:256,1,47.5,2|0,0:0|0:0,0:0:0:0:
461,295,74974,5,4,3:0:0:0:
344,359,75154,1,0,3:0:0:0:
478,212,75333,1,8,3:2:0:0:
461,98,75513,1,0,3:0:0:0:
298,214,75693,6,0,B|247:222|247:222|193:206,1,95,6|2,0:0|0:0,0:0:0:0:
191,205,75962,1,0,0:0:0:0:
177,201,76052,1,8,3:2:0:0:
78,72,76232,1,0,0:0:0:0:
92,76,76322,1,0,0:0:0:0:
106,80,76412,5,8,3:0:0:0:
138,70,76501,1,8,3:0:0:0:
171,61,76591,1,8,3:0:0:0:
203,51,76681,1,8,3:0:0:0:
236,42,76771,2,0,L|311:58,1,47.5,0|0,3:0|3:0,0:0:0:0:
339,109,76950,2,0,L|385:99,1,47.5,0|0,3:0|3:0,0:0:0:0:
463,73,77130,6,0,P|479:125|460:188,1,95,6|0,0:0|0:0,0:0:0:0:
466,177,77399,1,0,0:0:0:0:
458,189,77489,1,8,3:2:0:0:
305,242,77669,1,0,0:0:0:0:
291,245,77758,1,0,0:0:0:0:
277,245,77848,5,8,3:0:0:0:
256,218,77937,1,8,3:0:0:0:
245,187,78027,1,8,3:0:0:0:
245,154,78117,1,8,3:0:0:0:
256,123,78208,2,0,P|266:99|265:70,1,47.5,0|0,3:0|3:0,0:0:0:0:
188,55,78387,2,0,P|178:30|156:11,1,47.5,0|0,3:0|3:0,0:0:0:0:
91,55,78567,6,0,P|67:45|0:72,1,95,6|0,0:0|0:0,0:0:0:0:
1,79,78836,2,0,L|9:179,1,95,2|0,0:0|0:0,0:0:0:0:
11,187,79106,2,0,B|13:213|13:213|30:238,1,47.5,2|0,0:0|0:0,0:0:0:0:
124,250,79286,5,4,3:0:0:0:
11,320,79465,1,0,3:0:0:0:
104,143,79645,1,8,3:2:0:0:
55,40,79824,1,0,3:0:0:0:
190,186,80004,6,0,P|239:196|291:182,1,95,6|0,0:0|0:0,0:0:0:0:
295,180,80274,2,0,P|330:150|351:99,1,95,2|0,0:0|0:0,0:0:0:0:
352,92,80543,2,0,P|351:59|342:33,1,47.5,2|0,0:0|0:0,0:0:0:0:
250,15,80723,5,4,3:0:0:0:
152,104,80902,1,0,3:0:0:0:
352,92,81082,1,8,3:2:0:0:
255,153,81262,1,0,3:0:0:0:
305,345,81441,6,0,P|318:283|304:242,1,95,6|2,0:0|0:0,0:0:0:0:
303,240,81681,2,0,P|276:234|257:236,1,31.6666666666667
295,227,81801,1,8,3:2:0:0:
141,178,81980,1,0,0:0:0:0:
136,164,82069,1,0,0:0:0:0:
135,150,82160,5,8,3:0:0:0:
161,130,82249,1,8,3:0:0:0:
193,121,82339,1,8,3:0:0:0:
226,123,82429,1,8,3:0:0:0:
257,136,82519,2,0,P|286:142|313:138,1,47.5,0|0,3:0|3:0,0:0:0:0:
372,94,82699,2,0,P|395:92|418:97,1,47.5,0|0,3:0|3:0,0:0:0:0:
471,159,82878,6,0,B|478:209|478:209|461:276,1,95,6|0,0:0|0:0,0:0:0:0:
461,265,83148,2,0,P|411:284|347:263,1,95,2|0,0:0|0:0,0:0:0:0:
357,272,83417,1,0,3:0:0:0:
193,368,83597,5,8,3:2:0:0:
245,266,83777,1,0,3:0:0:0:
182,169,83956,1,0,3:0:0:0:
193,368,84136,1,8,3:2:0:0:
15,276,84316,5,4,0:0:0:0:
52,274,84495,1,4,0:0:0:0:
90,272,84675,1,4,0:0:0:0:
128,271,84854,1,4,0:0:0:0:
275,343,85035,5,12,0:0:0:0:
237,345,85214,1,4,0:0:0:0:
199,346,85394,1,4,0:0:0:0:
161,348,85573,1,4,0:0:0:0:
123,190,85753,5,4,0:0:0:0:
161,189,85932,1,4,0:0:0:0:
199,187,86112,1,4,0:0:0:0:
237,186,86291,1,4,0:0:0:0:
383,257,86472,5,12,0:0:0:0:
345,259,86651,1,4,0:0:0:0:
307,260,86831,1,4,0:0:0:0:
269,262,87010,1,4,0:0:0:0:
231,104,87190,5,4,0:0:0:0:
269,103,87369,1,4,0:0:0:0:
307,101,87549,1,4,0:0:0:0:
345,100,87728,1,4,0:0:0:0:
209,188,87908,5,12,0:0:0:0:
189,155,88087,1,4,0:0:0:0:
168,123,88267,1,4,0:0:0:0:
148,91,88446,1,4,0:0:0:0:
292,164,88627,5,4,0:0:0:0:
273,198,88806,1,4,0:0:0:0:
256,232,88986,1,4,0:0:0:0:
238,266,89165,1,4,0:0:0:0:
415,335,89345,6,0,L|515:316,1,95,12|0,0:0|3:0,0:0:0:0:
478,128,89705,2,0,L|384:145,1,95,12|0,0:0|3:0,0:0:0:0:
238,266,90064,5,4,2:0:0:0:
277,260,90244,1,4,0:0:0:0:
316,254,90423,1,4,0:0:0:0:
355,248,90603,1,4,0:0:0:0:
199,272,90783,5,12,2:0:0:0:
238,266,90963,1,4,0:0:0:0:
277,260,91142,1,4,0:0:0:0:
316,254,91322,1,4,0:0:0:0:
160,278,91501,5,4,2:0:0:0:
199,272,91681,1,4,0:0:0:0:
238,266,91860,1,4,0:0:0:0:
277,260,92040,1,4,0:0:0:0:
121,284,92220,5,12,0:0:0:0:
160,278,92400,1,4,0:0:0:0:
199,272,92579,1,4,0:0:0:0:
238,266,92759,1,4,0:0:0:0:
80,234,92938,5,4,0:0:0:0:
86,273,93118,1,4,0:0:0:0:
92,312,93297,1,4,0:0:0:0:
98,351,93477,1,4,0:0:0:0:
238,266,93657,5,12,0:0:0:0:
232,227,93837,1,4,0:0:0:0:
226,188,94016,1,4,0:0:0:0:
220,149,94196,1,4,0:0:0:0:
62,117,94375,5,4,0:0:0:0:
68,156,94555,1,4,0:0:0:0:
74,195,94734,1,4,0:0:0:0:
80,234,94914,1,4,0:0:0:0:
220,149,95094,6,0,L|209:42,1,95,12|0,0:0|3:0,3:0:0:0:
52,22,95453,2,0,L|61:116,1,95,12|0,0:0|3:0,3:0:0:0:
167,239,95813,5,4,0:0:0:0:
203,232,95993,1,4,0:0:0:0:
239,225,96172,1,4,0:0:0:0:
275,218,96351,1,4,0:0:0:0:
408,309,96531,5,12,0:0:0:0:
401,273,96711,1,4,0:0:0:0:
394,237,96890,1,4,0:0:0:0:
387,201,97070,1,4,0:0:0:0:
478,68,97250,5,4,0:0:0:0:
442,75,97430,1,4,0:0:0:0:
406,82,97609,1,4,0:0:0:0:
370,89,97789,1,4,0:0:0:0:
240,1,97968,5,12,0:0:0:0:
247,37,98148,1,4,0:0:0:0:
254,73,98327,1,4,0:0:0:0:
261,109,98507,1,4,0:0:0:0:
115,179,98687,5,4,0:0:0:0:
122,143,98867,1,4,0:0:0:0:
129,107,99046,1,4,0:0:0:0:
136,71,99226,1,4,0:0:0:0:
249,185,99405,5,12,0:0:0:0:
256,221,99585,1,4,0:0:0:0:
263,257,99764,1,4,0:0:0:0:
270,293,99944,1,4,0:0:0:0:
124,363,100124,5,4,0:0:0:0:
131,327,100304,1,4,0:0:0:0:
138,291,100483,1,4,0:0:0:0:
145,255,100663,1,4,0:0:0:0:
270,293,100842,6,0,P|322:299|371:266,1,95,12|2,0:0|3:0,3:0:0:0:
338,118,101202,2,0,P|286:112|237:145,1,95,12|2,0:0|3:0,3:0:0:0:
145,255,101561,5,4,0:0:0:0:
107,251,101740,1,4,0:0:0:0:
69,247,101920,1,4,0:0:0:0:
31,244,102099,1,4,0:0:0:0:
159,143,102280,5,8,0:0:0:0:
163,105,102459,1,4,0:0:0:0:
166,67,102639,1,4,0:0:0:0:
170,29,102818,1,4,0:0:0:0:
271,156,102998,5,0,0:0:0:0:
309,160,103177,1,4,0:0:0:0:
347,163,103357,1,4,0:0:0:0:
385,167,103536,1,4,0:0:0:0:
258,268,103717,5,8,0:0:0:0:
254,306,103896,1,4,0:0:0:0:
251,344,104076,1,4,0:0:0:0:
247,382,104255,1,0,0:0:0:0:
100,310,104436,5,4,0:0:0:0:
104,272,104615,1,4,0:0:0:0:
107,234,104795,1,4,0:0:0:0:
111,196,104974,1,4,0:0:0:0:
269,154,105154,5,12,0:0:0:0:
265,192,105333,1,4,0:0:0:0:
262,230,105513,1,4,0:0:0:0:
258,268,105692,1,0,0:0:0:0:
111,196,105872,5,4,0:0:0:0:
115,158,106051,1,4,0:0:0:0:
118,120,106231,1,4,0:0:0:0:
122,82,106410,1,0,0:0:0:0:
266,173,106591,6,0,B|226:205|226:205|183:210,1,95,0|12,3:0|0:0,3:0:0:0:
27,233,106950,2,0,B|67:201|67:201|110:196,1,95,0|12,3:0|0:0,3:0:0:0:
227,312,107310,5,4,0:0:0:0:
217,274,107489,1,4,0:0:0:0:
207,236,107669,1,4,0:0:0:0:
197,198,107848,1,4,0:0:0:0:
113,342,108028,5,12,0:0:0:0:
151,332,108207,1,4,0:0:0:0:
189,322,108387,1,4,0:0:0:0:
227,312,108566,1,4,0:0:0:0:
83,228,108747,5,4,0:0:0:0:
93,266,108926,1,4,0:0:0:0:
103,304,109106,1,4,0:0:0:0:
113,342,109285,1,4,0:0:0:0:
197,198,109465,5,12,0:0:0:0:
159,208,109644,1,4,0:0:0:0:
121,218,109824,1,4,0:0:0:0:
83,228,110003,1,4,0:0:0:0:
235,188,110184,5,4,0:0:0:0:
197,178,110363,1,4,0:0:0:0:
159,168,110543,1,4,0:0:0:0:
121,158,110722,1,4,0:0:0:0:
277,115,110902,5,12,0:0:0:0:
287,153,111081,1,4,0:0:0:0:
298,191,111261,1,4,0:0:0:0:
308,229,111440,1,4,0:0:0:0:
192,115,111621,5,4,0:0:0:0:
220,87,111800,1,4,0:0:0:0:
248,59,111980,1,4,0:0:0:0:
275,31,112159,1,4,0:0:0:0:
201,209,112339,6,0,L|190:103,1,95,12|0,0:0|3:0,3:0:0:0:
61,81,112699,2,0,L|70:175,1,95,12|0,0:0|3:0,3:0:0:0:
123,299,113058,5,4,0:0:0:0:
159,308,113237,1,4,0:0:0:0:
196,318,113417,1,4,2:0:0:0:
233,328,113596,1,4,0:0:0:0:
358,223,113777,5,12,2:0:0:0:
322,232,113956,1,4,0:0:0:0:
285,242,114136,1,4,0:0:0:0:
248,252,114315,1,4,2:0:0:0:
123,147,114495,5,4,0:0:0:0:
159,156,114674,1,4,0:0:0:0:
196,166,114854,1,4,0:0:0:0:
233,176,115033,1,4,0:0:0:0:
358,71,115214,5,12,0:0:0:0:
322,80,115393,1,4,0:0:0:0:
285,90,115573,1,4,0:0:0:0:
248,100,115752,1,4,0:0:0:0:
111,13,115932,5,4,0:0:0:0:
120,49,116111,1,4,0:0:0:0:
130,86,116291,1,4,0:0:0:0:
140,123,116470,1,4,0:0:0:0:
53,260,116651,5,12,0:0:0:0:
89,251,116830,1,4,0:0:0:0:
126,241,117010,1,4,0:0:0:0:
163,231,117189,1,4,0:0:0:0:
300,318,117369,5,4,0:0:0:0:
291,282,117548,1,4,0:0:0:0:
281,245,117728,1,4,0:0:0:0:
271,208,117908,1,4,0:0:0:0:
112,245,118088,6,0,P|74:258|9:248,1,95,12|0,0:0|3:0,3:0:0:0:
67,97,118447,2,0,P|105:84|170:94,1,95,12|0,0:0|3:0,3:0:0:0:
271,208,118807,5,4,0:0:0:0:
308,212,118986,1,4,0:0:0:0:
346,217,119166,1,4,0:0:0:0:
384,221,119345,1,4,0:0:0:0:
274,102,119525,5,12,0:0:0:0:
236,98,119704,1,4,0:0:0:0:
198,93,119884,1,4,0:0:0:0:
160,89,120063,1,4,0:0:0:0:
119,246,120244,5,4,0:0:0:0:
157,251,120423,1,4,0:0:0:0:
194,255,120603,1,4,0:0:0:0:
232,260,120782,1,4,0:0:0:0:
122,140,120962,5,12,0:0:0:0:
84,136,121141,1,4,0:0:0:0:
46,131,121321,1,4,0:0:0:0:
8,127,121500,1,4,0:0:0:0:
150,204,121681,5,4,0:0:0:0:
112,210,121860,1,4,0:0:0:0:
74,215,122040,1,4,0:0:0:0:
37,221,122219,1,4,0:0:0:0:
194,258,122399,5,12,0:0:0:0:
158,274,122578,1,4,0:0:0:0:
123,288,122758,1,4,0:0:0:0:
89,304,122937,1,4,0:0:0:0:
250,299,123118,5,4,0:0:0:0:
219,323,123297,1,4,0:0:0:0:
189,346,123477,1,4,0:0:0:0:
160,370,123656,1,4,0:0:0:0:
321,356,123836,6,0,P|340:315|329:255,1,95,0|0,0:0|3:0,3:0:0:0:
239,134,124196,2,0,P|220:175|231:235,1,95,0|0,0:0|3:0,3:0:0:0:
297,78,124555,5,4,0:0:0:0:
334,74,124735,1,4,0:0:0:0:
371,70,124914,1,4,0:0:0:0:
408,66,125094,1,4,0:0:0:0:
268,147,125274,5,12,0:0:0:0:
231,143,125454,1,4,0:0:0:0:
194,139,125633,1,4,0:0:0:0:
157,135,125813,1,4,0:0:0:0:
297,216,125992,5,4,0:0:0:0:
334,212,126172,1,4,0:0:0:0:
371,208,126351,1,4,0:0:0:0:
408,204,126531,1,4,0:0:0:0:
268,285,126711,5,12,0:0:0:0:
231,281,126891,1,4,0:0:0:0:
194,277,127070,1,4,0:0:0:0:
157,273,127250,1,4,0:0:0:0:
110,119,127429,5,4,0:0:0:0:
106,156,127609,1,4,0:0:0:0:
102,193,127788,1,4,0:0:0:0:
98,230,127968,1,4,0:0:0:0:
264,72,128148,5,12,0:0:0:0:
227,68,128327,1,4,0:0:0:0:
190,64,128507,1,4,0:0:0:0:
153,60,128686,1,4,0:0:0:0:
311,226,128866,5,4,0:0:0:0:
315,189,129045,1,4,0:0:0:0:
319,152,129225,1,4,0:0:0:0:
323,115,129404,1,4,0:0:0:0:
203,249,129585,5,12,0:0:0:0:
222,70,129764,1,4,0:0:0:0:
311,226,129944,1,12,0:0:0:0:
147,153,130124,1,4,0:0:0:0:
323,115,130304,5,12,0:0:0:0:
256,192,130393,12,0,134076,0:0:0:0:
