osu file format v14

[General]
AudioFilename: audio.mp3
AudioLeadIn: 0
PreviewTime: 43440
Countdown: 0
SampleSet: Soft
StackLeniency: 0.6
Mode: 0
LetterboxInBreaks: 0
WidescreenStoryboard: 1

[Editor]
Bookmarks: 380,2912,23176,41857,62279,83968,102649,104232,106765,127029
DistanceSpacing: 1.1
BeatDivisor: 4
GridSize: 4
TimelineZoom: 2.4

[Metadata]
Title:More Death
TitleUnicode:More Death
Artist:Kraus
ArtistUnicode:Kraus
Creator:cyprianz5
Version:insanie2
Source:
Tags:
BeatmapID:1407702
BeatmapSetID:664702

[Difficulty]
HPDrainRate:6
CircleSize:4
OverallDifficulty:8
ApproachRate:9.4
SliderMultiplier:1.5
SliderTickRate:1

[Events]
//Background and Video events
0,0,"bg.jpg",0,0
//Break Periods
//Storyboard Layer 0 (Background)
//Storyboard Layer 1 (Fail)
//Storyboard Layer 2 (Pass)
//Storyboard Layer 3 (Foreground)
//Storyboard Sound Samples

[TimingPoints]
380,316.622691292876,4,2,0,70,1,0
380,-133.333333333333,4,2,0,70,0,0
2912,-100,4,2,0,70,0,0
23176,-200,4,2,0,70,0,0
43440,-50,4,2,0,70,0,1
62279,-100,4,2,0,70,0,0
63704,-50,4,2,0,70,0,1
82543,-100,4,2,0,70,0,0
83968,-200,4,2,0,70,0,0
104232,-133.333333333333,4,2,0,70,0,0
106765,-100,4,2,0,70,0,0
127029,-100,4,3,0,70,0,0
127108,-100,4,2,0,5,0,0

[HitObjects]
281,146,380,5,4,0:0:0:0:
256,192,459,12,8,2596,0:0:0:0:
132,288,2912,6,0,L|355:314,1,225,4|0,0:0|0:0,0:0:0:0:
407,195,3546,2,0,B|362:255|362:255|372:329,1,150,2|8,0:0|0:0,0:0:0:0:
285,227,3942,2,8,L|307:197,2,37.5
206,296,4179,6,0,L|132:288,1,75,10|0,0:0|0:0,0:0:0:0:
280,305,4496,2,0,L|205:296,1,75,2|0,0:0|0:0,0:0:0:0:
354,313,4812,1,10,0:0:0:0:
185,195,4971,1,8,0:0:0:0:
407,195,5129,1,8,0:0:0:0:
369,195,5208,1,8,0:0:0:0:
332,195,5287,1,8,0:0:0:0:
294,195,5366,1,8,0:0:0:0:
257,195,5445,6,0,L|480:221,1,225,12|0,0:0|0:0,0:0:0:0:
320,92,6079,2,0,B|330:166|330:166|285:226,1,150,2|8,0:0|0:0,0:0:0:0:
400,137,6474,2,8,L|455:143,2,37.5
320,92,6712,6,0,L|310:18,1,75,10|0,0:0|0:0,0:0:0:0:
400,137,7029,2,0,L|410:211,1,75,2|0,0:0|0:0,0:0:0:0:
248,144,7345,1,10,0:0:0:0:
422,62,7504,1,8,0:0:0:0:
340,240,7662,1,8,0:0:0:0:
318,90,7820,1,8,0:0:0:0:
318,90,7899,1,8,0:0:0:0:
318,90,7978,6,0,L|95:116,1,225,12|0,0:0|0:0,0:0:0:0:
213,278,8612,2,0,B|258:218|258:218|248:144,1,150,2|8,0:0|0:0,0:0:0:0:
176,195,9007,2,8,L|153:225,2,37.5
243,98,9245,6,0,L|318:90,1,75,10|0,0:0|0:0,0:0:0:0:
169,106,9562,2,0,L|244:98,1,75,2|0,0:0|0:0,0:0:0:0:
94,116,9878,1,10,0:0:0:0:
213,278,10036,1,8,0:0:0:0:
244,98,10195,5,8,0:0:0:0:
206,102,10274,1,8,0:0:0:0:
169,106,10353,1,8,0:0:0:0:
132,111,10432,1,8,0:0:0:0:
95,115,10511,6,0,L|69:338,1,225,12|0,0:0|0:0,0:0:0:0:
213,278,11145,2,0,B|153:233|153:233|79:243,1,150,2|8,0:0|0:0,0:0:0:0:
237,196,11540,2,8,L|267:218,2,37.5
292,295,11778,6,0,L|283:369,1,75,10|0,0:0|0:0,0:0:0:0:
347,235,12095,2,0,L|355:160,1,75,2|0,0:0|0:0,0:0:0:0:
371,312,12411,1,10,0:0:0:0:
281,123,12569,1,8,0:0:0:0:
464,223,12728,1,8,0:0:0:0:
257,249,12886,1,8,0:0:0:0:
257,249,12965,1,8,0:0:0:0:
257,249,13044,6,0,L|486:276,1,225,12|0,0:0|0:0,0:0:0:0:
311,369,13678,2,0,B|301:295|301:295|346:235,1,150,2|8,0:0|0:0,0:0:0:0:
227,319,14073,2,8,L|232:357,2,37.5
257,249,14311,6,0,L|347:259,1,75,10|0,0:0|0:0,0:0:0:0:
182,240,14628,2,0,L|272:250,1,75,2|0,0:0|0:0,0:0:0:0:
405,265,14944,1,10,0:0:0:0:
365,106,15102,1,8,0:0:0:0:
194,128,15261,5,8,0:0:0:0:
199,165,15340,1,8,0:0:0:0:
203,202,15419,1,8,0:0:0:0:
208,240,15498,1,8,0:0:0:0:
213,278,15577,6,0,L|240:48,1,225,12|0,0:0|0:0,0:0:0:0:
365,106,16211,2,0,B|305:151|305:151|231:141,1,150,2|8,0:0|0:0,0:0:0:0:
398,177,16606,2,8,L|438:146,2,37.5
328,244,16844,6,0,L|338:318,1,75,10|0,0:0|0:0,0:0:0:0:
398,177,17161,2,0,L|408:103,1,75,2|0,0:0|0:0,0:0:0:0:
248,226,17477,1,10,0:0:0:0:
421,271,17635,1,8,0:0:0:0:
307,132,17794,1,8,0:0:0:0:
317,311,17952,1,8,0:0:0:0:
317,311,18031,1,8,0:0:0:0:
317,311,18110,6,0,L|87:283,1,225,12|0,0:0|0:0,0:0:0:0:
40,356,18744,2,0,B|114:366|114:366|174:321,1,150,2|8,0:0|0:0,0:0:0:0:
141,215,19139,2,8,L|145:177,2,37.5
168,293,19377,6,0,L|268:305,1,75,10|0,0:0|0:0,0:0:0:0:
93,284,19693,2,0,L|194:296,1,75,2|0,0:0|0:0,0:0:0:0:
18,275,20010,1,10,0:0:0:0:
192,202,20168,1,8,0:0:0:0:
269,351,20327,5,8,0:0:0:0:
231,346,20406,1,8,0:0:0:0:
194,342,20485,1,8,0:0:0:0:
157,337,20564,1,8,0:0:0:0:
119,332,20643,6,0,L|349:304,1,225,12|0,0:0|0:0,0:0:0:0:
192,202,21277,2,0,B|147:262|147:262|157:336,1,150,2|8,0:0|0:0,0:0:0:0:
256,241,21672,2,8,L|279:211,2,37.5
306,323,21910,6,0,L|231:314,1,75,10|0,0:0|0:0,0:0:0:0:
117,193,22226,2,0,L|192:202,1,75,2|0,0:0|0:0,0:0:0:0:
231,314,22543,1,10,0:0:0:0:
199,120,22701,1,8,0:0:0:0:
133,287,22860,1,8,0:0:0:0:
392,198,23018,1,8,0:0:0:0:
392,198,23097,1,8,0:0:0:0:
392,198,23176,6,0,L|383:123,1,75,6|0,0:0|0:0,0:0:0:0:
383,123,23810,1,8,0:0:0:0:
325,235,24126,2,0,L|319:279,1,37.5,2|0,0:0|0:0,0:0:0:0:
287,351,24443,2,0,L|361:342,1,75,2|0,0:0|0:0,0:0:0:0:
361,341,25076,1,8,0:0:0:0:
239,282,25709,6,0,L|164:273,1,75,6|0,0:0|0:0,0:0:0:0:
164,273,26343,1,8,0:0:0:0:
276,215,26659,2,0,L|320:209,1,37.5,2|0,0:0|0:0,0:0:0:0:
392,177,26976,2,0,L|383:251,1,75,2|0,0:0|0:0,0:0:0:0:
382,251,27609,1,8,0:0:0:0:
326,131,28242,6,0,L|334:56,1,75,6|0,0:0|0:0,0:0:0:0:
334,56,28876,1,8,0:0:0:0:
391,176,29192,2,0,L|429:181,1,37.5,2|0,0:0|0:0,0:0:0:0:
383,251,29509,2,0,L|308:259,1,75,2|0,0:0|0:0,0:0:0:0:
308,258,30142,1,8,0:0:0:0:
229,228,30775,6,0,L|221:153,1,75,6|0,0:0|0:0,0:0:0:0:
221,153,31409,1,8,0:0:0:0:
164,273,31725,2,0,L|126:278,1,37.5,2|0,0:0|0:0,0:0:0:0:
172,348,32042,2,0,L|247:356,1,75,2|0,0:0|0:0,0:0:0:0:
247,355,32675,1,8,0:0:0:0:
298,251,33308,6,0,L|373:242,1,75,6|0,0:0|0:0,0:0:0:0:
373,242,33942,1,8,0:0:0:0:
261,184,34258,2,0,L|217:178,1,37.5,2|0,0:0|0:0,0:0:0:0:
145,146,34575,2,0,L|154:220,1,75,2|0,0:0|0:0,0:0:0:0:
155,220,35208,1,8,0:0:0:0:
211,100,35841,6,0,L|203:25,1,75,6|0,0:0|0:0,0:0:0:0:
203,25,36475,1,8,0:0:0:0:
146,145,36791,2,0,L|108:150,1,37.5,2|0,0:0|0:0,0:0:0:0:
154,220,37108,2,0,L|229:228,1,75,2|0,0:0|0:0,0:0:0:0:
229,227,37741,1,8,0:0:0:0:
300,153,38374,6,0,L|291:78,1,75,6|0,0:0|0:0,0:0:0:0:
291,78,39008,1,8,0:0:0:0:
233,190,39324,2,0,L|227:234,1,37.5,2|0,0:0|0:0,0:0:0:0:
195,306,39641,2,0,L|269:297,1,75,2|0,0:0|0:0,0:0:0:0:
269,296,40274,1,8,0:0:0:0:
149,240,40907,6,0,L|74:248,1,75,6|0,0:0|0:0,0:0:0:0:
74,248,41541,1,8,0:0:0:0:
194,305,41857,2,0,L|199:343,1,37.5,2|0,0:0|0:0,0:0:0:0:
269,297,42174,2,0,L|274:259,1,37.5,2|0,0:0|0:0,0:0:0:0:
179,192,42490,2,0,L|184:230,1,37.5,2|0,0:0|0:0,0:0:0:0:
282,184,42807,2,0,L|287:146,1,37.5,2|0,0:0|0:0,0:0:0:0:
164,79,43123,2,0,L|169:117,1,37.5,2|0,0:0|0:0,0:0:0:0:
327,341,43440,6,0,L|475:358,1,150,12|0,0:0|0:0,0:0:0:0:
178,323,43757,2,0,L|327:341,1,150,8|0,0:0|0:0,0:0:0:0:
29,305,44073,1,8,0:0:0:0:
29,305,44628,5,8,0:0:0:0:
29,305,44707,1,8,0:0:0:0:
178,323,44865,5,8,0:0:0:0:
178,323,44944,1,8,0:0:0:0:
327,341,45103,5,8,0:0:0:0:
327,341,45182,1,8,0:0:0:0:
475,358,45340,5,8,0:0:0:0:
327,341,45498,1,8,0:0:0:0:
178,323,45657,1,8,0:0:0:0:
29,305,45815,1,8,0:0:0:0:
177,287,45973,6,0,L|28:304,1,150,12|0,0:0|0:0,0:0:0:0:
325,269,46290,2,0,L|176:286,1,150,8|0,0:0|0:0,0:0:0:0:
475,251,46606,1,8,0:0:0:0:
475,251,47161,5,8,0:0:0:0:
475,251,47240,1,8,0:0:0:0:
326,269,47398,5,8,0:0:0:0:
326,269,47477,1,8,0:0:0:0:
177,287,47636,5,8,0:0:0:0:
177,287,47715,1,8,0:0:0:0:
29,304,47873,5,8,0:0:0:0:
177,287,48031,1,8,0:0:0:0:
177,287,48110,1,8,0:0:0:0:
177,287,48190,5,8,0:0:0:0:
475,251,48348,1,8,0:0:0:0:
326,233,48506,6,0,L|474:250,1,150,12|0,0:0|0:0,0:0:0:0:
177,215,48823,2,0,L|325:232,1,150,8|0,0:0|0:0,0:0:0:0:
28,197,49139,1,8,0:0:0:0:
28,197,49694,5,8,0:0:0:0:
28,197,49773,1,8,0:0:0:0:
177,215,49931,5,8,0:0:0:0:
177,215,50010,1,8,0:0:0:0:
326,233,50169,5,8,0:0:0:0:
326,233,50248,1,8,0:0:0:0:
474,250,50406,5,8,0:0:0:0:
326,233,50564,1,8,0:0:0:0:
177,215,50723,1,8,0:0:0:0:
28,197,50881,1,8,0:0:0:0:
176,179,51039,6,0,L|27:196,1,150,12|0,0:0|0:0,0:0:0:0:
324,161,51356,2,0,L|175:178,1,150,8|0,0:0|0:0,0:0:0:0:
474,143,51672,1,8,0:0:0:0:
474,143,52227,5,8,0:0:0:0:
474,143,52306,1,8,0:0:0:0:
325,161,52464,5,8,0:0:0:0:
325,161,52543,1,8,0:0:0:0:
176,179,52702,5,8,0:0:0:0:
176,179,52781,1,8,0:0:0:0:
28,196,52939,5,8,0:0:0:0:
176,179,53097,1,8,0:0:0:0:
176,179,53176,1,8,0:0:0:0:
176,179,53255,5,8,0:0:0:0:
474,143,53414,1,8,0:0:0:0:
176,179,53572,6,0,L|27:196,1,150,12|0,0:0|0:0,0:0:0:0:
324,161,53889,2,0,L|175:178,1,150,8|0,0:0|0:0,0:0:0:0:
474,143,54205,1,8,0:0:0:0:
474,143,54760,5,8,0:0:0:0:
474,143,54839,1,8,0:0:0:0:
325,161,54997,5,8,0:0:0:0:
325,161,55076,1,8,0:0:0:0:
176,179,55235,5,8,0:0:0:0:
176,179,55314,1,8,0:0:0:0:
28,196,55472,5,8,0:0:0:0:
176,179,55630,1,8,0:0:0:0:
325,161,55789,1,8,0:0:0:0:
474,143,55947,1,8,0:0:0:0:
176,107,56106,6,0,L|27:89,1,150,12|0,0:0|0:0,0:0:0:0:
324,124,56422,2,0,L|176:107,1,150,8|0,0:0|0:0,0:0:0:0:
474,143,56739,1,8,0:0:0:0:
474,143,57292,5,8,0:0:0:0:
474,143,57372,1,8,0:0:0:0:
324,124,57530,5,8,0:0:0:0:
324,124,57610,1,8,0:0:0:0:
176,107,57767,5,8,0:0:0:0:
176,107,57847,1,8,0:0:0:0:
27,89,58005,5,8,0:0:0:0:
176,107,58163,1,8,0:0:0:0:
176,107,58242,1,8,0:0:0:0:
176,107,58321,5,8,0:0:0:0:
474,143,58480,1,8,0:0:0:0:
177,287,58638,6,0,L|28:304,1,150,12|0,0:0|0:0,0:0:0:0:
325,269,58955,2,0,L|176:286,1,150,8|0,0:0|0:0,0:0:0:0:
474,252,59271,1,8,0:0:0:0:
474,252,59825,5,8,0:0:0:0:
474,252,59905,1,8,0:0:0:0:
325,269,60063,5,8,0:0:0:0:
325,269,60142,1,8,0:0:0:0:
177,287,60300,5,8,0:0:0:0:
177,287,60380,1,8,0:0:0:0:
28,304,60538,5,8,0:0:0:0:
177,287,60696,1,8,0:0:0:0:
325,269,60854,1,8,0:0:0:0:
474,252,61013,1,8,0:0:0:0:
176,107,61171,6,0,L|27:89,1,150,12|0,0:0|0:0,0:0:0:0:
324,125,61488,2,0,L|175:107,1,150,8|0,0:0|0:0,0:0:0:0:
473,142,61804,1,8,0:0:0:0:
473,142,62279,5,8,0:0:0:0:
473,142,62358,1,8,0:0:0:0:
473,142,62438,6,0,L|411:134,1,37.5,8|0,0:0|0:0,0:0:0:0:
324,125,62596,2,0,L|361:129,1,37.5,8|0,0:0|0:0,0:0:0:0:
435,137,62754,6,0,L|397:141,1,37.5,8|0,0:0|0:0,0:0:0:0:
286,154,62912,2,0,L|323:149,1,37.5,8|0,0:0|0:0,0:0:0:0:
397,141,63071,6,0,L|335:133,1,37.5,8|0,0:0|0:0,0:0:0:0:
248,124,63229,2,0,L|285:128,1,37.5,8|0,0:0|0:0,0:0:0:0:
359,136,63387,5,8,0:0:0:0:
172,158,63546,2,0,L|209:153,1,37.5,8|0,0:0|0:0,0:0:0:0:
327,43,63704,6,0,L|475:25,1,150,12|0,0:0|0:0,0:0:0:0:
178,60,64021,2,0,L|327:43,1,150,8|0,0:0|0:0,0:0:0:0:
29,79,64337,1,8,0:0:0:0:
29,79,64892,5,8,0:0:0:0:
29,79,64971,1,8,0:0:0:0:
327,43,65129,5,8,0:0:0:0:
327,43,65208,1,8,0:0:0:0:
178,61,65366,5,8,0:0:0:0:
178,61,65445,1,8,0:0:0:0:
475,26,65604,5,8,0:0:0:0:
327,43,65762,1,8,0:0:0:0:
178,61,65921,1,8,0:0:0:0:
29,79,66079,1,8,0:0:0:0:
177,97,66237,6,0,L|28:79,1,150,12|0,0:0|0:0,0:0:0:0:
325,115,66554,2,0,L|176:97,1,150,8|0,0:0|0:0,0:0:0:0:
475,133,66870,1,8,0:0:0:0:
475,133,67425,5,8,0:0:0:0:
475,133,67504,1,8,0:0:0:0:
326,115,67662,5,8,0:0:0:0:
326,115,67741,1,8,0:0:0:0:
29,80,67899,5,8,0:0:0:0:
29,80,67978,1,8,0:0:0:0:
177,97,68137,5,8,0:0:0:0:
29,80,68295,1,8,0:0:0:0:
29,80,68374,1,8,0:0:0:0:
29,80,68454,5,8,0:0:0:0:
475,133,68612,1,8,0:0:0:0:
326,151,68770,6,0,L|474:133,1,150,12|0,0:0|0:0,0:0:0:0:
177,169,69087,2,0,L|325:151,1,150,8|0,0:0|0:0,0:0:0:0:
28,187,69403,1,8,0:0:0:0:
28,187,69958,5,8,0:0:0:0:
28,187,70037,1,8,0:0:0:0:
177,169,70195,5,8,0:0:0:0:
177,169,70274,1,8,0:0:0:0:
326,151,70433,5,8,0:0:0:0:
326,151,70512,1,8,0:0:0:0:
177,169,70670,5,8,0:0:0:0:
474,134,70828,1,8,0:0:0:0:
326,151,70987,1,8,0:0:0:0:
28,187,71145,1,8,0:0:0:0:
176,205,71303,6,0,L|27:187,1,150,12|0,0:0|0:0,0:0:0:0:
324,223,71620,2,0,L|175:205,1,150,8|0,0:0|0:0,0:0:0:0:
474,241,71936,1,8,0:0:0:0:
474,241,72491,5,8,0:0:0:0:
474,241,72570,1,8,0:0:0:0:
176,205,72728,5,8,0:0:0:0:
176,205,72807,1,8,0:0:0:0:
325,223,72965,5,8,0:0:0:0:
325,223,73044,1,8,0:0:0:0:
28,188,73203,5,8,0:0:0:0:
325,223,73361,1,8,0:0:0:0:
325,223,73440,1,8,0:0:0:0:
325,223,73519,5,8,0:0:0:0:
474,241,73678,1,8,0:0:0:0:
176,205,73836,6,0,L|27:187,1,150,12|0,0:0|0:0,0:0:0:0:
324,223,74153,2,0,L|175:205,1,150,8|0,0:0|0:0,0:0:0:0:
474,241,74469,1,8,0:0:0:0:
474,241,75024,5,8,0:0:0:0:
474,241,75103,1,8,0:0:0:0:
28,188,75261,5,8,0:0:0:0:
28,188,75340,1,8,0:0:0:0:
325,223,75499,5,8,0:0:0:0:
325,223,75578,1,8,0:0:0:0:
28,188,75736,5,8,0:0:0:0:
325,223,75894,1,8,0:0:0:0:
176,205,76052,1,8,0:0:0:0:
474,241,76211,1,8,0:0:0:0:
176,277,76370,6,0,L|27:294,1,150,12|0,0:0|0:0,0:0:0:0:
324,259,76686,2,0,L|176:277,1,150,8|0,0:0|0:0,0:0:0:0:
474,241,77003,1,8,0:0:0:0:
474,241,77556,5,8,0:0:0:0:
474,241,77636,1,8,0:0:0:0:
324,260,77794,5,8,0:0:0:0:
324,260,77874,1,8,0:0:0:0:
176,277,78031,5,8,0:0:0:0:
176,277,78111,1,8,0:0:0:0:
474,241,78269,5,8,0:0:0:0:
27,295,78427,1,8,0:0:0:0:
27,295,78506,1,8,0:0:0:0:
27,295,78585,5,8,0:0:0:0:
474,241,78744,1,8,0:0:0:0:
177,97,78902,6,0,L|28:79,1,150,12|0,0:0|0:0,0:0:0:0:
325,115,79219,2,0,L|176:97,1,150,8|0,0:0|0:0,0:0:0:0:
474,132,79535,1,8,0:0:0:0:
474,132,80089,5,8,0:0:0:0:
474,132,80169,1,8,0:0:0:0:
177,97,80327,5,8,0:0:0:0:
177,97,80407,1,8,0:0:0:0:
474,132,80564,5,8,0:0:0:0:
474,132,80644,1,8,0:0:0:0:
325,115,80802,5,8,0:0:0:0:
28,80,80960,1,8,0:0:0:0:
177,97,81118,1,8,0:0:0:0:
474,132,81277,1,8,0:0:0:0:
176,277,81435,6,0,L|27:294,1,150,12|0,0:0|0:0,0:0:0:0:
324,259,81752,2,0,L|175:276,1,150,8|0,0:0|0:0,0:0:0:0:
473,242,82068,1,8,0:0:0:0:
473,242,82543,5,8,0:0:0:0:
473,242,82622,1,8,0:0:0:0:
473,242,82702,6,0,L|411:249,1,37.5,8|0,0:0|0:0,0:0:0:0:
324,259,82860,2,0,L|361:254,1,37.5,8|0,0:0|0:0,0:0:0:0:
435,247,83018,6,0,L|397:242,1,37.5,8|0,0:0|0:0,0:0:0:0:
286,230,83176,2,0,L|323:234,1,37.5,8|0,0:0|0:0,0:0:0:0:
397,243,83335,6,0,L|335:250,1,37.5,8|0,0:0|0:0,0:0:0:0:
248,260,83493,2,0,L|285:255,1,37.5,8|0,0:0|0:0,0:0:0:0:
359,247,83651,5,8,0:0:0:0:
172,225,83810,2,0,L|209:230,1,37.5,8|0,0:0|0:0,0:0:0:0:
285,254,83968,6,0,L|276:329,1,75,6|0,0:0|0:0,0:0:0:0:
276,329,84602,1,8,0:0:0:0:
218,217,84918,2,0,L|212:173,1,37.5
180,101,85235,2,0,L|254:110,1,75,2|0,0:0|0:0,0:0:0:0:
254,110,85868,1,8,0:0:0:0:
132,170,86501,6,0,L|57:179,1,75,6|0,0:0|0:0,0:0:0:0:
57,178,87135,1,8,0:0:0:0:
169,237,87451,2,0,L|213:243,1,37.5,2|0,0:0|0:0,0:0:0:0:
285,275,87768,2,0,L|276:201,1,75,2|0,0:0|0:0,0:0:0:0:
275,200,88401,1,8,0:0:0:0:
180,101,89034,6,0,L|189:26,1,75,6|0,0:0|0:0,0:0:0:0:
189,26,89668,1,8,0:0:0:0:
247,138,89984,2,0,L|253:182,1,37.5,2|0,0:0|0:0,0:0:0:0:
285,254,90301,2,0,L|211:245,1,75,2|0,0:0|0:0,0:0:0:0:
210,244,90934,1,8,0:0:0:0:
330,319,91567,6,0,L|405:311,1,75,6|0,0:0|0:0,0:0:0:0:
405,311,92200,1,8,0:0:0:0:
285,254,92517,2,0,L|280:216,1,37.5,2|0,0:0|0:0,0:0:0:0:
210,262,92834,2,0,L|202:337,1,75,2|0,0:0|0:0,0:0:0:0:
203,337,93467,1,8,0:0:0:0:
280,216,94100,6,0,L|272:141,1,75,6|0,0:0|0:0,0:0:0:0:
272,141,94734,1,8,0:0:0:0:
215,261,95050,2,0,L|177:266,1,37.5,2|0,0:0|0:0,0:0:0:0:
223,336,95367,2,0,L|298:344,1,75,2|0,0:0|0:0,0:0:0:0:
298,343,96000,1,8,0:0:0:0:
348,191,96633,6,0,L|356:116,1,75,6|0,0:0|0:0,0:0:0:0:
356,116,97267,1,8,0:0:0:0:
413,236,97583,2,0,L|451:241,1,37.5,2|0,0:0|0:0,0:0:0:0:
405,311,97900,2,0,L|330:319,1,75,2|0,0:0|0:0,0:0:0:0:
330,318,98533,1,8,0:0:0:0:
148,224,99166,6,0,L|157:149,1,75,6|0,0:0|0:0,0:0:0:0:
157,149,99800,1,8,0:0:0:0:
215,261,100116,2,0,L|221:305,1,37.5,2|0,0:0|0:0,0:0:0:0:
253,377,100433,2,0,L|179:368,1,75,2|0,0:0|0:0,0:0:0:0:
179,367,101066,1,8,0:0:0:0:
363,240,101699,6,0,L|438:248,1,75,6|0,0:0|0:0,0:0:0:0:
438,248,102333,1,8,0:0:0:0:
318,305,102649,2,0,L|313:343,1,37.5,2|0,0:0|0:0,0:0:0:0:
243,297,102966,2,0,L|238:259,1,37.5,2|0,0:0|0:0,0:0:0:0:
333,192,103282,2,0,L|328:230,1,37.5,2|0,0:0|0:0,0:0:0:0:
230,184,103599,2,0,L|225:146,1,37.5,2|0,0:0|0:0,0:0:0:0:
348,79,103915,2,0,L|343:117,1,37.5,2|0,0:0|0:0,0:0:0:0:
318,305,104232,5,4,0:0:0:0:
256,192,104311,12,8,106448,0:0:0:0:
380,96,106765,6,0,L|157:70,1,225,4|0,0:0|0:0,0:0:0:0:
266,213,107399,2,0,B|221:153|221:153|231:79,1,150,2|8,0:0|0:0,0:0:0:0:
144,181,107795,2,8,L|166:211,2,37.5
306,88,108032,6,0,L|380:96,1,75,10|0,0:0|0:0,0:0:0:0:
232,79,108349,2,0,L|307:88,1,75,2|0,0:0|0:0,0:0:0:0:
158,71,108665,1,10,0:0:0:0:
339,173,108824,1,8,0:0:0:0:
116,213,108982,1,8,0:0:0:0:
154,213,109061,1,8,0:0:0:0:
191,213,109140,1,8,0:0:0:0:
229,213,109219,1,8,0:0:0:0:
266,213,109298,6,0,L|43:187,1,225,12|0,0:0|0:0,0:0:0:0:
275,326,109932,2,0,B|265:252|265:252|310:192,1,150,2|8,0:0|0:0,0:0:0:0:
195,281,110327,2,8,L|140:275,2,37.5
347,276,110565,6,0,L|357:350,1,75,10|0,0:0|0:0,0:0:0:0:
220,178,110882,2,0,L|210:104,1,75,2|0,0:0|0:0,0:0:0:0:
230,252,111198,1,10,0:0:0:0:
135,122,111357,1,8,0:0:0:0:
301,163,111514,1,8,0:0:0:0:
194,294,111673,1,8,0:0:0:0:
194,294,111752,1,8,0:0:0:0:
194,294,111831,6,0,L|417:268,1,225,12|0,0:0|0:0,0:0:0:0:
234,151,112464,2,0,B|279:211|279:211|269:285,1,150,2|8,0:0|0:0,0:0:0:0:
186,219,112860,2,8,L|163:189,2,37.5
269,286,113098,6,0,L|194:294,1,75,10|0,0:0|0:0,0:0:0:0:
343,278,113415,2,0,L|268:286,1,75,2|0,0:0|0:0,0:0:0:0:
418,268,113731,1,10,0:0:0:0:
299,106,113889,1,8,0:0:0:0:
268,284,114048,5,8,0:0:0:0:
306,280,114127,1,8,0:0:0:0:
343,276,114206,1,8,0:0:0:0:
380,271,114285,1,8,0:0:0:0:
417,267,114364,6,0,L|443:44,1,225,12|0,0:0|0:0,0:0:0:0:
299,106,114998,2,0,B|359:151|359:151|433:141,1,150,2|8,0:0|0:0,0:0:0:0:
275,188,115393,2,8,L|245:166,2,37.5
226,89,115631,6,0,L|235:15,1,75,10|0,0:0|0:0,0:0:0:0:
163,167,115948,2,0,L|155:242,1,75,2|0,0:0|0:0,0:0:0:0:
140,85,116264,1,10,0:0:0:0:
234,262,116422,1,8,0:0:0:0:
86,161,116580,1,8,0:0:0:0:
299,106,116739,1,8,0:0:0:0:
299,106,116818,1,8,0:0:0:0:
299,106,116897,6,0,L|70:79,1,225,12|0,0:0|0:0,0:0:0:0:
201,15,117531,2,0,B|211:89|211:89|166:149,1,150,2|8,0:0|0:0,0:0:0:0:
285,65,117926,2,8,L|280:27,2,37.5
255,135,118164,6,0,L|165:125,1,75,10|0,0:0|0:0,0:0:0:0:
330,144,118481,2,0,L|240:134,1,75,2|0,0:0|0:0,0:0:0:0:
107,119,118797,1,10,0:0:0:0:
147,278,118955,1,8,0:0:0:0:
304,215,119114,5,8,0:0:0:0:
299,178,119193,1,8,0:0:0:0:
295,141,119272,1,8,0:0:0:0:
290,103,119351,1,8,0:0:0:0:
285,65,119430,6,0,L|258:295,1,225,12|0,0:0|0:0,0:0:0:0:
147,278,120064,2,0,B|207:233|207:233|281:243,1,150,2|8,0:0|0:0,0:0:0:0:
114,207,120459,2,8,L|74:238,2,37.5
184,140,120697,6,0,L|174:66,1,75,10|0,0:0|0:0,0:0:0:0:
84,229,121013,2,0,L|74:303,1,75,2|0,0:0|0:0,0:0:0:0:
264,158,121329,1,10,0:0:0:0:
99,125,121488,1,8,0:0:0:0:
213,261,121647,1,8,0:0:0:0:
195,73,121805,1,8,0:0:0:0:
195,73,121884,1,8,0:0:0:0:
195,73,121963,6,0,L|425:101,1,225,12|0,0:0|0:0,0:0:0:0:
472,28,122597,2,0,B|398:18|398:18|338:63,1,150,2|8,0:0|0:0,0:0:0:0:
376,173,122992,2,8,L|372:211,2,37.5
344,91,123230,6,0,L|244:79,1,75,10|0,0:0|0:0,0:0:0:0:
419,100,123546,2,0,L|318:88,1,75,2|0,0:0|0:0,0:0:0:0:
494,109,123863,1,10,0:0:0:0:
320,182,124021,1,8,0:0:0:0:
194,72,124180,5,8,0:0:0:0:
232,77,124259,1,8,0:0:0:0:
269,81,124338,1,8,0:0:0:0:
306,86,124417,1,8,0:0:0:0:
344,91,124496,6,0,L|114:119,1,225,12|0,0:0|0:0,0:0:0:0:
155,252,125130,2,0,B|110:192|110:192|120:118,1,150,2|8,0:0|0:0,0:0:0:0:
207,191,125525,2,8,L|230:221,2,37.5
196,74,125763,6,0,L|271:83,1,75,10|0,0:0|0:0,0:0:0:0:
395,191,126079,2,0,L|320:182,1,75,2|0,0:0|0:0,0:0:0:0:
270,82,126395,1,10,0:0:0:0:
299,261,126554,1,8,0:0:0:0:
491,121,126712,1,8,0:0:0:0:
207,191,126870,1,8,0:0:0:0:
207,191,126949,1,8,0:0:0:0:
207,191,127029,5,4,0:0:0:0:
256,192,127108,12,0,129957,0:0:0:0:
