osu file format v14

[General]
AudioFilename: audio.mp3
AudioLeadIn: 0
PreviewTime: 67571
Countdown: 0
SampleSet: Normal
StackLeniency: 0.7
Mode: 1
LetterboxInBreaks: 0
WidescreenStoryboard: 0

[Editor]
Bookmarks: 19056,37806,52806,112806
DistanceSpacing: 0.8
BeatDivisor: 4
GridSize: 32
TimelineZoom: 1.4

[Metadata]
Title:Sabat (Flick)
TitleUnicode:สะบัด (Flick)
Artist:Kratae Rsiam
ArtistUnicode:กระแต อาร์ สยาม
Creator:Blackener
Version:Futsuu
Source:
Tags:thai ไทย RsiamMusic อาร์สยาม r-siam 2016
BeatmapID:1801385
BeatmapSetID:840704

[Difficulty]
HPDrainRate:6
CircleSize:5
OverallDifficulty:4
ApproachRate:5
SliderMultiplier:1.4
SliderTickRate:3

[Events]
//Background and Video events
0,0,"ece323b446860ecc078de96df55f7e97557ceb67.png",0,0
//Break Periods
//Storyboard Layer 0 (Background)
//Storyboard Layer 1 (Fail)
//Storyboard Layer 2 (Pass)
//Storyboard Layer 3 (Foreground)
//Storyboard Sound Samples

[TimingPoints]
4062,468.75,4,1,0,70,1,0
19062,-100,4,1,0,80,0,0
37812,-100,4,1,0,70,0,0
66171,-100,4,1,0,80,0,0
67812,-100,4,1,0,80,0,1
82343,-100,4,1,0,80,0,0
82812,-100,4,1,0,80,0,1
112812,-100,4,1,0,80,0,0

[HitObjects]
256,192,4062,5,0,0:0:0:0:
256,192,4765,1,8,0:0:0:0:
256,192,5937,5,0,0:0:0:0:
256,192,6640,1,8,0:0:0:0:
256,192,7812,5,0,0:0:0:0:
256,192,8515,1,8,0:0:0:0:
256,192,9687,5,0,0:0:0:0:
256,192,10390,1,0,0:0:0:0:
256,192,11093,1,8,0:0:0:0:
256,192,11562,1,0,0:0:0:0:
256,192,12265,1,8,0:0:0:0:
64,256,12968,1,8,0:0:0:0:
256,192,13437,1,0,0:0:0:0:
256,192,14140,1,0,0:0:0:0:
256,192,14843,1,8,0:0:0:0:
256,192,15312,1,0,0:0:0:0:
352,160,16015,1,0,0:0:0:0:
64,256,16718,1,8,0:0:0:0:
256,192,17187,1,0,0:0:0:0:
256,192,18124,1,8,0:0:0:0:
256,192,18593,1,8,0:0:0:0:
256,192,19062,5,4,0:0:0:0:
256,192,19765,1,8,0:0:0:0:
256,192,20116,1,8,0:0:0:0:
256,192,20468,1,8,0:0:0:0:
256,192,20937,5,0,0:0:0:0:
256,192,21640,1,8,0:0:0:0:
256,192,21991,1,0,0:0:0:0:
256,192,22343,1,8,0:0:0:0:
256,192,22577,1,8,0:0:0:0:
256,192,22812,5,0,0:0:0:0:
256,192,23515,1,8,0:0:0:0:
256,192,23866,5,8,0:0:0:0:
256,192,24218,1,8,0:0:0:0:
256,192,24687,5,0,0:0:0:0:
256,192,25624,1,8,0:0:0:0:
256,192,26093,1,8,0:0:0:0:
256,192,26562,1,4,0:0:0:0:
256,192,27030,1,0,0:0:0:0:
256,192,27265,1,8,0:0:0:0:
256,192,27733,1,8,0:0:0:0:
256,192,27968,1,8,0:0:0:0:
256,192,28437,5,0,0:0:0:0:
256,192,29374,1,0,0:0:0:0:
256,192,29843,1,8,0:0:0:0:
256,192,30077,1,8,0:0:0:0:
256,192,30312,5,0,0:0:0:0:
256,192,30780,1,0,0:0:0:0:
256,192,31015,1,8,0:0:0:0:
256,192,31483,1,8,0:0:0:0:
256,192,31718,1,8,0:0:0:0:
256,192,32187,5,0,0:0:0:0:
256,192,32890,1,8,0:0:0:0:
256,192,33358,1,8,0:0:0:0:
256,192,33827,1,8,0:0:0:0:
256,192,34062,1,0,0:0:0:0:
256,192,34999,1,8,0:0:0:0:
256,192,35937,1,0,0:0:0:0:
256,192,36405,1,8,0:0:0:0:
256,192,36874,2,0,L|416:192,1,140
256,192,37812,1,4,0:0:0:0:
256,192,38280,1,8,0:0:0:0:
256,192,38515,1,0,0:0:0:0:
256,192,38749,1,0,0:0:0:0:
256,192,39218,1,8,0:0:0:0:
256,192,39687,1,0,0:0:0:0:
256,192,40155,1,8,0:0:0:0:
256,192,40390,1,0,0:0:0:0:
256,192,40624,1,8,0:0:0:0:
256,192,41562,1,0,0:0:0:0:
256,192,42030,1,0,0:0:0:0:
128,64,42265,1,0,0:0:0:0:
256,192,42499,1,8,0:0:0:0:
256,192,42968,1,8,0:0:0:0:
256,192,43437,1,0,0:0:0:0:
256,192,44374,1,8,0:0:0:0:
256,192,44843,1,0,0:0:0:0:
256,192,45312,1,0,0:0:0:0:
256,192,45780,1,8,0:0:0:0:
288,192,46015,1,8,0:0:0:0:
256,192,46249,1,0,0:0:0:0:
256,192,46718,1,8,0:0:0:0:
64,64,47187,1,0,0:0:0:0:
256,192,47655,1,8,0:0:0:0:
256,192,47890,1,0,0:0:0:0:
256,192,48124,1,8,0:0:0:0:
256,192,49062,1,0,0:0:0:0:
256,192,49530,1,8,0:0:0:0:
256,192,49765,1,8,0:0:0:0:
256,192,49999,1,0,0:0:0:0:
256,192,50468,1,0,0:0:0:0:
256,192,50937,1,8,0:0:0:0:
256,192,51640,1,0,0:0:0:0:
256,192,51874,1,8,0:0:0:0:
256,192,52343,1,8,0:0:0:0:
256,192,52812,1,4,0:0:0:0:
256,192,53280,1,8,0:0:0:0:
256,192,53749,1,0,0:0:0:0:
256,192,53983,1,0,0:0:0:0:
256,192,54218,1,8,0:0:0:0:
256,192,54687,1,0,0:0:0:0:
256,192,55155,1,0,0:0:0:0:
256,192,55390,1,8,0:0:0:0:
256,192,56093,1,8,0:0:0:0:
256,192,56327,1,8,0:0:0:0:
256,192,56562,1,0,0:0:0:0:
256,192,57030,1,8,0:0:0:0:
256,192,57499,1,8,0:0:0:0:
256,192,57968,1,0,0:0:0:0:
256,192,58202,1,0,0:0:0:0:
256,192,58437,1,8,0:0:0:0:
256,192,58905,1,8,0:0:0:0:
256,192,59374,1,0,0:0:0:0:
256,192,59843,1,8,0:0:0:0:
256,192,60312,1,0,0:0:0:0:
256,192,61249,1,0,0:0:0:0:
256,192,61718,1,8,0:0:0:0:
256,192,62187,1,0,0:0:0:0:
256,192,62655,1,8,0:0:0:0:
256,192,62890,1,8,0:0:0:0:
256,192,63124,1,0,0:0:0:0:
256,192,63593,1,8,0:0:0:0:
256,192,64062,1,0,0:0:0:0:
256,192,64765,1,0,0:0:0:0:
256,192,64999,1,8,0:0:0:0:
256,192,65702,1,8,0:0:0:0:
256,192,66171,1,4,0:0:0:0:
256,192,66405,1,4,0:0:0:0:
256,192,66874,1,8,0:0:0:0:
256,192,67343,1,8,0:0:0:0:
256,192,67812,5,4,0:0:0:0:
256,192,68515,1,8,0:0:0:0:
256,192,68749,1,0,0:0:0:0:
256,192,68983,1,8,0:0:0:0:
256,192,69452,1,0,0:0:0:0:
256,192,69687,1,0,0:0:0:0:
256,192,70155,1,8,0:0:0:0:
256,192,70624,1,0,0:0:0:0:
256,192,70858,1,8,0:0:0:0:
256,192,71562,1,0,0:0:0:0:
256,192,72499,1,8,0:0:0:0:
256,192,72968,1,8,0:0:0:0:
256,192,73202,1,8,0:0:0:0:
256,192,73437,1,0,0:0:0:0:
256,192,74140,1,0,0:0:0:0:
256,192,74374,1,8,0:0:0:0:
256,192,74843,1,8,0:0:0:0:
256,192,75312,5,4,0:0:0:0:
256,192,76015,1,8,0:0:0:0:
256,192,76249,1,0,0:0:0:0:
256,192,76483,1,8,0:0:0:0:
256,192,76952,1,8,0:0:0:0:
256,192,77187,1,0,0:0:0:0:
256,192,77655,1,8,0:0:0:0:
256,192,78124,1,0,0:0:0:0:
256,192,78358,1,8,0:0:0:0:
256,192,79062,1,0,0:0:0:0:
256,192,79999,1,8,0:0:0:0:
256,192,80351,1,8,0:0:0:0:
256,192,80937,1,8,0:0:0:0:
256,192,81874,1,8,0:0:0:0:
256,192,82343,1,0,0:0:0:0:
256,192,82577,1,8,0:0:0:0:
256,192,82812,5,4,0:0:0:0:
256,192,83515,1,8,0:0:0:0:
256,192,83749,1,0,0:0:0:0:
256,192,83983,1,8,0:0:0:0:
256,192,84452,1,0,0:0:0:0:
256,192,84687,1,0,0:0:0:0:
256,192,85155,1,8,0:0:0:0:
256,192,85624,1,0,0:0:0:0:
256,192,85858,1,8,0:0:0:0:
256,192,86562,1,0,0:0:0:0:
256,192,87499,1,8,0:0:0:0:
256,192,87968,1,8,0:0:0:0:
256,192,88202,1,8,0:0:0:0:
256,192,88437,1,0,0:0:0:0:
256,192,88905,1,0,0:0:0:0:
256,192,89374,1,8,0:0:0:0:
256,192,89843,1,0,0:0:0:0:
256,192,90077,5,8,0:0:0:0:
256,192,90312,5,4,0:0:0:0:
256,192,91015,1,8,0:0:0:0:
256,192,91249,1,0,0:0:0:0:
256,192,91483,1,8,0:0:0:0:
256,192,91952,1,8,0:0:0:0:
256,192,92187,1,0,0:0:0:0:
256,192,92655,1,8,0:0:0:0:
256,192,93124,1,0,0:0:0:0:
256,192,93358,1,8,0:0:0:0:
256,192,94062,1,0,0:0:0:0:
256,192,94999,1,8,0:0:0:0:
256,192,95468,1,8,0:0:0:0:
256,192,95702,1,0,0:0:0:0:
256,192,95937,1,8,0:0:0:0:
256,192,96874,5,8,0:0:0:0:
256,192,97343,1,8,0:0:0:0:
256,192,97812,1,4,0:0:0:0:
256,192,98280,1,8,0:0:0:0:
256,192,98749,1,0,0:0:0:0:
256,192,98983,1,8,0:0:0:0:
256,192,99452,1,8,0:0:0:0:
256,192,99687,1,0,0:0:0:0:
256,192,100155,1,8,0:0:0:0:
224,192,100624,1,8,0:0:0:0:
256,192,101562,1,0,0:0:0:0:
256,192,102030,1,8,0:0:0:0:
224,192,102499,1,8,0:0:0:0:
256,192,103202,1,0,0:0:0:0:
256,192,103437,1,8,0:0:0:0:
256,192,103905,1,0,0:0:0:0:
256,192,104140,1,0,0:0:0:0:
256,192,104374,1,8,0:0:0:0:
256,192,104843,1,8,0:0:0:0:
256,192,105312,1,4,0:0:0:0:
256,192,105780,1,8,0:0:0:0:
256,192,106249,1,0,0:0:0:0:
256,192,106483,1,8,0:0:0:0:
256,192,106952,1,8,0:0:0:0:
256,192,107187,1,0,0:0:0:0:
256,192,107655,1,8,0:0:0:0:
256,192,108124,1,8,0:0:0:0:
256,192,109062,1,0,0:0:0:0:
256,192,109530,1,8,0:0:0:0:
256,192,109999,1,0,0:0:0:0:
256,192,110233,1,8,0:0:0:0:
256,192,110702,1,8,0:0:0:0:
256,192,110937,1,0,0:0:0:0:
256,192,111874,1,8,0:0:0:0:
256,192,112343,1,8,0:0:0:0:
256,192,112812,5,4,0:0:0:0:
256,192,113515,1,8,0:0:0:0:
256,192,113866,1,8,0:0:0:0:
256,192,114218,1,8,0:0:0:0:
256,192,114687,5,0,0:0:0:0:
256,192,115390,1,8,0:0:0:0:
256,192,115741,1,0,0:0:0:0:
256,192,116093,1,8,0:0:0:0:
256,192,116327,1,8,0:0:0:0:
256,192,116562,5,0,0:0:0:0:
256,192,117265,1,8,0:0:0:0:
256,192,117616,5,8,0:0:0:0:
256,192,117968,1,8,0:0:0:0:
256,192,118437,5,0,0:0:0:0:
256,192,119374,1,8,0:0:0:0:
256,192,119843,1,8,0:0:0:0:
256,192,120312,1,4,0:0:0:0:
256,192,120780,1,0,0:0:0:0:
256,192,121015,1,8,0:0:0:0:
256,192,121483,1,8,0:0:0:0:
256,192,121718,1,8,0:0:0:0:
256,192,122187,5,0,0:0:0:0:
256,192,123124,1,0,0:0:0:0:
256,192,123593,1,8,0:0:0:0:
256,192,123827,1,8,0:0:0:0:
256,192,124062,5,0,0:0:0:0:
256,192,124530,1,0,0:0:0:0:
256,192,124765,1,8,0:0:0:0:
256,192,125233,1,8,0:0:0:0:
256,192,125468,1,8,0:0:0:0:
256,192,125937,5,0,0:0:0:0:
256,192,126640,5,8,0:0:0:0:
256,192,127108,1,8,0:0:0:0:
256,192,127812,1,12,0:0:0:0:
256,192,128163,1,12,0:0:0:0:
256,192,128515,1,12,0:0:0:0:
