osu file format v14

[General]
AudioFilename: audio.mp3
AudioLeadIn: 0
PreviewTime: -1
Countdown: 1
SampleSet: None
StackLeniency: 0.7
Mode: 0
LetterboxInBreaks: 0
WidescreenStoryboard: 0

[Editor]
DistanceSpacing: 1
BeatDivisor: 1
GridSize: 32
TimelineZoom: 1

[Metadata]
Title:gimh Pankov
TitleUnicode:gimh Pankov
Artist:Krasnaya plesen
ArtistUnicode:Krasnaya plesen
Creator:Kaname1997
Version:Easy
Source:
Tags:
BeatmapID:2075107
BeatmapSetID:992259

[Difficulty]
HPDrainRate:5
CircleSize:5
OverallDifficulty:5
ApproachRate:5
SliderMultiplier:0.8
SliderTickRate:2

[Events]
//Background and Video events
//Break Periods
//Storyboard Layer 0 (Background)
//Storyboard Layer 1 (Fail)
//Storyboard Layer 2 (Pass)
//Storyboard Layer 3 (Foreground)
//Storyboard Sound Samples

[TimingPoints]
4333.41958041958,419.58041958042,4,1,0,100,1,0

[HitObjects]
20,131,4333,5,0,0:0:0:0:
156,173,5172,1,0,0:0:0:0:
315,187,6011,1,0,0:0:0:0:
424,72,6850,1,0,0:0:0:0:
250,101,7690,1,0,0:0:0:0:
81,198,8529,5,0,0:0:0:0:
214,210,9368,1,0,0:0:0:0:
354,133,10207,1,0,0:0:0:0:
195,106,11046,1,0,0:0:0:0:
136,257,11885,5,0,0:0:0:0:
286,206,12725,1,0,0:0:0:0:
441,135,13564,1,0,0:0:0:0:
294,68,14403,1,0,0:0:0:0:
166,134,15242,1,0,0:0:0:0:
279,254,16081,1,0,0:0:0:0:
416,149,16920,5,0,0:0:0:0:
246,81,17759,1,0,0:0:0:0:
166,230,18599,1,0,0:0:0:0:
326,211,19438,1,0,0:0:0:0:
258,47,20277,1,0,0:0:0:0:
172,200,21116,5,0,0:0:0:0:
365,218,21955,1,0,0:0:0:0:
308,37,22794,1,0,0:0:0:0:
139,139,23634,1,0,0:0:0:0:
266,248,24473,1,0,0:0:0:0:
380,126,25312,1,0,0:0:0:0:
200,54,26151,5,0,0:0:0:0:
202,223,26990,1,0,0:0:0:0:
361,236,27829,1,0,0:0:0:0:
445,63,28669,5,0,0:0:0:0:
282,150,29508,1,0,0:0:0:0:
422,208,30347,1,0,0:0:0:0:
241,193,31186,1,0,0:0:0:0:
155,64,32025,1,0,0:0:0:0:
185,227,32864,5,0,0:0:0:0:
332,291,33704,1,0,0:0:0:0:
438,150,34543,1,0,0:0:0:0:
261,104,35382,1,0,0:0:0:0:
106,146,36221,2,0,P|276:159|281:157,1,160
408,126,37899,2,0,L|201:190,1,160
83,220,39578,6,0,B|174:224|243:189|307:137|401:148|463:241|461:240,4,400
209,122,48808,6,4,B|325:82|372:70|446:84|492:185,2,320
160,283,53004,2,4,B|259:276|349:238|359:159|374:84,2,320
134,124,57200,6,4,P|293:120|365:164,1,240
360,305,59298,2,4,L|71:290,3,240
102,180,63494,2,4,L|351:141,3,240
161,142,68948,5,4,0:0:0:0:
255,281,69787,1,4,0:0:0:0:
385,126,71046,5,4,0:0:0:0:
276,205,71885,1,4,0:0:0:0:
135,131,72725,1,4,0:0:0:0:
151,288,73564,1,0,0:0:0:0:
297,178,74403,1,0,0:0:0:0:
412,68,75242,5,0,0:0:0:0:
244,87,76081,1,0,0:0:0:0:
141,251,76920,1,0,0:0:0:0:
300,255,77759,1,0,0:0:0:0:
438,135,78599,1,0,0:0:0:0:
295,70,79438,5,0,0:0:0:0:
183,153,80277,1,0,0:0:0:0:
235,309,81116,1,0,0:0:0:0:
346,174,81955,1,0,0:0:0:0:
428,28,82794,1,0,0:0:0:0:
251,91,83634,5,0,0:0:0:0:
283,258,84473,1,0,0:0:0:0:
437,205,85312,1,0,0:0:0:0:
452,65,86151,1,0,0:0:0:0:
340,113,86990,1,0,0:0:0:0:
203,200,87829,5,4,0:0:0:0:
353,275,88669,1,4,0:0:0:0:
496,164,89508,1,4,0:0:0:0:
313,104,90347,1,4,0:0:0:0:
262,255,91186,1,4,0:0:0:0:
419,275,92025,2,4,B|445:175|421:115|402:102,5,160
158,279,97899,6,4,B|146:180|161:103|244:65|252:57,1,240
359,190,99997,2,4,B|375:84|319:53|207:58,1,240
128,189,102095,2,4,B|228:266|306:293|370:291|355:297,1,240
407,178,104193,2,4,P|257:81|156:108,1,240
258,251,106291,6,4,B|426:309|468:249|472:214|484:128,2,320
111,170,110487,5,4,0:0:0:0:
202,283,111326,1,4,0:0:0:0:
355,214,112165,1,4,0:0:0:0:
368,56,113004,1,4,0:0:0:0:
200,152,113843,1,0,0:0:0:0:
161,314,114683,5,0,0:0:0:0:
312,267,115522,1,0,0:0:0:0:
387,125,116361,1,0,0:0:0:0:
316,144,116780,1,0,0:0:0:0:
248,193,117200,1,0,0:0:0:0:
246,314,118039,5,0,0:0:0:0:
324,257,118459,1,0,0:0:0:0:
363,80,119298,1,0,0:0:0:0:
218,194,120137,5,0,0:0:0:0:
162,269,120557,1,0,0:0:0:0:
325,332,121396,5,0,0:0:0:0:
259,282,121815,1,0,0:0:0:0:
259,282,122235,1,0,0:0:0:0:
429,240,123074,5,0,0:0:0:0:
405,126,123494,1,0,0:0:0:0:
415,205,123913,1,0,0:0:0:0:
222,286,125172,5,0,0:0:0:0:
133,282,125592,1,0,0:0:0:0:
40,217,126011,1,0,0:0:0:0:
200,124,126850,5,0,0:0:0:0:
186,228,127270,1,0,0:0:0:0:
186,228,127690,1,0,0:0:0:0:
256,192,128109,12,0,134822,0:0:0:0:
