osu file format v14

[General]
AudioFilename: Kraken - Do it!! Do it!!.mp3
AudioLeadIn: 0
PreviewTime: 22754
Countdown: 0
SampleSet: Normal
StackLeniency: 0.2
Mode: 0
LetterboxInBreaks: 1
WidescreenStoryboard: 1

[Editor]
Bookmarks: 3554,6754,13154,16354,19554,22754,29154,41154,48354,66754,67554,73954,77154,78754,81954,83554,89954,96354,105954,109154
DistanceSpacing: 1
BeatDivisor: 2
GridSize: 4
TimelineZoom: 2.799999

[Metadata]
Title:Do it!! Do it!!
TitleUnicode:Do it!! Do it!!
Artist:Kraken
ArtistUnicode:Kraken
Creator:Matrix
Version:Normal
Source:beatmania IIDX 15 DJ TROOPERS
Tags:beatmania iidx dj troopers ryutaro nakahara fanzhen0019 macuilxochitl mithew spro sprosive rustbell electronic instrumental video game
BeatmapID:2605139
BeatmapSetID:521340

[Difficulty]
HPDrainRate:4
CircleSize:4
OverallDifficulty:4
ApproachRate:6
SliderMultiplier:0.549999904632569
SliderTickRate:1

[Events]
//Background and Video events
0,0,"I_DOIT_DOIT.jpg",0,0
//Break Periods
2,48554,52954
//Storyboard Layer 0 (Background)
//Storyboard Layer 1 (Fail)
//Storyboard Layer 2 (Pass)
//Storyboard Layer 3 (Foreground)
//Storyboard Layer 4 (Overlay)
//Storyboard Sound Samples

[TimingPoints]
3554,200,4,1,1,35,1,0
3554,-100,4,1,1,35,0,0
6754,-100,4,1,1,45,0,0
22754,-100,4,1,1,45,0,0
81954,-100,4,2,0,40,0,0
83554,-100,4,1,1,50,0,0
96354,-100,4,1,1,50,0,1
109154,-100,4,1,1,40,0,0

[Colours]
Combo1 : 128,128,128
Combo2 : 88,160,160
Combo3 : 41,121,201
Combo4 : 80,134,163

[HitObjects]
97,289,3554,5,4,0:0:0:0:
336,349,4454,2,0,L|406:334,1,54.9999904632569,0|0,0:0|0:0,0:0:0:0:
445,338,4854,2,0,B|422:310|429:272,1,54.9999904632569,0|0,0:0|0:0,0:0:0:0:
437,232,5254,1,4,0:0:0:0:
33,319,6754,5,12,0:0:0:0:
132,272,7154,1,8,0:0:0:0:
41,208,7554,1,8,0:0:0:0:
51,154,7754,1,8,0:0:0:0:
60,99,7954,2,0,P|94:97|127:75,1,54.9999904632569,8|8,0:0|0:0,0:0:0:0:
158,58,8354,5,12,0:0:0:0:
262,22,8754,1,8,0:0:0:0:
237,129,9154,2,0,L|242:192,1,54.9999904632569,8|8,0:0|0:0,0:0:0:0:
290,209,9554,2,0,L|295:272,1,54.9999904632569,8|8,0:0|0:0,0:0:0:0:
297,318,9954,5,12,0:0:0:0:
394,367,10354,1,8,0:0:0:0:
480,298,10754,1,8,0:0:0:0:
453,249,10954,1,8,0:0:0:0:
423,202,11154,2,0,B|411:178|411:178|429:141,1,54.9999904632569,8|8,0:0|0:0,0:0:0:0:
450,104,11554,5,12,0:0:0:0:
355,47,11954,1,8,0:0:0:0:
245,36,12354,2,0,P|252:82|246:101,1,54.9999904632569,0|8,0:0|0:0,0:0:0:0:
222,137,12754,2,0,L|240:210,1,54.9999904632569,8|8,0:0|0:0,0:0:0:0:
251,243,13154,5,12,0:0:0:0:
220,348,13554,1,8,0:0:0:0:
111,363,13954,1,12,0:0:0:0:
36,281,14354,1,8,0:0:0:0:
78,179,14754,1,12,0:0:0:0:
186,161,15154,1,8,0:0:0:0:
253,74,15554,6,0,L|320:80,1,54.9999904632569,4|8,0:0|0:0,0:0:0:0:
342,121,15954,2,0,L|409:127,1,54.9999904632569,12|8,0:0|0:0,0:0:0:0:
451,130,16354,5,12,0:0:0:0:
495,230,16754,1,12,0:0:0:0:
439,324,17154,2,0,P|400:329|377:350,1,54.9999904632569,12|8,0:0|0:0,0:0:0:0:
347,375,17554,2,0,L|295:342,1,54.9999904632569,12|8,0:0|0:0,0:0:0:0:
252,317,17954,5,8,0:0:0:0:
90,350,18554,1,8,0:0:0:0:
152,197,19154,2,0,B|168:152|138:122|157:84,1,109.999980926514,8|0,0:0|0:0,0:0:0:0:
43,63,22754,5,0,0:0:0:0:
83,100,22954,1,8,0:0:0:0:
62,151,23154,2,0,L|52:222,1,54.9999904632569,0|8,0:0|0:0,0:0:0:0:
69,258,23554,2,0,L|59:329,2,54.9999904632569,0|8|0,0:0|0:0|0:0,0:0:0:0:
164,203,24354,6,0,P|189:216|234:287,1,109.999980926514,0|0,0:0|0:0,0:0:0:0:
312,358,25154,1,0,0:0:0:0:
366,350,25354,1,8,0:0:0:0:
420,340,25554,2,0,L|435:281,1,54.9999904632569,0|8,0:0|0:0,0:0:0:0:
475,251,25954,2,0,B|449:232|447:203,1,54.9999904632569,0|8,0:0|0:0,0:0:0:0:
442,150,26354,1,8,0:0:0:0:
412,44,26754,6,0,L|481:33,2,54.9999904632569,0|8|0,0:0|0:0|0:0,0:0:0:0:
302,30,27554,2,0,B|254:38|254:38|244:34|244:34|186:43,1,109.999980926514,0|0,0:0|0:0,0:0:0:0:
85,24,28354,1,0,0:0:0:0:
48,65,28554,1,8,0:0:0:0:
38,119,28754,2,0,P|38:142|62:191,2,54.9999904632569,8|8|4,0:0|0:0|0:0,0:0:0:0:
146,138,29554,5,0,0:0:0:0:
254,152,29954,2,0,B|283:153|309:178,1,54.9999904632569,0|8,0:0|0:0,0:0:0:0:
346,207,30354,1,0,0:0:0:0:
453,215,30754,2,0,P|452:267|487:321,1,109.999980926514,0|0,0:0|0:0,0:0:0:0:
372,338,31554,6,0,B|348:329|309:341,1,54.9999904632569,0|8,0:0|0:0,0:0:0:0:
265,355,31954,2,0,B|234:364|210:355,1,54.9999904632569,0|8,0:0|0:0,0:0:0:0:
156,345,32354,1,4,0:0:0:0:
108,316,32554,1,8,0:0:0:0:
85,265,32754,1,0,0:0:0:0:
122,161,33154,1,4,0:0:0:0:
13,178,33554,1,4,0:0:0:0:
53,75,33954,5,8,0:0:0:0:
97,42,34154,1,8,0:0:0:0:
146,66,34354,2,0,L|211:60,1,54.9999904632569,8|8,0:0|0:0,0:0:0:0:
248,32,34754,2,0,L|317:25,1,54.9999904632569,8|8,0:0|0:0,0:0:0:0:
356,24,35154,2,0,B|373:77|373:77|443:71,1,109.999980926514,8|4,0:0|0:0,0:0:0:0:
498,156,35954,5,0,0:0:0:0:
434,245,36354,2,0,L|491:278,2,54.9999904632569,0|8|0,0:0|0:0|0:0,0:0:0:0:
360,163,37154,2,0,P|332:195|328:270,1,109.999980926514,0|0,0:0|0:0,0:0:0:0:
357,365,37954,2,0,L|282:361,1,54.9999904632569,0|8,0:0|0:0,0:0:0:0:
247,355,38354,1,0,0:0:0:0:
219,307,38554,1,8,0:0:0:0:
167,288,38754,2,0,P|129:288|101:303,1,54.9999904632569,0|8,0:0|0:0,0:0:0:0:
72,331,39154,1,0,0:0:0:0:
14,237,39554,6,0,L|-2:179,2,54.9999904632569,0|8|0,0:0|0:0|0:0,0:0:0:0:
111,185,40354,1,0,0:0:0:0:
116,130,40554,1,8,0:0:0:0:
155,91,40754,1,0,0:0:0:0:
209,90,40954,1,8,0:0:0:0:
292,18,41354,5,8,0:0:0:0:
316,67,41554,1,0,0:0:0:0:
365,90,41754,1,8,0:0:0:0:
419,82,41954,2,0,L|412:157,1,54.9999904632569,4|12,0:0|0:0,0:0:0:0:
446,180,42354,2,0,L|439:255,1,54.9999904632569,8|12,0:0|0:0,0:0:0:0:
505,323,42954,5,8,0:0:0:0:
451,336,43154,1,4,0:0:0:0:
418,380,43354,2,0,L|363:376,1,54.9999904632569,4|4,0:0|0:0,0:0:0:0:
316,346,43754,1,12,0:0:0:0:
271,313,43954,2,0,L|216:309,1,54.9999904632569,8|12,0:0|0:0,0:0:0:0:
139,341,44454,6,0,P|117:304|74:288,1,82.4999856948854
27,282,44954,1,8,0:0:0:0:
37,228,45154,2,0,L|44:167,1,54.9999904632569,8|8,0:0|0:0,0:0:0:0:
49,118,45554,2,0,P|30:94|8:84,2,54.9999904632569,8|8|8,0:0|0:0|0:0,0:0:0:0:
145,64,46354,2,0,L|199:58,1,54.9999904632569,8|8,0:0|0:0,0:0:0:0:
254,53,46754,1,0,0:0:0:0:
256,192,46854,12,0,48354,0:0:0:0:
256,192,54754,12,0,56354,0:0:0:0:
256,192,58054,12,0,59554,0:0:0:0:
256,192,61354,12,0,62754,0:0:0:0:
256,192,64354,12,0,65954,0:0:0:0:
36,253,66754,5,8,0:0:0:0:
87,350,67154,1,8,0:0:0:0:
196,344,67554,2,0,P|223:336|268:344,2,54.9999904632569,4|0|0,0:0|0:0|0:0,0:0:0:0:
154,241,68354,1,8,0:0:0:0:
241,174,68754,1,8,0:0:0:0:
137,138,69154,2,0,L|71:132,2,54.9999904632569,4|0|0,0:0|0:0|0:0,0:0:0:0:
212,57,69954,6,0,L|277:53,1,54.9999904632569,8|0,0:0|0:0,0:0:0:0:
311,85,70354,2,0,L|376:81,1,54.9999904632569,8|0,0:0|0:0,0:0:0:0:
420,77,70754,2,0,B|411:48|411:48|425:20,2,54.9999904632569,4|0|0,0:0|0:0|0:0,0:0:0:0:
461,179,71554,1,8,0:0:0:0:
504,280,71954,1,8,0:0:0:0:
394,268,72354,2,0,P|411:297|410:332,2,54.9999904632569,4|0|0,0:0|0:0|0:0,0:0:0:0:
288,236,73154,1,8,0:0:0:0:
212,316,73554,1,8,0:0:0:0:
105,342,73954,6,0,B|56:367|56:367|9:325,1,109.999980926514,4|8,0:0|0:0,0:0:0:0:
28,221,74754,2,0,B|77:196|77:196|123:237,1,109.999980926514,4|8,0:0|0:0,0:0:0:0:
202,303,75554,2,0,P|251:331|316:317,1,109.999980926514,4|8,0:0|0:0,0:0:0:0:
325,217,76354,2,0,P|276:189|211:203,1,109.999980926514,4|8,0:0|0:0,0:0:0:0:
117,232,77154,5,8,0:0:0:0:
44,149,77554,1,8,0:0:0:0:
105,57,77954,1,8,0:0:0:0:
213,75,78354,1,8,0:0:0:0:
256,192,78754,12,8,80354,0:0:0:0:
60,341,81954,5,2,0:0:0:0:
43,288,82154,1,2,0:0:0:0:
38,233,82354,2,0,P|38:201|43:179,1,54.9999904632569,2|2,0:0|0:0,0:0:0:0:
57,125,82754,2,0,P|67:94|80:75,1,54.9999904632569,2|2,0:0|0:0,0:0:0:0:
115,34,83154,1,2,0:0:0:0:
195,108,83554,5,0,0:0:0:0:
242,81,83754,1,8,0:0:0:0:
295,70,83954,2,0,P|337:70|355:78,1,54.9999904632569,0|8,0:0|0:0,0:0:0:0:
401,91,84354,2,0,P|443:105|467:102,1,54.9999904632569,0|8,0:0|0:0,0:0:0:0:
506,93,84754,1,0,0:0:0:0:
496,202,85154,6,0,B|475:221|475:221|470:265,1,54.9999904632569,0|8,0:0|0:0,0:0:0:0:
467,302,85554,1,0,0:0:0:0:
420,331,85754,1,8,0:0:0:0:
365,322,85954,2,0,P|358:344|336:377,2,54.9999904632569,0|8|0,0:0|0:0|0:0,0:0:0:0:
344,270,86554,1,8,0:0:0:0:
290,255,86754,1,4,0:0:0:0:
213,333,87154,6,0,L|149:339,1,54.9999904632569,0|8,0:0|0:0,0:0:0:0:
113,370,87554,2,0,L|49:376,1,54.9999904632569,0|8,0:0|0:0,0:0:0:0:
3,378,87954,1,0,0:0:0:0:
28,329,88154,1,8,0:0:0:0:
36,274,88354,1,0,0:0:0:0:
12,166,88754,6,0,B|45:170|76:145,1,54.9999904632569,0|8,0:0|0:0,0:0:0:0:
104,115,89154,1,8,0:0:0:0:
129,66,89354,1,8,0:0:0:0:
172,32,89554,2,0,P|204:26|238:28,1,54.9999904632569,8|0,0:0|0:0,0:0:0:0:
280,35,89954,5,4,0:0:0:0:
386,62,90354,1,0,0:0:0:0:
398,171,90754,1,0,0:0:0:0:
290,145,91154,2,0,P|284:179|307:209,1,54.9999904632569,0|8,0:0|0:0,0:0:0:0:
309,248,91554,2,0,L|246:236,1,54.9999904632569,0|8,0:0|0:0,0:0:0:0:
200,225,91954,1,0,0:0:0:0:
145,233,92154,1,8,0:0:0:0:
111,276,92354,1,0,0:0:0:0:
118,330,92554,1,8,0:0:0:0:
162,362,92754,1,0,0:0:0:0:
271,351,93154,6,0,L|393:338,1,109.999980926514,4|0,0:0|0:0,0:0:0:0:
486,308,93954,2,0,P|450:261|453:207,1,109.999980926514,0|0,0:0|0:0,0:0:0:0:
489,109,94754,5,8,0:0:0:0:
478,54,94954,1,8,0:0:0:0:
425,36,95154,1,8,0:0:0:0:
375,60,95354,1,8,0:0:0:0:
334,97,95554,1,8,0:0:0:0:
279,91,95754,1,8,0:0:0:0:
243,49,95954,1,8,0:0:0:0:
139,12,96354,6,0,P|126:35|130:69,1,54.9999904632569,2|10,0:0|0:0,0:0:0:0:
156,109,96754,2,0,L|149:186,1,54.9999904632569,2|10,0:0|0:0,0:0:0:0:
145,218,97154,1,0,0:0:0:0:
113,263,97354,1,10,0:0:0:0:
58,272,97554,1,2,0:0:0:0:
98,374,97954,5,0,0:0:0:0:
147,350,98154,1,10,0:0:0:0:
201,346,98354,2,0,P|241:349|259:362,1,54.9999904632569,2|10,0:0|0:0,0:0:0:0:
304,376,98754,2,0,P|335:380|373:376,1,54.9999904632569,0|10,0:0|0:0,0:0:0:0:
408,355,99154,1,2,0:0:0:0:
474,267,99554,6,0,L|461:191,1,54.9999904632569,2|10,0:0|0:0,0:0:0:0:
484,161,99954,2,0,L|471:85,1,54.9999904632569,2|10,0:0|0:0,0:0:0:0:
440,63,100354,2,0,P|452:31|494:13,2,54.9999904632569,0|10|2,0:0|0:0|0:0,0:0:0:0:
354,131,101154,2,0,L|282:124,1,54.9999904632569,0|10,0:0|0:0,0:0:0:0:
244,117,101554,1,2,0:0:0:0:
194,92,101754,1,10,0:0:0:0:
155,52,101954,2,0,P|132:37|106:33,2,54.9999904632569,0|10|2,0:0|0:0|0:0,0:0:0:0:
79,132,102754,5,2,0:0:0:0:
102,181,102954,1,10,0:0:0:0:
92,235,103154,2,0,P|75:259|43:279,2,54.9999904632569,2|10|0,0:0|0:0|0:0,0:0:0:0:
167,315,103954,5,2,0:0:0:0:
198,271,104154,1,10,0:0:0:0:
250,253,104354,2,0,P|279:255|312:273,2,54.9999904632569,0|10|2,0:0|0:0|0:0,0:0:0:0:
291,150,105154,5,0,0:0:0:0:
238,145,105354,1,10,0:0:0:0:
196,109,105554,2,0,P|183:82|182:44,1,54.9999904632569,2|10,0:0|0:0,0:0:0:0:
199,5,105954,5,10,0:0:0:0:
38,44,106554,1,10,0:0:0:0:
88,201,107154,1,10,0:0:0:0:
256,192,107554,12,8,109154,0:0:0:0:
