osu file format v14

[General]
AudioFilename: Kraken - Do it!! Do it!!.mp3
AudioLeadIn: 0
PreviewTime: 22754
Countdown: 0
SampleSet: Normal
StackLeniency: 0.2
Mode: 0
LetterboxInBreaks: 1
WidescreenStoryboard: 1

[Editor]
Bookmarks: 3554,6754,13154,16354,19554,22754,29154,41154,48354,66754,67554,73954,77154,78754,81954,83554,89954,96354,105954,109154
DistanceSpacing: 0.3
BeatDivisor: 4
GridSize: 8
TimelineZoom: 2.999999

[Metadata]
Title:Do it!! Do it!!
TitleUnicode:Do it!! Do it!!
Artist:Kraken
ArtistUnicode:Kraken
Creator:Matrix
Version:Insane
Source:beatmania IIDX 15 DJ TROOPERS
Tags:beatmania iidx dj troopers ryutaro nakahara fanzhen0019 macuilxochitl mithew spro sprosive rustbell electronic instrumental video game
BeatmapID:2601420
BeatmapSetID:521340

[Difficulty]
HPDrainRate:4
CircleSize:5
OverallDifficulty:7
ApproachRate:9
SliderMultiplier:1.19999990463257
SliderTickRate:1

[Events]
//Background and Video events
0,0,"I_DOIT_DOIT.jpg",0,0
//Break Periods
2,48554,53054
//Storyboard Layer 0 (Background)
//Storyboard Layer 1 (Fail)
//Storyboard Layer 2 (Pass)
//Storyboard Layer 3 (Foreground)
//Storyboard Layer 4 (Overlay)
//Storyboard Sound Samples

[TimingPoints]
3554,200,4,1,1,35,1,0
3554,-100,4,1,1,35,0,0
6754,-100,4,1,1,45,0,0
22754,-100,4,1,1,45,0,0
56154,-100,4,1,1,5,0,0
56354,-100,4,1,1,40,0,0
59354,-100,4,1,1,5,0,0
59554,-100,4,1,1,40,0,0
62554,-100,4,1,1,5,0,0
62754,-100,4,1,1,40,0,0
65754,-100,4,1,1,5,0,0
65954,-100,4,1,1,40,0,0
81954,-100,4,2,0,40,0,0
83554,-100,4,1,1,50,0,0
96354,-100,4,1,1,50,0,1
109154,-100,4,1,1,40,0,0

[Colours]
Combo1 : 128,128,128
Combo2 : 88,160,160
Combo3 : 41,121,201
Combo4 : 80,134,163

[HitObjects]
55,286,3554,5,4,0:0:0:0:
56,62,4454,6,0,L|136:56,1,59.9999952316285,0|0,0:0|0:0,0:0:0:0:
166,99,4654,2,0,L|246:93,1,59.9999952316285,0|0,0:0|0:0,0:0:0:0:
282,128,4854,2,0,L|288:208,1,59.9999952316285,0|0,0:0|0:0,0:0:0:0:
245,238,5054,2,0,L|251:318,1,59.9999952316285,0|0,0:0|0:0,0:0:0:0:
304,334,5254,1,4,0:0:0:0:
443,47,6754,6,0,L|459:186,1,119.999990463257,8|0,0:0|0:0,0:0:0:0:
378,189,7154,2,0,L|365:70,1,119.999990463257,8|0,0:0|0:0,0:0:0:0:
397,319,7554,5,8,0:0:0:0:
276,264,7754,1,8,0:0:0:0:
191,365,7954,1,8,0:0:0:0:
183,357,8054,1,0,0:0:0:0:
175,349,8154,1,8,0:0:0:0:
167,341,8254,1,0,0:0:0:0:
159,333,8354,2,0,L|144:200,1,119.999990463257,12|0,0:0|0:0,0:0:0:0:
62,206,8754,2,0,L|76:326,1,119.999990463257,8|0,0:0|0:0,0:0:0:0:
46,75,9154,5,8,0:0:0:0:
166,129,9354,1,8,0:0:0:0:
240,8,9554,1,8,0:0:0:0:
248,16,9654,1,8,0:0:0:0:
256,24,9754,2,0,L|303:33,2,29.9999976158142,8|0|8,0:0|0:0|0:0,0:0:0:0:
224,88,9954,2,0,B|282:137|251:215,1,119.999990463257,8|0,0:0|0:0,0:0:0:0:
380,226,10354,2,0,B|322:177|353:99,1,119.999990463257,8|0,0:0|0:0,0:0:0:0:
437,22,10754,5,8,0:0:0:0:
478,147,10954,1,8,0:0:0:0:
432,272,11154,1,8,0:0:0:0:
424,280,11254,1,0,0:0:0:0:
416,288,11354,1,8,0:0:0:0:
408,296,11454,1,0,0:0:0:0:
400,304,11554,2,0,B|336:296|288:352,1,119.999990463257,12|0,0:0|0:0,0:0:0:0:
168,296,11954,2,0,B|232:304|280:248,1,119.999990463257,8|0,0:0|0:0,0:0:0:0:
328,136,12354,5,0,0:0:0:0:
200,112,12554,1,8,0:0:0:0:
96,200,12754,1,8,0:0:0:0:
88,208,12854,1,8,0:0:0:0:
80,216,12954,2,0,L|88:256,2,29.9999976158142,8|0|8,0:0|0:0|0:0,0:0:0:0:
40,272,13154,6,0,L|184:256,1,119.999990463257,8|0,0:0|0:0,0:0:0:0:
264,336,13554,2,0,L|408:320,1,119.999990463257,8|0,0:0|0:0,0:0:0:0:
456,208,13954,2,0,B|384:216|344:144,1,119.999990463257,8|0,0:0|0:0,0:0:0:0:
408,40,14354,2,0,B|480:32|520:104,1,119.999990463257,8|0,0:0|0:0,0:0:0:0:
272,56,14754,2,0,L|128:80,1,119.999990463257,8|0,0:0|0:0,0:0:0:0:
96,192,15154,2,0,L|214:172,1,119.999990463257,8|0,0:0|0:0,0:0:0:0:
344,144,15554,1,0,0:0:0:0:
304,272,15754,1,8,0:0:0:0:
408,352,15954,2,0,B|440:352|440:352|480:368,2,59.9999952316285,8|8|8,0:0|0:0|0:0,0:0:0:0:
304,272,16354,6,0,B|272:320|272:320|184:312,1,119.999990463257,8|0,0:0|0:0,0:0:0:0:
112,224,16754,2,0,B|144:176|144:176|232:184,1,119.999990463257,8|0,0:0|0:0,0:0:0:0:
336,192,17154,1,8,0:0:0:0:
440,104,17354,1,8,0:0:0:0:
312,128,17554,1,8,0:0:0:0:
416,40,17754,1,8,0:0:0:0:
288,64,17954,6,0,B|262:39|262:39|216:30,4,59.9999952316285,8|4|8|4|8,0:0|0:0|0:0|0:0|0:0,0:0:0:0:
160,16,18554,2,0,B|151:50|151:50|166:94,4,59.9999952316285,8|4|8|4|8,0:0|0:0|0:0|0:0|0:0,0:0:0:0:
181,145,19154,2,0,B|215:134|215:134|245:99,3,59.9999952316285,8|4|8|4,0:0|0:0|0:0|0:0,0:0:0:0:
256,192,21154,12,0,22454,0:0:0:0:
64,72,22754,5,0,0:0:0:0:
184,56,22954,1,8,0:0:0:0:
72,88,23154,1,0,0:0:0:0:
192,72,23354,1,8,0:0:0:0:
96,152,23554,2,0,L|72:232,1,59.9999952316285,0|0,0:0|0:0,0:0:0:0:
128,248,23754,2,0,L|104:328,1,59.9999952316285,8|8,0:0|0:0,0:0:0:0:
95,363,23954,2,0,P|151:339|223:347,1,119.999990463257,0|8,0:0|0:0,0:0:0:0:
328,368,24354,2,0,P|387:370|441:347,1,119.999990463257,0|8,0:0|0:0,0:0:0:0:
364,255,24754,5,0,0:0:0:0:
451,173,24954,1,8,0:0:0:0:
328,168,25154,2,0,B|256:184|208:128,1,119.999990463257,0|8,0:0|0:0,0:0:0:0:
248,24,25554,2,0,B|320:8|368:64,1,119.999990463257,0|8,0:0|0:0,0:0:0:0:
216,138,25954,2,0,B|178:184|106:168,1,119.999990463257,0|8,0:0|0:0,0:0:0:0:
75,53,26354,2,0,B|114:8|186:24,1,119.999990463257,0|8,0:0|0:0,0:0:0:0:
107,168,26754,2,0,L|51:192,1,59.9999952316285,0|0,0:0|0:0,0:0:0:0:
50,251,26954,2,0,L|106:275,1,59.9999952316285,8|8,0:0|0:0,0:0:0:0:
165,276,27154,2,0,L|21:340,1,119.999990463257,0|8,0:0|0:0,0:0:0:0:
163,378,27554,2,0,L|272:329,1,119.999990463257,0|8,0:0|0:0,0:0:0:0:
389,357,27954,5,0,0:0:0:0:
487,287,28154,1,8,0:0:0:0:
378,235,28354,1,0,0:0:0:0:
476,165,28554,1,8,0:0:0:0:
411,63,28754,2,0,B|438:43|438:43|468:45,2,59.9999952316285,8|8|8,0:0|0:0|0:0,0:0:0:0:
313,133,29154,6,0,B|272:166|272:166|200:136,1,119.999990463257,4|8,0:0|0:0,0:0:0:0:
59,64,29554,2,0,B|100:31|100:31|162:56,1,119.999990463257,0|8,0:0|0:0,0:0:0:0:
94,156,29954,2,0,L|85:226,1,59.9999952316285,0|0,0:0|0:0,0:0:0:0:
120,265,30154,2,0,L|111:335,1,59.9999952316285,8|0,0:0|0:0,0:0:0:0:
85,379,30354,2,0,B|130:330|210:355,1,119.999990463257,0|8,0:0|0:0,0:0:0:0:
316,368,30754,1,0,0:0:0:0:
436,344,30954,1,8,0:0:0:0:
320,352,31154,1,0,0:0:0:0:
440,328,31354,1,8,0:0:0:0:
368,232,31554,6,0,B|432:200|432:200|480:216,2,119.999990463257,0|8|0,0:0|0:0|0:0,0:0:0:0:
326,119,32154,2,0,L|272:146,2,59.9999952316285,8|0|4,0:0|0:0|0:0,0:0:0:0:
245,29,32554,2,0,B|189:72|132:24,1,119.999990463257,8|0,0:0|0:0,0:0:0:0:
8,120,32954,2,0,B|64:77|121:125,1,119.999990463257,8|4,0:0|0:0,0:0:0:0:
115,242,33354,2,0,B|59:285|2:237,2,119.999990463257,8|4|8,0:0|0:0|0:0,0:0:0:0:
224,184,33954,5,8,0:0:0:0:
242,302,34154,1,8,0:0:0:0:
240,192,34354,1,8,0:0:0:0:
258,310,34554,1,8,0:0:0:0:
256,200,34754,1,8,0:0:0:0:
274,318,34954,1,8,0:0:0:0:
378,254,35154,2,0,B|417:274|417:274|434:358,1,119.999990463257,8|8,0:0|0:0,0:0:0:0:
481,195,35554,6,0,L|359:140,1,119.999990463257,4|8,0:0|0:0,0:0:0:0:
353,29,35954,2,0,L|475:84,1,119.999990463257,0|8,0:0|0:0,0:0:0:0:
304,98,36354,2,0,L|238:98,1,59.9999952316285,0|0,0:0|0:0,0:0:0:0:
195,60,36554,2,0,L|129:60,1,59.9999952316285,8|0,0:0|0:0,0:0:0:0:
76,85,36754,2,0,B|66:23|66:23|6:-5,2,119.999990463257,0|8|0,0:0|0:0|0:0,0:0:0:0:
4,181,37354,5,8,0:0:0:0:
122,198,37554,1,0,0:0:0:0:
10,243,37754,1,8,0:0:0:0:
128,260,37954,1,0,0:0:0:0:
16,304,38154,1,8,0:0:0:0:
134,321,38354,1,0,0:0:0:0:
22,365,38554,2,0,L|83:372,2,59.9999952316285,8|0|0,0:0|0:0|0:0,0:0:0:0:
134,321,38954,6,0,B|183:287|183:287|260:305,1,119.999990463257,8|0,0:0|0:0,0:0:0:0:
357,332,39354,1,8,0:0:0:0:
472,366,39554,2,0,L|454:286,1,59.9999952316285,0|0,0:0|0:0,0:0:0:0:
489,254,39754,2,0,L|471:174,1,59.9999952316285,8|0,0:0|0:0,0:0:0:0:
437,146,39954,2,0,B|509:115|496:34,2,119.999990463257,0|8|0,0:0|0:0|0:0,0:0:0:0:
384,40,40554,2,0,B|337:38|337:38|319:29|319:29|250:26,2,119.999990463257,8|0|8,0:0|0:0|0:0,0:0:0:0:
154,110,41354,5,8,0:0:0:0:
42,154,41554,1,0,0:0:0:0:
59,35,41754,1,8,0:0:0:0:
154,110,41954,2,0,L|141:240,1,119.999990463257,4|12,0:0|0:0,0:0:0:0:
255,296,42354,2,0,L|261:237,2,59.9999952316285,8|0|12,0:0|0:0|0:0,0:0:0:0:
389,202,42854,6,0,B|421:206|421:206|451:166,1,59.9999952316285,0|8,0:0|0:0,0:0:0:0:
495,78,43154,1,4,0:0:0:0:
377,53,43354,2,0,B|345:49|345:49|315:89,1,59.9999952316285,4|0,0:0|0:0,0:0:0:0:
298,123,43554,2,0,L|159:103,1,119.999990463257,4|12,0:0|0:0,0:0:0:0:
87,28,43954,2,0,L|64:98,2,59.9999952316285,8|4|12,0:0|0:0|0:0,0:0:0:0:
10,190,44454,6,0,L|33:260,1,59.9999952316285,0|8,0:0|0:0,0:0:0:0:
10,366,44754,2,0,P|60:330|131:334,1,119.999990463257,0|8,0:0|0:0,0:0:0:0:
229,369,45154,2,0,B|264:365|264:365|301:335,4,59.9999952316285,8|0|8|0|8,0:0|0:0|0:0|0:0|0:0,0:0:0:0:
348,302,45754,2,0,B|327:273|327:273|284:256,4,59.9999952316285,8|0|8|0|8,0:0|0:0|0:0|0:0|0:0,0:0:0:0:
236,235,46354,2,0,B|222:268|222:268|230:313,3,59.9999952316285,8|0|8|0,0:0|0:0|0:0|0:0,0:0:0:0:
256,192,46754,12,0,48154,0:0:0:0:
360,288,48354,5,2,2:0:0:0:
256,192,54854,12,0,56154,0:0:0:0:
79,335,56354,5,4,0:0:0:0:
256,192,57954,12,0,59354,0:0:0:0:
433,49,59554,5,4,0:0:0:0:
256,192,61254,12,0,62554,0:0:0:0:
99,76,62754,5,4,0:0:0:0:
256,192,64454,12,0,65754,0:0:0:0:
413,308,65954,5,4,0:0:0:0:
80,336,66754,6,0,L|68:213,1,119.999990463257,8|0,0:0|0:0,0:0:0:0:
156,160,67154,2,0,L|168:280,1,119.999990463257,8|0,0:0|0:0,0:0:0:0:
256,224,67554,1,4,0:0:0:0:
256,224,67954,1,0,0:0:0:0:
279,22,68354,6,0,B|235:67|235:67|243:138,1,119.999990463257,8|0,0:0|0:0,0:0:0:0:
331,159,68754,2,0,B|374:113|374:113|366:42,1,119.999990463257,8|0,0:0|0:0,0:0:0:0:
256,224,69154,1,4,0:0:0:0:
256,224,69554,1,0,0:0:0:0:
440,368,69954,6,0,B|504:336|488:248,1,119.999990463257,8|0,0:0|0:0,0:0:0:0:
400,212,70354,2,0,B|336:244|352:332,1,119.999990463257,8|0,0:0|0:0,0:0:0:0:
256,224,70754,1,4,0:0:0:0:
256,224,71154,1,0,0:0:0:0:
162,189,71554,6,0,L|131:55,1,119.999990463257,8|0,0:0|0:0,0:0:0:0:
68,154,71954,2,0,L|37:20,1,119.999990463257,8|0,0:0|0:0,0:0:0:0:
256,224,72354,1,4,0:0:0:0:
256,224,72754,1,0,0:0:0:0:
387,0,73154,6,0,B|451:32|435:120,1,119.999990463257,8|0,0:0|0:0,0:0:0:0:
347,162,73554,2,0,B|283:130|299:42,1,119.999990463257,8|0,0:0|0:0,0:0:0:0:
256,224,73954,1,4,0:0:0:0:
111,343,74354,5,8,0:0:0:0:
133,162,74754,2,0,B|53:138|5:202,1,119.999990463257,4|0,0:0|0:0,0:0:0:0:
217,181,75154,5,8,0:0:0:0:
195,362,75554,2,0,B|275:386|323:322,1,119.999990463257,4|0,0:0|0:0,0:0:0:0:
111,343,75954,5,8,0:0:0:0:
217,181,76354,2,0,L|348:160,1,119.999990463257,4|0,0:0|0:0,0:0:0:0:
454,142,76754,1,8,0:0:0:0:
416,368,77154,6,0,L|480:352,2,59.9999952316285,8|0|0,0:0|0:0|0:0,0:0:0:0:
425,256,77554,2,0,L|489:240,2,59.9999952316285,8|0|0,0:0|0:0|0:0,0:0:0:0:
434,144,77954,2,0,L|498:128,2,59.9999952316285,8|0|0,0:0|0:0|0:0,0:0:0:0:
443,32,78354,2,0,L|507:16,2,59.9999952316285,8|0|0,0:0|0:0|0:0,0:0:0:0:
347,104,78754,6,0,B|317:112|317:112|294:96,1,59.9999952316285,8|8,0:0|0:0,0:0:0:0:
211,11,79054,2,0,B|184:23|184:23|177:54,1,59.9999952316285,8|0,0:0|0:0,0:0:0:0:
190,125,79254,2,0,B|211:147|211:147|209:187,10,59.9999952316285,8|8|8|8|8|8|8|8|8|8|8,0:0|0:0|0:0|0:0|0:0|0:0|0:0|0:0|0:0|0:0|0:0,0:0:0:0:
123,99,80354,1,4,0:0:0:0:
200,344,81954,5,2,0:0:0:0:
304,312,82154,1,2,0:0:0:0:
200,272,82354,1,2,0:0:0:0:
304,240,82554,1,2,0:0:0:0:
200,200,82754,1,2,0:0:0:0:
304,168,82954,1,2,0:0:0:0:
251,59,83154,2,0,B|251:182,1,119.999990463257,2|0,0:0|0:0,0:0:0:0:
140,54,83554,6,0,B|79:41|42:88,1,89.9999928474428,0|0,0:0|0:0,0:0:0:0:
31,95,83754,2,0,B|69:96|97:123,1,59.9999952316285,8|8,0:0|0:0,0:0:0:0:
136,158,83954,2,0,B|75:145|38:192,1,89.9999928474428,0|0,0:0|0:0,0:0:0:0:
27,199,84154,2,0,B|65:200|93:227,1,59.9999952316285,8|8,0:0|0:0,0:0:0:0:
101,281,84354,2,0,B|57:293|57:293|42:345,1,89.9999928474428,0|0,0:0|0:0,0:0:0:0:
39,368,84554,2,0,B|124:346,1,59.9999952316285,8|8,0:0|0:0,0:0:0:0:
162,342,84754,2,0,B|207:333|246:364,1,89.9999928474428,0|0,0:0|0:0,0:0:0:0:
278,360,84954,2,0,B|300:374|342:373,1,59.9999952316285,8|8,0:0|0:0,0:0:0:0:
402,368,85154,6,0,B|416:320|474:312,1,89.9999928474428,0|0,0:0|0:0,0:0:0:0:
496,312,85354,2,0,L|454:267,1,59.9999952316285,8|8,0:0|0:0,0:0:0:0:
392,256,85554,2,0,B|352:228|368:168,1,89.9999928474428,0|0,0:0|0:0,0:0:0:0:
379,145,85754,2,0,L|403:81,1,59.9999952316285,8|8,0:0|0:0,0:0:0:0:
423,27,85954,2,0,B|394:61|334:41,1,89.9999928474428,0|0,0:0|0:0,0:0:0:0:
308,33,86154,2,0,L|284:97,1,59.9999952316285,8|8,0:0|0:0,0:0:0:0:
261,150,86354,2,0,B|232:116|172:136,1,89.9999928474428,0|0,0:0|0:0,0:0:0:0:
146,144,86554,2,0,L|122:80,1,59.9999952316285,8|8,0:0|0:0,0:0:0:0:
104,25,86754,5,4,0:0:0:0:
38,139,86954,1,8,0:0:0:0:
122,240,87154,1,0,0:0:0:0:
245,195,87354,1,8,0:0:0:0:
329,296,87554,6,0,L|456:286,1,119.999990463257,0|8,0:0|0:0,0:0:0:0:
494,162,87954,2,0,L|374:171,1,119.999990463257,0|8,0:0|0:0,0:0:0:0:
199,319,88354,2,0,L|80:329,1,119.999990463257,0|8,0:0|0:0,0:0:0:0:
125,204,88754,2,0,L|245:195,1,119.999990463257,0|8,0:0|0:0,0:0:0:0:
317,84,89154,1,8,0:0:0:0:
325,68,89254,1,8,0:0:0:0:
333,52,89354,1,8,0:0:0:0:
461,12,89554,1,8,0:0:0:0:
453,28,89654,1,8,0:0:0:0:
445,44,89754,1,0,0:0:0:0:
412,171,89954,6,0,B|395:226|460:267,1,89.9999928474428,4|0,0:0|0:0,0:0:0:0:
452,281,90154,2,0,B|428:254|372:276,1,59.9999952316285,8|0,0:0|0:0,0:0:0:0:
340,304,90354,2,0,B|306:339|234:332,1,89.9999928474428,0|0,0:0|0:0,0:0:0:0:
224,334,90554,2,0,B|248:292|229:249,1,59.9999952316285,8|0,0:0|0:0,0:0:0:0:
228,210,90754,2,0,B|201:161|138:158,1,89.9999928474428,0|0,0:0|0:0,0:0:0:0:
123,155,90954,2,0,B|148:183|144:213,1,59.9999952316285,8|0,0:0|0:0,0:0:0:0:
87,244,91154,2,0,B|49:211|59:159,1,89.9999928474428,0|0,0:0|0:0,0:0:0:0:
41,134,91354,2,0,B|64:100|57:54,1,59.9999952316285,8|0,0:0|0:0,0:0:0:0:
48,12,91554,6,0,B|91:20|91:20|100:18|100:18|141:25,1,89.9999928474428,0|0,0:0|0:0,0:0:0:0:
169,18,91754,2,0,B|170:53|202:66,1,59.9999952316285,8|0,0:0|0:0,0:0:0:0:
266,78,91954,2,0,B|298:41|349:50,1,89.9999928474428,0|0,0:0|0:0,0:0:0:0:
371,72,92154,2,0,L|412:22,1,59.9999952316285,8|0,0:0|0:0,0:0:0:0:
473,59,92354,2,0,B|445:93|445:93|459:148,1,89.9999928474428,0|0,0:0|0:0,0:0:0:0:
480,161,92554,2,0,B|497:197|469:241,1,59.9999952316285,8|0,0:0|0:0,0:0:0:0:
432,267,92754,2,0,L|482:347,1,89.9999928474428,0|0,0:0|0:0,0:0:0:0:
501,369,92954,2,0,L|436:356,1,59.9999952316285,8|8,0:0|0:0,0:0:0:0:
378,341,93154,5,4,0:0:0:0:
249,371,93354,1,8,0:0:0:0:
176,260,93554,1,0,0:0:0:0:
47,290,93754,1,8,0:0:0:0:
85,163,93954,2,0,B|44:120|44:120|58:40,1,119.999990463257,0|8,0:0|0:0,0:0:0:0:
182,29,94354,2,0,B|223:72|223:72|209:152,1,119.999990463257,0|8,0:0|0:0,0:0:0:0:
176,260,94754,6,0,L|238:217,1,59.9999952316285,8|0,0:0|0:0,0:0:0:0:
258,283,94954,2,0,L|320:240,1,59.9999952316285,8|0,0:0|0:0,0:0:0:0:
280,187,95154,2,0,L|355:179,1,59.9999952316285,8|0,0:0|0:0,0:0:0:0:
329,116,95354,2,0,L|404:108,1,59.9999952316285,8|0,0:0|0:0,0:0:0:0:
366,48,95554,2,0,L|428:5,1,59.9999952316285,8|0,0:0|0:0,0:0:0:0:
448,71,95754,2,0,L|510:28,1,59.9999952316285,8|0,0:0|0:0,0:0:0:0:
511,111,95954,2,0,B|489:126|489:126|480:180,2,59.9999952316285,8|8|8,0:0|0:0|0:0,0:0:0:0:
468,236,96354,5,2,0:0:0:0:
488,366,96554,2,0,B|452:330|390:350,1,89.9999928474428,10|0,0:0|0:0,0:0:0:0:
369,354,96754,2,0,B|321:370|285:334,1,89.9999928474428,2|0,0:0|0:0,0:0:0:0:
265,305,96954,2,0,L|181:322,2,59.9999952316285,10|2|0,0:0|0:0|0:0,0:0:0:0:
292,238,97254,2,0,L|376:221,2,59.9999952316285,2|10|0,0:0|0:0|0:0,0:0:0:0:
223,217,97554,2,0,P|239:184|299:164,1,89.9999928474428,2|0,0:0|0:0,0:0:0:0:
320,154,97754,2,0,L|392:138,2,59.9999952316285,10|2|0,0:0|0:0|0:0,0:0:0:0:
290,88,98054,2,0,L|218:72,2,59.9999952316285,2|10|0,0:0|0:0|0:0,0:0:0:0:
321,23,98354,6,0,L|379:36,1,59.9999952316285,2|2,0:0|0:0,0:0:0:0:
453,54,98554,1,10,0:0:0:0:
453,54,98654,2,0,P|442:92|452:119,1,59.9999952316285,2|0,0:0|0:0,0:0:0:0:
487,175,98854,1,2,0:0:0:0:
487,175,98954,2,0,P|498:213|488:240,1,59.9999952316285,10|0,0:0|0:0,0:0:0:0:
426,259,99154,2,0,L|444:355,1,89.9999928474428,2|0,0:0|0:0,0:0:0:0:
448,382,99354,2,0,L|386:355,1,59.9999952316285,10|2,0:0|0:0,0:0:0:0:
325,331,99554,5,2,0:0:0:0:
190,382,99754,1,10,0:0:0:0:
92,276,99954,1,2,0:0:0:0:
224,220,100154,1,10,0:0:0:0:
224,220,100254,2,0,B|236:189|236:189|219:150,1,59.9999952316285,2|0,0:0|0:0,0:0:0:0:
285,125,100454,2,0,B|305:150|305:150|348:155,2,59.9999952316285,2|10|0,0:0|0:0|0:0,0:0:0:0:
219,95,100754,2,0,L|114:105,1,89.9999928474428,2|0,0:0|0:0,0:0:0:0:
93,108,100954,2,0,B|72:82|72:82|29:77,2,59.9999952316285,10|2|0,0:0|0:0|0:0,0:0:0:0:
119,175,101254,5,2,0:0:0:0:
119,175,101354,2,0,L|107:258,1,59.9999952316285,10|0,0:0|0:0,0:0:0:0:
39,254,101554,1,2,0:0:0:0:
39,254,101654,2,0,L|-7:201,2,59.9999952316285,2|10|2,0:0|0:0|0:0,0:0:0:0:
95,306,101954,2,0,L|178:313,1,59.9999952316285,0|2,0:0|0:0,0:0:0:0:
227,302,102154,2,0,B|235:335|270:346,1,59.9999952316285,10|0,0:0|0:0,0:0:0:0:
335,359,102354,2,0,B|391:356|414:321,1,89.9999928474428,2|0,0:0|0:0,0:0:0:0:
433,290,102554,2,0,B|445:260|434:224,1,59.9999952316285,10|2,0:0|0:0,0:0:0:0:
417,160,102754,5,2,0:0:0:0:
492,37,102954,1,10,0:0:0:0:
348,29,103154,1,2,0:0:0:0:
348,29,103254,1,0,0:0:0:0:
348,29,103354,2,0,L|212:45,1,119.999990463257,10|0,0:0|0:0,0:0:0:0:
160,52,103654,1,2,0:0:0:0:
160,52,103754,2,0,P|108:25|32:38,2,119.999990463257,10|2|10,0:0|0:0|0:0,0:0:0:0:
46,141,104354,6,0,L|60:199,1,59.9999952316285,0|2,0:0|0:0,0:0:0:0:
130,180,104554,2,0,L|144:238,1,59.9999952316285,10|0,0:0|0:0,0:0:0:0:
169,314,104754,1,2,0:0:0:0:
169,314,104854,1,2,0:0:0:0:
169,314,104954,1,10,0:0:0:0:
383,363,105254,1,2,0:0:0:0:
383,363,105354,1,10,0:0:0:0:
339,225,105554,1,2,0:0:0:0:
486,261,105754,1,10,0:0:0:0:
486,261,105854,1,0,0:0:0:0:
486,261,105954,6,0,B|472:230|472:230|501:202,4,59.9999952316285,10|2|10|2|10,0:0|0:0|0:0|0:0|0:0,0:0:0:0:
339,225,106554,2,0,B|312:205|312:205|323:166,4,59.9999952316285,10|2|10|2|10,0:0|0:0|0:0|0:0|0:0,0:0:0:0:
192,264,107154,1,10,0:0:0:0:
174,261,107254,1,8,0:0:0:0:
158,269,107354,1,10,0:0:0:0:
147,283,107454,1,10,0:0:0:0:
141,300,107554,2,0,B|107:296|107:296|97:256,15,59.9999952316285,8|8|8|8|8|8|8|8|8|8|8|8|8|8|8|8,0:0|0:0|0:0|0:0|0:0|0:0|0:0|0:0|0:0|0:0|0:0|0:0|0:0|0:0|0:0|0:0,0:0:0:0:
85,196,109154,5,4,0:0:0:0:
