osu file format v14

[General]
AudioFilename: Kraken - Do it!! Do it!!.mp3
AudioLeadIn: 0
PreviewTime: 22754
Countdown: 0
SampleSet: Normal
StackLeniency: 0.2
Mode: 0
LetterboxInBreaks: 1
WidescreenStoryboard: 1

[Editor]
Bookmarks: 3554,6754,13154,16354,19554,22754,29154,41154,48354,66754,67554,73954,77154,78754,81954,83554,89954,96354,105954,109154
DistanceSpacing: 1
BeatDivisor: 1
GridSize: 4
TimelineZoom: 2.799999

[Metadata]
Title:Do it!! Do it!!
TitleUnicode:Do it!! Do it!!
Artist:Kraken
ArtistUnicode:Kraken
Creator:Matrix
Version:Easy
Source:beatmania IIDX 15 DJ TROOPERS
Tags:beatmania iidx dj troopers ryutaro nakahara fanzhen0019 macuilxochitl mithew spro sprosive rustbell electronic instrumental video game
BeatmapID:2637948
BeatmapSetID:521340

[Difficulty]
HPDrainRate:2
CircleSize:2
OverallDifficulty:2
ApproachRate:5
SliderMultiplier:0.499999904632569
SliderTickRate:1

[Events]
//Background and Video events
0,0,"I_DOIT_DOIT.jpg",0,0
//Break Periods
2,48554,52954
2,56554,60154
2,62954,65554
//Storyboard Layer 0 (Background)
//Storyboard Layer 1 (Fail)
//Storyboard Layer 2 (Pass)
//Storyboard Layer 3 (Foreground)
//Storyboard Layer 4 (Overlay)
//Storyboard Sound Samples

[TimingPoints]
3554,200,4,1,1,35,1,0
3554,-100,4,1,1,35,0,0
6754,-100,4,1,1,45,0,0
22754,-100,4,1,1,45,0,0
81954,-100,4,2,0,40,0,0
83554,-100,4,1,1,50,0,0
96354,-100,4,1,1,50,0,1
109154,-100,4,1,1,40,0,0

[Colours]
Combo1 : 128,128,128
Combo2 : 88,160,160
Combo3 : 41,121,201
Combo4 : 80,134,163

[HitObjects]
67,86,3554,5,4,0:0:0:0:
22,306,4454,2,0,B|139:268|201:367,1,199.999961853028,0|4,0:0|0:0,0:0:0:0:
492,201,6754,5,12,0:0:0:0:
447,111,7154,1,8,0:0:0:0:
402,21,7554,2,0,L|290:27,1,99.9999809265138,8|8,0:0|0:0,0:0:0:0:
202,30,8354,1,12,0:0:0:0:
176,126,8754,1,8,0:0:0:0:
143,220,9154,2,0,P|79:235|46:272,2,99.9999809265138,8|8|12,0:0|0:0|0:0,0:0:0:0:
238,251,10354,2,0,P|265:294|266:364,1,99.9999809265138,8|8,0:0|0:0,0:0:0:0:
30,107,11554,6,0,P|73:73|134:69,1,99.9999809265138,12|8,0:0|0:0,0:0:0:0:
197,124,12354,2,0,L|304:91,1,99.9999809265138,0|8,0:0|0:0,0:0:0:0:
389,69,13154,5,12,0:0:0:0:
421,163,13554,1,8,0:0:0:0:
454,257,13954,1,12,0:0:0:0:
487,351,14354,1,8,0:0:0:0:
388,332,14754,5,12,0:0:0:0:
291,312,15154,1,8,0:0:0:0:
193,294,15554,1,4,0:0:0:0:
4,361,16354,6,0,P|47:326|54:276,1,99.9999809265138,12|12,0:0|0:0,0:0:0:0:
54,184,17154,2,0,P|65:136|105:107,1,99.9999809265138,12|12,0:0|0:0,0:0:0:0:
200,79,17954,5,8,0:0:0:0:
302,188,18554,1,8,0:0:0:0:
345,44,19154,1,8,0:0:0:0:
44,98,22754,6,0,B|110:92|110:92|128:77|128:77|248:66,1,199.999961853028,0|2,0:0|0:0,0:0:0:0:
337,57,23954,1,2,0:0:0:0:
433,82,24354,2,0,B|410:138|410:138|477:272,1,199.999961853028,2|0,0:0|0:0,0:0:0:0:
505,357,25554,2,0,L|378:366,1,99.9999809265138
305,372,26354,1,0,0:0:0:0:
205,378,26754,6,0,B|96:322|132:204,1,199.999961853028,2|2,0:0|0:0,0:0:0:0:
182,127,27954,1,0,0:0:0:0:
275,92,28354,1,0,0:0:0:0:
465,29,29154,6,0,B|491:68|491:68|444:232,1,199.999961853028,4|2,0:0|0:0,0:0:0:0:
413,309,30354,1,2,0:0:0:0:
326,358,30754,2,0,P|246:364|190:334,1,99.9999809265138,2|0,0:0|0:0,0:0:0:0:
134,322,31554,2,0,P|85:312|36:322,2,99.9999809265138,0|0|4,0:0|0:0|0:0,0:0:0:0:
245,159,33154,5,4,0:0:0:0:
146,139,33554,1,4,0:0:0:0:
47,120,33954,2,0,L|35:9,2,99.9999809265138,8|8|8,0:0|0:0|0:0,0:0:0:0:
79,214,35154,2,0,L|91:325,1,99.9999809265138,8|4,0:0|0:0,0:0:0:0:
177,362,35954,5,0,0:0:0:0:
273,337,36354,2,0,P|327:290|326:167,1,199.999961853028,2|2,0:0|0:0,0:0:0:0:
280,80,37554,2,0,P|325:56|390:48,1,99.9999809265138,0|0,0:0|0:0,0:0:0:0:
472,40,38354,1,0,0:0:0:0:
465,139,38754,2,0,L|457:274,1,99.9999809265138,0|0,0:0|0:0,0:0:0:0:
450,338,39554,5,2,0:0:0:0:
356,372,39954,1,2,0:0:0:0:
272,316,40354,2,0,B|200:322|200:322|187:315|187:315|104:322,1,149.999971389771,2|8,0:0|0:0,0:0:0:0:
24,330,41354,5,0,0:0:0:0:
10,180,41954,2,0,P|72:166|92:74,1,149.999971389771,4|4,0:0|0:0,0:0:0:0:
234,29,43154,2,0,L|368:17,2,99.9999809265138,4|4|0,0:0|0:0|0:0,0:0:0:0:
190,224,44754,5,0,0:0:0:0:
250,303,45154,2,0,L|363:287,1,99.9999809265138
356,89,46354,2,0,L|469:73,1,99.9999809265138
256,192,47154,12,0,48354,0:0:0:0:
256,192,54754,12,0,56354,0:0:0:0:
256,192,61354,12,0,62754,0:0:0:0:
59,342,66754,5,8,0:0:0:0:
158,354,67154,1,8,0:0:0:0:
257,366,67554,1,4,0:0:0:0:
424,257,68354,6,0,L|456:352,2,99.9999809265138,8|8|4,0:0|0:0|0:0,0:0:0:0:
493,69,69954,6,0,P|458:50|378:52,1,99.9999809265138,8|8,0:0|0:0,0:0:0:0:
302,74,70754,1,4,0:0:0:0:
110,16,71554,5,8,0:0:0:0:
80,111,71954,1,8,0:0:0:0:
50,206,72354,1,4,0:0:0:0:
177,359,73154,6,0,P|221:330|277:334,1,99.9999809265138,8|8,0:0|0:0,0:0:0:0:
364,351,73954,5,4,0:0:0:0:
483,190,74754,1,4,0:0:0:0:
364,28,75554,2,0,P|344:84|290:116,1,99.9999809265138,4|8,0:0|0:0,0:0:0:0:
213,110,76354,2,0,L|202:222,1,99.9999809265138,4|8,0:0|0:0,0:0:0:0:
187,308,77154,5,8,0:0:0:0:
91,337,77554,1,8,0:0:0:0:
24,262,77954,2,0,L|33:162,1,99.9999809265138,8|8,0:0|0:0,0:0:0:0:
44,63,78754,1,8,0:0:0:0:
239,107,79554,6,0,B|297:82|297:82|375:108|375:108|407:179,1,199.999961853028,8|4,0:0|0:0,0:0:0:0:
64,345,83554,6,0,P|43:284|79:218,1,99.9999809265138,0|0,0:0|0:0,0:0:0:0:
137,200,84354,2,0,L|120:85,1,99.9999809265138,0|0,0:0|0:0,0:0:0:0:
108,2,85154,2,0,L|317:31,1,199.999961853028,0|0,0:0|0:0,0:0:0:0:
404,49,86354,1,0,0:0:0:0:
501,69,86754,6,0,P|505:118|478:171,1,99.9999809265138,4|0,0:0|0:0,0:0:0:0:
422,242,87554,2,0,P|443:297|439:356,2,99.9999809265138,0|0|0,0:0|0:0|0:0,0:0:0:0:
331,199,88754,1,0,0:0:0:0:
236,231,89154,1,0,0:0:0:0:
78,108,89954,6,0,L|196:98,1,99.9999809265138,4|0,0:0|0:0,0:0:0:0:
238,19,90754,2,0,P|278:49|343:57,1,99.9999809265138,0|0,0:0|0:0,0:0:0:0:
424,40,91554,1,0,0:0:0:0:
496,108,91954,2,0,L|488:223,1,99.9999809265138,0|0,0:0|0:0,0:0:0:0:
477,307,92754,1,0,0:0:0:0:
390,355,93154,6,0,P|337:320|263:319,1,99.9999809265138,4|0,0:0|0:0,0:0:0:0:
202,304,93954,1,0,0:0:0:0:
107,336,94354,1,0,0:0:0:0:
11,366,94754,2,0,B|3:290|3:290|98:200|98:200|88:92,1,299.999942779541
78,8,96354,6,0,L|185:23,1,99.9999809265138,2|2,0:0|0:0,0:0:0:0:
246,93,97154,2,0,L|353:108,1,99.9999809265138,0|2,0:0|0:0,0:0:0:0:
443,121,97954,2,0,P|471:68|512:40,2,99.9999809265138,0|2|0,0:0|0:0|0:0,0:0:0:0:
508,310,99554,6,0,L|383:288,1,99.9999809265138,2|2,0:0|0:0,0:0:0:0:
315,327,100354,2,0,L|190:305,1,99.9999809265138,0|2,0:0|0:0,0:0:0:0:
118,291,101154,1,0,0:0:0:0:
90,194,101554,2,0,P|41:206|3:244,2,99.9999809265138,2|0|2,0:0|0:0|0:0,0:0:0:0:
188,210,102754,6,0,B|241:220|241:220|358:155,1,149.999971389771,2|2,0:0|0:0,0:0:0:0:
413,126,103754,2,0,L|455:258,2,99.9999809265138,2|2|2,0:0|0:0|0:0,0:0:0:0:
380,31,104954,1,2,0:0:0:0:
287,68,105354,2,0,P|224:71|148:13,1,149.999971389771,2|10,0:0|0:0,0:0:0:0:
24,98,106554,5,10,0:0:0:0:
63,242,107154,1,10,0:0:0:0:
256,192,107554,12,4,109154,0:0:0:0:
