osu file format v14

[General]
AudioFilename: audio.ogg
AudioLeadIn: 0
PreviewTime: 29079
Countdown: 0
SampleSet: Soft
StackLeniency: 0.7
Mode: 0
LetterboxInBreaks: 0
WidescreenStoryboard: 0

[Editor]
DistanceSpacing: 1
BeatDivisor: 4
GridSize: 16
TimelineZoom: 0.9999999

[Metadata]
Title:Eure Maedchen
TitleUnicode:Eure Mädchen
Artist:Kraftklub
ArtistUnicode:Kraftklub
Creator:hanabyte
Version:Kommerzieler Expert
Source:
Tags:olsonn full combo rock german deutsch mit k
BeatmapID:4297643
BeatmapSetID:2056598

[Difficulty]
HPDrainRate:5
CircleSize:4
OverallDifficulty:9
ApproachRate:9.2
SliderMultiplier:1.5
SliderTickRate:1

[Events]
//Background and Video events
0,0,"euremadchen.jpg",0,0
//Break Periods
//Storyboard Layer 0 (Background)
//Storyboard Layer 1 (Fail)
//Storyboard Layer 2 (Pass)
//Storyboard Layer 3 (Foreground)
//Storyboard Layer 4 (Overlay)
//Storyboard Sound Samples

[TimingPoints]
368,368.098159509202,4,2,0,50,1,0
368,-100,4,2,0,50,0,0
5889,-100,4,2,0,70,0,0
29263,-100,4,2,0,80,0,0
41595,-125,4,2,0,80,0,0
41963,-125,4,2,0,50,0,0
44171,-100,4,2,0,70,0,0
68098,-83.3333333333333,4,2,0,90,0,1
70306,-71.4285714285714,4,2,0,90,0,1
71042,-83.3333333333333,4,2,0,90,0,1
73251,-71.4285714285714,4,2,0,90,0,1
73987,-83.3333333333333,4,2,0,90,0,1
76196,-71.4285714285714,4,2,0,90,0,1
76932,-83.3333333333333,4,2,0,90,0,1
78404,-133.333333333333,4,2,0,90,0,1
79877,-83.3333333333333,4,2,0,90,0,1
85030,-71.4285714285714,4,2,0,90,0,1
85766,-83.3333333333333,4,2,0,90,0,1
87975,-71.4285714285714,4,2,0,90,0,1
88711,-83.3333333333333,4,2,0,90,0,1
93128,-222.222222222222,4,2,0,90,0,0
94233,-100,4,2,0,70,0,0
105828,-100,4,2,0,80,0,0
106748,-83.3333333333333,4,2,0,80,0,0
111717,-100,4,2,0,80,0,0
112269,-83.3333333333333,4,2,0,80,0,0
118159,-133.333333333333,4,2,0,80,0,0
118527,-133.333333333333,4,2,0,50,0,0
129570,-117.647058823529,4,2,0,50,0,0
132515,-117.647058823529,4,2,0,60,0,0
136196,-117.647058823529,4,2,0,70,0,0
138404,-117.647058823529,4,2,0,80,0,0
139509,-71.4285714285714,4,2,0,80,0,0
139877,-71.4285714285714,4,2,0,90,0,0
141349,-100,4,2,0,90,0,0
141717,-100,4,2,0,70,0,0
144662,-100,4,2,0,80,0,0
147607,-133.333333333333,4,2,0,60,0,0
148159,-133.333333333333,4,2,0,80,0,0
148343,-83.3333333333333,4,2,0,80,0,0
159386,-83.3333333333333,4,2,0,90,0,0

[Colours]
Combo1 : 215,215,215
Combo2 : 242,135,104
Combo3 : 88,95,95
Combo4 : 250,133,133

[HitObjects]
85,221,368,5,2,0:1:0:0:
498,98,736,5,2,0:3:0:0:
0,174,1288,5,8,0:0:0:0:
494,208,1840,5,2,0:0:0:0:
83,114,2392,5,4,0:0:0:0:
479,310,2944,5,2,0:0:0:0:
85,221,3312,5,2,0:1:0:0:
499,99,3680,5,2,0:3:0:0:
0,174,4232,5,8,0:0:0:0:
494,208,4784,5,2,0:0:0:0:
83,114,5336,5,4,0:0:0:0:
494,208,5705,5,0,0:0:0:0:
465,364,5889,2,0,L|452:291,1,75,0|0,1:2|0:0,0:0:0:0:
279,178,6257,2,0,P|214:171|141:208,1,150,8|0,0:3|1:0,0:0:0:0:
100,349,6809,1,8,1:3:0:0:
70,159,6993,2,0,L|47:232,1,75,8|8,0:3|0:3,0:0:0:0:
279,178,7361,1,0,1:2:0:0:
184,283,7546,1,0,1:0:0:0:
48,231,7730,6,0,B|109:246|109:246|127:267|127:267|191:286,1,150,8|0,0:3|1:0,0:0:0:0:
341,384,8282,1,8,1:3:0:0:
279,178,8466,2,0,L|263:252,1,75,8|8,0:3|0:3,0:0:0:0:
341,384,8834,1,0,1:2:0:0:
341,384,9018,1,0,1:0:0:0:
184,283,9202,5,8,0:3:0:0:
351,198,9386,1,8,0:3:0:0:
351,198,9570,2,0,L|255:171,1,75,0|8,1:0|1:3,0:0:0:0:
391,275,9938,2,0,L|462:296,1,75,8|8,0:3|0:3,0:0:0:0:
422,151,10306,1,0,1:2:0:0:
303,276,10490,1,0,1:0:0:0:
512,384,10674,2,0,P|521:316|459:238,1,150,8|0,0:3|1:0,0:0:0:0:
351,85,11226,5,8,1:3:0:0:
351,85,11319,1,8,1:3:0:0:
351,85,11411,2,0,L|372:-4,1,75,8|8,1:3|0:3,0:0:0:0:
495,136,11779,2,0,L|411:153,1,75,0|0,1:2|1:0,0:0:0:0:
303,276,12147,2,0,P|243:246|144:263,1,150,8|0,0:3|1:0,0:0:0:0:
290,384,12699,1,8,1:3:0:0:
124,322,12883,2,0,L|23:345,1,75,8|8,0:3|0:3,0:0:0:0:
168,260,13251,1,0,1:2:0:0:
168,260,13435,1,0,1:0:0:0:
0,160,13619,6,0,P|48:172|104:180,1,75,8|8,0:3|0:3,0:0:0:0:
217,74,13987,1,0,1:0:0:0:
59,250,14171,2,0,L|77:155,1,75,8|8,1:3|0:3,0:0:0:0:
174,0,14539,1,8,0:3:0:0:
156,178,14723,2,0,L|244:161,1,75,0|0,1:2|1:0,0:0:0:0:
0,54,15092,6,0,P|60:91|160:90,1,150,8|0,0:3|1:0,0:0:0:0:
262,0,15644,1,8,1:3:0:0:
372,86,15828,2,0,P|335:75|298:74,1,75,8|8,0:3|0:3,0:0:0:0:
229,163,16196,2,0,L|219:87,2,75,0|0|8,1:2|1:0|0:3,0:0:0:0:
277,255,16748,5,8,0:3:0:0:
124,160,16932,1,0,1:0:0:0:
298,74,17116,1,8,1:3:0:0:
277,255,17300,2,0,L|259:327,1,75,8|8,0:3|0:3,0:0:0:0:
189,360,17576,1,8,0:3:0:0:
189,360,17668,2,0,P|176:320|175:274,1,75,0|0,1:2|1:0,0:0:0:0:
512,266,18036,6,0,P|446:231|372:235,1,150,8|0,0:3|1:0,0:0:0:0:
259,327,18588,1,8,1:3:0:0:
305,177,18773,1,8,0:3:0:0:
305,177,18957,1,8,0:3:0:0:
429,384,19141,1,0,1:2:0:0:
259,327,19325,1,0,1:0:0:0:
438,279,19509,6,0,L|511:265,1,75,8|8,0:3|0:3,0:0:0:0:
372,235,19877,2,0,L|392:152,1,75,0|8,1:0|1:3,0:0:0:0:
291,255,20245,2,0,P|246:238|160:224,1,112.5,8|0,0:3|0:0,0:0:0:0:
116,189,20613,1,0,1:2:0:0:
310,156,20797,1,0,1:0:0:0:
91,39,20981,1,8,0:3:0:0:
155,112,21165,5,8,0:3:0:0:
155,112,21349,2,0,L|176:36,1,75,0|8,1:0|1:3,0:0:0:0:
33,183,21717,2,0,P|37:219|64:259,1,75,8|8,0:3|0:3,0:0:0:0:
227,152,22085,1,0,1:2:0:0:
113,308,22269,1,0,1:0:0:0:
205,381,22453,2,0,P|203:339|189:291,1,75,8|8,0:3|0:3,0:0:0:0:
33,183,22822,5,0,1:0:0:0:
250,243,23006,1,8,1:3:0:0:
250,243,23098,1,8,1:3:0:0:
250,243,23190,2,0,L|154:217,1,75,8|8,0:3|0:3,0:0:0:0:
53,257,23558,1,0,1:2:0:0:
176,115,23742,1,0,1:0:0:0:
320,205,23926,2,0,B|392:225|392:225|462:184,1,150,8|0,0:3|1:0,0:0:0:0:
456,186,24478,1,8,1:3:0:0:
320,205,24662,6,0,L|332:299,1,75,8|8,0:3|0:3,0:0:0:0:
250,165,25030,2,0,L|240:61,1,75,0|0,1:2|1:0,0:0:0:0:
176,6,25398,2,0,P|120:9|86:96,1,150,8|0,0:3|1:0,0:0:0:0:
190,221,25950,1,8,1:3:0:0:
26,301,26134,2,0,L|53:218,1,75,8|8,0:3|0:3,0:0:0:0:
164,336,26503,1,0,1:2:0:0:
109,168,26687,1,0,1:0:0:0:
90,351,26871,6,0,L|167:335,1,75,8|8,0:3|0:3,0:0:0:0:
386,281,27239,1,0,1:0:0:0:
233,384,27423,1,8,1:3:0:0:
332,199,27607,1,8,0:3:0:0:
331,384,27791,1,8,0:3:0:0:
331,384,27883,1,8,0:3:0:0:
331,384,27975,2,0,L|309:300,1,75,0|0,1:2|1:0,0:0:0:0:
133,141,28343,2,0,P|10:172|-10:199,1,150,4|8,1:0|0:3,0:0:0:0:
332,199,28895,6,0,P|394:202|449:159,1,112.5,4|0,1:0|0:0,0:0:0:0:
484,116,29263,1,2,3:1:0:0:
248,222,29447,1,2,1:0:0:0:
274,9,29631,1,2,1:1:0:0:
274,9,29723,1,0,1:1:0:0:
274,9,29815,1,6,1:1:0:0:
435,176,29999,1,2,0:1:0:0:
224,67,30184,2,0,L|244:156,1,75,0|0,1:0|0:0,0:0:0:0:
332,199,30552,5,8,0:3:0:0:
162,316,30736,1,0,1:0:0:0:
91,107,30920,2,0,P|127:130|172:134,1,75,2|2,1:2|0:0,0:0:0:0:
375,384,31288,2,0,P|376:353|355:292,1,75,8|0,0:3|0:0,0:0:0:0:
158,135,31656,5,2,1:2:0:0:
386,30,31840,1,2,0:0:0:0:
203,212,32024,1,8,0:3:0:0:
445,292,32208,1,2,3:1:0:0:
391,233,32392,1,2,1:0:0:0:
365,310,32576,1,2,1:1:0:0:
496,212,32760,5,6,1:1:0:0:
229,384,32944,1,2,0:1:0:0:
433,163,33128,2,0,B|378:148|378:148|360:123|360:123|299:105,1,150,0|8,1:0|0:3,0:0:0:0:
79,42,33680,5,2,0:0:0:0:
300,105,33865,2,0,L|282:14,1,75,2|2,1:2|0:0,0:0:0:0:
10,191,34233,2,0,P|42:232|155:220,1,150,2|2,1:2|1:2,0:0:0:0:
211,27,34785,2,0,P|184:6|138:1,1,75,2|8,0:0|0:3,0:0:0:0:
134,236,35153,6,0,L|113:162,2,75,2|2|2,3:1|1:0|1:1,0:0:0:0:
55,384,35705,1,6,1:1:0:0:
341,228,35889,1,2,0:1:0:0:
66,92,36073,1,0,1:0:0:0:
113,163,36257,5,2,0:0:0:0:
270,0,36441,2,0,L|254:76,1,75,8|2,0:3|0:0,0:0:0:0:
341,228,36809,2,0,L|240:198,1,75,2|2,1:2|0:0,0:0:0:0:
0,270,37177,2,0,P|72:276|145:221,1,150,2|0,1:2|1:0,0:0:0:0:
284,384,37730,2,0,P|292:337|282:289,1,75,2|8,0:0|0:3,0:0:0:0:
119,159,38098,1,2,3:1:0:0:
135,235,38282,1,2,1:0:0:0:
195,181,38466,1,2,1:1:0:0:
21,28,38650,5,6,1:1:0:0:
332,136,38834,1,2,0:1:0:0:
127,384,39018,1,0,1:0:0:0:
357,217,39202,1,2,0:0:0:0:
357,217,39294,1,2,0:0:0:0:
357,217,39386,2,0,L|381:313,1,75,10|2,0:3|0:0,0:0:0:0:
252,108,39754,2,0,L|153:77,1,75,2|2,1:2|0:0,0:0:0:0:
502,2,40122,2,0,P|487:48|386:74,1,150,2|2,1:2|1:2,0:0:0:0:
206,198,40674,1,2,0:0:0:0:
254,324,40858,2,0,L|273:252,1,75,2|0,1:2|1:2,0:0:0:0:
75,126,41226,5,0,1:2:0:0:
40,139,41318,1,0,1:2:0:0:
13,165,41410,1,0,1:2:0:0:
0,200,41502,1,0,1:2:0:0:
2,237,41595,2,0,L|126:275,1,120,0|2,1:2|0:3,0:0:0:0:
178,333,42515,5,8,0:0:0:0:
281,212,43067,1,2,0:0:0:0:
424,274,43619,1,2,0:1:0:0:
507,144,43987,5,8,0:3:0:0:
424,274,44171,2,0,L|408:186,1,75,0|0,1:2|0:0,0:0:0:0:
264,62,44539,2,0,L|245:138,1,75,8|0,0:3|0:0,0:0:0:0:
343,22,44907,1,0,1:0:0:0:
292,212,45092,2,0,P|241:224|156:157,1,150,8|8,1:3|0:3,0:0:0:0:
5,281,45644,1,0,1:2:0:0:
129,101,45828,2,0,L|54:76,1,75,0|8,1:0|0:3,0:0:0:0:
162,174,46196,5,8,0:3:0:0:
197,46,46380,1,0,1:0:0:0:
57,77,46564,1,8,1:3:0:0:
247,135,46748,5,8,0:3:0:0:
247,135,46932,1,8,0:3:0:0:
354,0,47116,2,0,L|369:100,1,75,0|0,1:2|1:0,0:0:0:0:
220,244,47484,2,0,P|162:206|62:205,1,150,8|0,0:3|1:0,0:0:0:0:
207,328,48036,1,8,1:3:0:0:
17,384,48220,2,0,L|36:284,1,75,8|8,0:3|0:3,0:0:0:0:
107,278,48496,1,8,0:3:0:0:
107,278,48588,2,0,L|124:357,1,75,0|0,1:2|1:0,0:0:0:0:
278,383,48957,6,0,L|350:365,1,75,8|8,0:3|0:3,0:0:0:0:
301,220,49325,1,0,1:0:0:0:
441,329,49509,1,8,1:3:0:0:
220,244,49693,2,0,P|218:162|269:88,1,150,8|0,1:3|1:2,0:0:0:0:
430,35,50245,1,0,1:0:0:0:
404,114,50429,6,0,L|328:92,1,75,8|8,0:3|0:3,0:0:0:0:
154,35,50797,1,0,1:0:0:0:
316,4,50981,1,8,1:3:0:0:
138,129,51165,2,0,P|81:96|-22:114,1,150,8|0,0:3|1:2,0:0:0:0:
105,219,51717,1,0,1:0:0:0:
250,104,51901,6,0,L|230:2,1,75,8|8,0:3|0:3,0:0:0:0:
138,129,52269,1,0,1:0:0:0:
286,251,52453,1,8,1:3:0:0:
135,384,52638,2,0,L|152:299,1,75,8|8,0:3|0:3,0:0:0:0:
253,384,53006,1,0,1:2:0:0:
187,234,53190,1,0,1:0:0:0:
253,384,53374,6,0,P|296:376|345:363,1,75,8|8,0:3|0:3,0:0:0:0:
487,209,53742,2,0,L|413:222,1,75,0|8,1:0|1:3,0:0:0:0:
512,343,54110,2,0,P|466:307|364:318,1,150,8|0,0:3|1:2,0:0:0:0:
272,172,54662,1,0,1:0:0:0:
374,85,54846,2,0,L|357:171,1,75,8|8,0:3|0:3,0:0:0:0:
210,9,55214,1,0,1:0:0:0:
272,172,55398,1,8,1:3:0:0:
140,56,55582,2,0,P|99:40|27:47,1,112.5,8|8,0:3|0:3,0:0:0:0:
31,45,55950,6,0,L|43:134,1,75,0|0,1:2|1:0,0:0:0:0:
200,211,56319,2,0,L|189:285,1,75,8|8,0:3|0:3,0:0:0:0:
58,384,56687,1,0,1:0:0:0:
103,251,56871,1,8,1:3:0:0:
218,358,57055,2,0,P|296:367|370:309,1,150,8|0,0:3|1:2,0:0:0:0:
456,179,57607,1,0,1:0:0:0:
252,119,57791,2,0,P|254:156|290:210,1,75,8|8,0:3|0:3,0:0:0:0:
464,98,58159,5,0,1:0:0:0:
464,98,58251,1,0,1:0:0:0:
464,98,58343,1,8,1:3:0:0:
363,263,58527,2,0,L|345:166,1,75,8|8,0:3|0:3,0:0:0:0:
310,0,58895,1,0,1:2:0:0:
456,179,59079,1,0,1:0:0:0:
236,36,59263,2,0,B|160:23|160:23|98:68,1,150,8|0,0:3|1:0,0:0:0:0:
61,250,59815,1,8,1:3:0:0:
252,119,59999,6,0,L|167:104,1,75,8|8,0:3|0:3,0:0:0:0:
134,174,60276,1,8,0:3:0:0:
134,174,60368,2,0,L|147:248,1,75,0|0,1:2|1:0,0:0:0:0:
305,384,60736,2,0,P|356:355|425:369,1,112.5,8|0,0:3|0:0,0:0:0:0:
483,353,61104,2,0,L|498:275,1,75,0|8,1:0|1:3,0:0:0:0:
252,119,61472,5,8,0:3:0:0:
415,275,61656,1,8,0:3:0:0:
374,63,61840,1,0,1:2:0:0:
255,295,62024,1,0,1:0:0:0:
509,169,62208,2,0,L|411:149,1,75,8|8,0:3|0:3,0:0:0:0:
201,212,62576,6,0,L|291:195,1,75,0|8,1:0|1:3,0:0:0:0:
325,28,62944,2,0,L|337:107,1,75,8|8,0:3|0:3,0:0:0:0:
191,31,63312,1,0,1:2:0:0:
353,183,63496,1,0,1:0:0:0:
151,100,63680,2,0,P|109:170|130:238,1,150,8|0,0:3|1:0,0:0:0:0:
200,384,64233,1,8,1:3:0:0:
82,307,64417,6,0,L|63:384,1,75,8|8,0:3|0:3,0:0:0:0:
7,191,64785,1,0,1:2:0:0:
163,311,64969,1,0,1:0:0:0:
274,146,65153,2,0,L|190:164,1,75,8|8,0:3|0:3,0:0:0:0:
200,384,65521,6,0,P|311:321|313:284,1,150,0|8,1:0|0:3,0:0:0:0:
200,161,66073,1,8,0:3:0:0:
378,78,66257,2,0,L|354:164,1,75,0|0,1:2|1:0,0:0:0:0:
136,217,66625,5,0,1:0:0:0:
15,136,66809,2,0,L|96:154,1,75,2|2,0:0|1:2,0:0:0:0:
511,217,67177,2,0,P|438:202|384:257,1,150,2|8,1:2|0:3,0:0:0:0:
254,384,67729,1,0,1:0:0:0:
145,226,67914,5,8,0:3:0:0:
145,226,68006,1,8,0:3:0:0:
145,226,68098,2,0,P|203:226|247:203,1,89.9999972534181,2|0,1:2|0:0,0:0:0:0:
405,46,68466,1,2,1:2:0:0:
321,341,68650,2,0,L|298:235,1,89.9999972534181,2|8,0:2|0:3,0:0:0:0:
163,14,69018,1,8,0:3:0:0:
320,173,69202,1,2,1:2:0:0:
105,78,69386,1,8,0:3:0:0:
320,173,69570,6,0,L|338:69,1,89.9999972534181,8|8,0:3|0:3,0:0:0:0:
405,46,69846,1,8,0:3:0:0:
405,46,69938,2,0,P|427:91|425:143,1,89.9999972534181,2|8,1:2|0:3,0:0:0:0:
104,256,70306,6,0,P|99:209|127:153,1,104.999996795654,6|0,1:2|0:0,0:0:0:0:
282,246,70582,2,0,L|179:223,1,104.999996795654,6|0,1:2|0:0,0:0:0:0:
122,157,70858,2,0,L|181:146,1,52.4999983978272,6|0,1:2|0:0,0:0:0:0:
360,202,71042,6,0,B|374:271|374:271|346:312|346:312|359:376,1,179.999994506836,2|2,1:2|1:2,0:0:0:0:
179,223,71595,1,2,0:2:0:0:
282,384,71779,2,0,L|185:356,1,89.9999972534181,8|8,0:3|0:3,0:0:0:0:
360,202,72147,1,2,1:2:0:0:
143,295,72331,1,8,0:3:0:0:
274,82,72515,2,0,L|290:186,1,89.9999972534181,8|8,0:3|0:3,0:0:0:0:
263,246,72791,1,8,0:3:0:0:
263,246,72883,2,0,P|212:241|161:205,1,89.9999972534181,2|8,1:2|0:3,0:0:0:0:
27,0,73251,6,0,P|84:-6|144:35,1,104.999996795654,6|0,1:2|0:0,0:0:0:0:
87,175,73527,2,0,L|65:62,1,104.999996795654,6|0,1:2|0:0,0:0:0:0:
210,0,73803,2,0,L|193:72,1,52.4999983978272,6|0,1:2|0:0,0:0:0:0:
178,222,73987,6,0,B|46:188|46:188|116:167,1,179.999994506836,2|2,1:2|1:2,0:0:0:0:
396,94,74539,1,2,0:2:0:0:
191,302,74723,1,8,0:3:0:0:
443,167,74907,1,8,0:3:0:0:
197,51,75092,2,0,L|217:158,1,89.9999972534181,2|8,1:2|0:3,0:0:0:0:
345,384,75460,6,0,P|409:338|477:352,1,134.999995880127,8|0,0:3|0:0,0:0:0:0:
493,270,75828,2,0,L|398:240,1,89.9999972534181,2|8,1:2|0:3,0:0:0:0:
213,139,76196,2,0,L|241:263,1,104.999996795654,6|0,1:2|0:0,0:0:0:0:
150,384,76472,2,0,P|151:320|183:262,1,104.999996795654,6|0,1:2|0:0,0:0:0:0:
332,196,76748,2,0,L|313:279,1,52.4999983978272,6|0,1:2|0:0,0:0:0:0:
155,384,76932,6,0,B|90:367|90:367|74:331|74:331|-6:313,1,179.999994506836,2|2,1:2|1:2,0:0:0:0:
236,241,77484,1,2,0:2:0:0:
30,121,77668,1,8,0:3:0:0:
194,0,77852,1,8,0:3:0:0:
194,0,77944,1,8,0:3:0:0:
194,0,78036,2,0,L|172:113,1,89.9999972534181,2|8,1:2|0:3,0:0:0:0:
10,214,78404,6,0,L|92:196,1,84.3750032186509,12|0,1:2|0:0,0:0:0:0:
411,118,78773,2,0,L|329:138,1,84.3750032186509,12|0,1:2|0:0,0:0:0:0:
160,250,79141,1,12,1:2:0:0:
294,71,79325,1,8,0:3:0:0:
294,71,79417,1,8,0:3:0:0:
294,71,79509,1,12,1:2:0:0:
244,384,79693,5,8,0:3:0:0:
244,384,79785,1,8,0:3:0:0:
244,384,79877,2,0,P|224:339|230:279,1,89.9999972534181,2|0,1:2|0:0,0:0:0:0:
329,137,80245,1,2,1:2:0:0:
401,331,80429,2,0,L|274:291,1,89.9999972534181,2|8,0:2|0:3,0:0:0:0:
512,240,80797,1,8,0:3:0:0:
329,137,80981,2,0,P|294:164|221:165,1,89.9999972534181,2|8,1:2|0:3,0:0:0:0:
368,0,81349,6,0,P|410:62|395:145,1,134.999995880127,8|0,0:3|0:0,0:0:0:0:
382,204,81717,1,2,1:2:0:0:
218,66,81901,1,8,0:3:0:0:
382,204,82085,2,0,L|484:189,1,89.9999972534181,6|0,1:2|0:0,0:0:0:0:
403,280,82361,2,0,L|307:296,1,89.9999972534181,6|0,1:2|0:0,0:0:0:0:
452,384,82638,2,0,L|458:329,1,44.999998626709,6|0,1:2|0:0,0:0:0:0:
272,220,82822,6,0,P|229:292|245:401,1,179.999994506836,2|2,1:2|1:2,0:0:0:0:
324,305,83374,1,8,0:3:0:0:
324,305,83466,1,8,0:3:0:0:
324,305,83558,1,8,0:3:0:0:
184,157,83742,1,8,0:3:0:0:
345,43,83926,2,0,L|323:146,1,89.9999972534181,2|8,1:2|0:3,0:0:0:0:
144,229,84294,6,0,P|103:221|56:186,1,89.9999972534181,6|8,1:2|0:3,0:0:0:0:
25,125,84570,1,8,0:3:0:0:
25,125,84662,2,0,L|126:109,1,89.9999972534181,6|8,1:2|0:3,0:0:0:0:
307,223,85030,6,0,P|362:239|436:232,1,104.999996795654,6|0,1:2|0:0,0:0:0:0:
512,89,85306,2,0,P|459:88|410:109,1,104.999996795654,6|0,1:2|0:0,0:0:0:0:
409,238,85582,2,0,L|403:183,1,52.4999983978272,6|0,1:2|0:0,0:0:0:0:
217,8,85766,2,0,L|189:121,1,89.9999972534181,2|0,1:2|0:0,0:0:0:0:
364,44,86134,1,2,1:2:0:0:
150,185,86319,1,2,0:2:0:0:
150,185,86411,1,2,0:2:0:0:
150,185,86503,2,0,L|274:161,1,89.9999972534181,8|8,0:3|0:3,0:0:0:0:
471,298,86871,2,0,P|470:350|429:396,1,89.9999972534181,2|8,1:2|0:3,0:0:0:0:
307,223,87239,6,0,L|329:114,1,89.9999972534181,6|8,1:2|0:3,0:0:0:0:
236,280,87607,1,6,1:2:0:0:
199,60,87791,1,8,0:3:0:0:
471,298,87975,6,0,P|417:300|360:263,1,104.999996795654,6|0,1:2|0:0,0:0:0:0:
238,167,88251,2,0,P|197:170|135:211,1,104.999996795654,6|0,1:2|0:0,0:0:0:0:
91,262,88527,2,0,L|24:242,1,52.4999983978272,6|0,1:2|0:0,0:0:0:0:
0,39,88711,2,0,P|100:50|128:126,1,179.999994506836,2|2,1:2|1:2,0:0:0:0:
159,384,89263,5,2,0:2:0:0:
159,384,89355,1,2,0:2:0:0:
159,384,89447,1,8,0:3:0:0:
74,172,89631,1,8,0:3:0:0:
254,295,89815,2,0,P|317:282|346:254,1,89.9999972534181,2|8,1:2|0:3,0:0:0:0:
357,188,90092,5,8,0:3:0:0:
357,188,90184,2,0,L|448:203,1,89.9999972534181,6|8,1:2|0:3,0:0:0:0:
217,99,90460,1,8,0:3:0:0:
217,99,90552,2,0,L|126:114,1,89.9999972534181,6|8,1:2|0:3,0:0:0:0:
344,88,90828,1,8,0:3:0:0:
344,88,90920,2,0,L|329:-3,1,89.9999972534181,6|0,1:2|0:0,0:0:0:0:
240,207,91196,1,8,0:3:0:0:
240,207,91288,2,0,L|255:298,1,89.9999972534181,6|0,1:2|0:0,0:0:0:0:
29,384,91656,6,0,P|100:332|188:340,1,179.999994506836,2|2,1:2|1:2,0:0:0:0:
334,278,92208,2,0,P|368:239|367:177,1,89.9999972534181,2|8,0:2|0:3,0:0:0:0:
174,0,92576,1,8,0:3:0:0:
430,139,92760,1,2,1:2:0:0:
167,253,92944,1,8,0:3:0:0:
316,0,93128,2,0,B|324:66|324:66|297:95|297:95|305:166,1,168.749994850159,6|0,1:2|0:0,0:0:0:0:
373,202,94233,5,2,0:2:0:0:
373,202,94601,6,0,L|471:220,1,75,8|0,0:3|0:0,0:0:0:0:
288,312,94969,1,0,1:0:0:0:
422,384,95153,1,8,1:3:0:0:
301,234,95337,2,0,P|257:240|217:275,1,75,8|8,0:3|0:3,0:0:0:0:
135,382,95705,1,0,1:2:0:0:
218,164,95889,1,0,1:0:0:0:
1,276,96073,6,0,P|42:283|97:296,1,75,8|8,0:3|0:3,0:0:0:0:
202,331,96441,1,0,1:0:0:0:
59,202,96625,1,8,1:3:0:0:
59,202,96809,2,0,L|137:185,1,75,8|8,0:3|0:3,0:0:0:0:
263,13,97177,1,0,1:2:0:0:
89,114,97361,1,0,1:0:0:0:
262,239,97546,6,0,P|340:249|389:187,1,150,8|0,0:3|1:0,0:0:0:0:
246,105,98098,1,8,1:3:0:0:
454,164,98282,2,0,L|439:66,1,75,8|8,0:3|0:3,0:0:0:0:
302,167,98650,1,0,1:2:0:0:
406,23,98834,1,0,1:0:0:0:
246,105,99018,2,0,P|220:144|229:201,1,75,8|8,0:3|0:3,0:0:0:0:
403,316,99386,1,0,1:0:0:0:
302,167,99570,1,8,1:3:0:0:
192,335,99754,2,0,P|131:376|47:360,1,150,8|0,1:3|1:2,0:0:0:0:
26,215,100306,5,0,1:0:0:0:
26,215,100398,1,0,1:0:0:0:
26,215,100490,2,0,L|112:229,1,75,8|8,0:3|0:3,0:0:0:0:
1,131,100858,1,0,1:0:0:0:
176,68,101042,1,8,1:3:0:0:
105,301,101226,2,0,P|162:242|237:254,1,150,8|0,0:3|1:2,0:0:0:0:
363,300,101779,1,0,1:0:0:0:
224,384,101963,6,0,P|198:353|193:291,1,75,8|8,0:3|0:3,0:0:0:0:
371,185,102331,1,0,1:0:0:0:
224,246,102515,1,8,1:3:0:0:
315,362,102699,2,0,P|364:388|419:372,1,112.5,8|0,0:3|0:0,0:0:0:0:
491,359,103067,2,0,L|509:271,1,75,0|0,1:2|1:0,0:0:0:0:
293,144,103435,6,0,P|387:145|445:101,1,150,8|0,0:3|1:0,0:0:0:0:
309,69,103987,1,8,1:3:0:0:
512,0,104171,2,0,L|492:90,1,75,8|8,0:3|0:3,0:0:0:0:
293,144,104539,2,0,L|195:122,1,75,0|0,1:2|1:0,0:0:0:0:
474,222,104907,5,4,1:0:0:0:
309,69,105092,1,0,0:0:0:0:
506,148,105276,1,8,0:3:0:0:
292,248,105460,2,0,P|239:248|167:286,1,112.5,4|0,1:0|0:0,0:0:0:0:
108,299,105828,5,2,3:1:0:0:
252,134,106012,1,2,1:0:0:0:
9,41,106196,1,2,1:1:0:0:
9,41,106288,1,0,1:1:0:0:
9,41,106380,1,6,1:1:0:0:
240,0,106564,1,2,0:1:0:0:
57,230,106748,2,0,L|82:140,1,89.9999972534181,0|0,1:0|0:0,0:0:0:0:
87,66,107116,5,8,0:3:0:0:
332,166,107300,1,0,1:0:0:0:
108,299,107484,2,0,L|199:278,1,89.9999972534181,2|2,1:2|0:0,0:0:0:0:
357,83,107852,2,0,P|333:132|340:191,1,89.9999972534181,8|0,0:3|0:0,0:0:0:0:
505,378,108220,1,2,1:2:0:0:
419,156,108404,1,2,0:0:0:0:
242,341,108588,1,8,0:3:0:0:
333,371,108773,5,2,3:1:0:0:
313,277,108957,1,2,1:0:0:0:
333,371,109141,1,2,1:1:0:0:
254,34,109325,5,6,1:1:0:0:
191,264,109509,1,2,0:1:0:0:
354,4,109693,2,0,B|368:70|368:70|409:93|409:93|423:170,1,179.999994506836,0|8,1:0|0:3,0:0:0:0:
440,379,110245,5,2,0:0:0:0:
339,144,110429,2,0,L|316:269,1,89.9999972534181,2|2,1:2|0:0,0:0:0:0:
159,365,110797,2,0,P|72:378|0:329,1,179.999994506836,2|2,1:2|1:2,0:0:0:0:
168,154,111349,2,0,P|216:160|259:194,1,89.9999972534181,2|8,0:0|0:3,0:0:0:0:
88,297,111717,6,0,L|74:218,2,75,2|2|2,3:1|1:0|1:1,0:0:0:0:
277,11,112269,1,6,1:1:0:0:
0,171,112453,1,2,0:1:0:0:
237,337,112638,1,0,1:0:0:0:
179,264,112822,5,2,0:0:0:0:
332,203,113006,2,0,L|312:293,1,89.9999972534181,8|2,0:3|0:0,0:0:0:0:
488,384,113374,2,0,L|471:286,1,89.9999972534181,2|2,1:2|0:0,0:0:0:0:
276,128,113742,2,0,P|372:183|435:152,1,179.999994506836,2|2,1:2|1:2,0:0:0:0:
209,182,114294,2,0,P|184:219|178:263,1,89.9999972534181,2|8,0:0|0:3,0:0:0:0:
276,128,114662,5,2,3:1:0:0:
231,65,114846,1,2,1:0:0:0:
287,12,115030,1,2,1:1:0:0:
383,271,115214,1,6,1:1:0:0:
151,114,115398,1,2,0:1:0:0:
333,379,115582,1,0,1:0:0:0:
109,189,115766,5,2,0:0:0:0:
109,189,115858,1,2,0:0:0:0:
109,189,115950,2,0,L|-4:168,1,89.9999972534181,10|2,0:3|0:0,0:0:0:0:
232,384,116319,2,0,P|259:344|256:276,1,89.9999972534181,2|2,1:2|0:0,0:0:0:0:
438,118,116687,2,0,P|503:167|490:271,1,179.999994506836,2|2,1:2|1:2,0:0:0:0:
316,111,117239,1,2,0:0:0:0:
454,353,117423,1,2,1:2:0:0:
296,202,117607,1,0,1:2:0:0:
349,382,117791,5,0,1:2:0:0:
349,382,117883,1,0,1:2:0:0:
349,382,117975,1,0,1:2:0:0:
349,382,118067,1,0,1:2:0:0:
349,382,118159,2,0,L|362:303,1,56.2500021457673,0|0,1:2|0:0,0:0:0:0:
219,203,118527,1,8,0:3:0:0:
219,203,118711,2,0,L|96:226,1,112.500004291535,4|4,0:3|0:3,0:0:0:0:
51,169,119263,1,8,0:3:0:0:
51,169,119447,1,0,3:0:0:0:
181,32,119631,6,0,P|258:41|296:77,1,112.500004291535,8|4,0:3|0:3,0:0:0:0:
338,118,120184,1,8,0:3:0:0:
402,72,120368,2,0,L|426:0,1,56.2500021457673,0|8,3:0|0:3,0:0:0:0:
509,214,120736,1,8,0:3:0:0:
509,214,121104,6,0,L|381:179,1,112.500004291535,8|4,0:3|0:3,0:0:0:0:
297,318,121656,1,8,0:3:0:0:
239,263,121840,2,0,P|189:258|128:300,1,112.500004291535,0|8,3:0|0:3,0:0:0:0:
248,384,122392,1,4,0:3:0:0:
381,309,122576,2,0,L|366:245,1,56.2500021457673,8|0,0:3|0:0,0:0:0:0:
309,205,122944,2,0,L|318:148,1,56.2500021457673,4|8,0:3|0:3,0:0:0:0:
237,6,123312,2,0,B|220:39|220:39|249:129,1,112.500004291535,0|4,3:0|0:3,0:0:0:0:
397,132,123865,5,0,3:0:0:0:
397,132,123957,1,0,3:0:0:0:
397,132,124049,2,0,P|465:129|526:101,2,112.500004291535,8|4|0,3:0|0:3|3:0,0:0:0:0:
320,73,124969,1,8,0:3:0:0:
183,162,125153,2,0,L|191:233,1,56.2500021457673,4|4,0:3|0:3,0:0:0:0:
254,266,125429,5,4,0:3:0:0:
254,266,125521,2,0,P|237:323|231:397,1,112.500004291535,8|8,0:3|0:3,0:0:0:0:
321,337,126073,1,4,0:3:0:0:
189,217,126257,2,0,L|125:233,1,56.2500021457673,0|8,3:0|0:3,0:0:0:0:
254,266,126625,2,0,L|327:247,1,56.2500021457673,4|0,0:3|3:0,0:0:0:0:
407,171,126901,5,0,3:0:0:0:
407,171,126993,2,0,B|455:197|455:197|534:187,1,112.500004291535,8|4,3:0|0:3,0:0:0:0:
389,249,127546,1,8,0:3:0:0:
283,131,127730,2,0,L|338:119,1,56.2500021457673,0|4,3:0|0:3,0:0:0:0:
400,16,128098,2,0,L|307:-3,1,84.3750032186509,8|0,0:3|0:0,0:0:0:0:
261,52,128466,6,0,P|215:48|146:87,1,112.500004291535,4|4,0:3|0:3,0:0:0:0:
75,176,129018,1,8,0:3:0:0:
122,237,129202,2,0,L|192:223,1,56.2500021457673,0|4,3:0|0:3,0:0:0:0:
276,262,129570,2,0,L|257:367,1,95.6250018239022,8|0,0:3|0:0,0:0:0:0:
342,384,129938,5,8,0:3:0:0:
342,384,130122,1,8,0:3:0:0:
392,321,130306,2,0,L|456:308,1,63.7500012159348,0|8,1:0|0:3,0:0:0:0:
506,226,130674,1,8,0:3:0:0:
418,200,130858,1,8,0:3:0:0:
479,120,131042,1,0,1:0:0:0:
331,170,131226,1,8,0:3:0:0:
387,18,131411,6,0,L|408:104,1,63.7500012159348,8|8,0:3|0:3,0:0:0:0:
276,17,131779,1,0,1:0:0:0:
210,139,131963,1,8,0:3:0:0:
124,16,132147,1,8,0:3:0:0:
297,99,132331,1,8,0:3:0:0:
164,213,132515,2,0,L|93:190,1,63.7500012159348,0|8,1:0|0:3,0:0:0:0:
59,129,132883,5,8,0:3:0:0:
59,129,133067,1,8,0:3:0:0:
0,245,133251,1,0,1:0:0:0:
0,245,133435,1,8,0:3:0:0:
94,349,133619,1,8,0:3:0:0:
94,349,133803,1,8,0:3:0:0:
223,320,133987,2,0,L|240:247,1,63.7500012159348,0|8,1:0|0:3,0:0:0:0:
335,381,134355,5,8,0:3:0:0:
299,203,134539,1,8,0:3:0:0:
401,330,134723,1,0,1:0:0:0:
458,174,134907,1,8,0:3:0:0:
458,174,134999,1,8,0:3:0:0:
458,174,135092,2,0,L|475:247,1,63.7500012159348,8|8,0:3|0:3,0:0:0:0:
299,203,135460,5,0,1:0:0:0:
466,89,135644,1,8,0:3:0:0:
299,126,135828,2,0,L|319:50,1,63.7500012159348,8|8,0:3|0:3,0:0:0:0:
226,177,136196,5,0,1:0:0:0:
160,0,136380,1,8,0:3:0:0:
2,127,136564,2,0,L|88:142,1,63.7500012159348,8|8,0:3|0:3,0:0:0:0:
172,285,136932,2,0,L|157:214,1,63.7500012159348,0|8,1:0|0:3,0:0:0:0:
199,103,137300,5,8,0:3:0:0:
72,241,137484,1,8,0:3:0:0:
226,177,137668,1,0,1:0:0:0:
271,365,137852,1,8,0:3:0:0:
158,222,138036,5,8,0:3:0:0:
375,293,138220,1,8,0:3:0:0:
226,177,138404,1,0,1:0:0:0:
447,111,138588,1,0,1:0:0:0:
320,222,138773,5,0,1:0:0:0:
208,20,138957,1,0,1:0:0:0:
397,181,139141,1,0,1:0:0:0:
358,44,139325,1,0,1:0:0:0:
158,222,139509,6,0,P|105:218|44:177,1,104.999996795654,0|0,1:0|1:0,0:0:0:0:
284,103,139877,1,0,1:0:0:0:
218,277,140061,1,0,1:0:0:0:
128,35,140245,5,0,1:0:0:0:
408,297,140429,1,0,1:0:0:0:
97,356,140613,1,0,1:0:0:0:
284,103,140797,1,0,1:0:0:0:
373,383,140981,5,0,1:0:0:0:
226,286,141165,1,8,0:3:0:0:
226,286,141257,1,8,0:3:0:0:
226,286,141349,2,0,L|349:262,1,112.5,0|0,1:0|0:0,0:0:0:0:
471,135,141717,6,0,P|468:227|408:297,1,187.5,4|0,1:0|0:0,0:0:0:0:
182,217,142269,2,0,P|173:161|232:41,1,187.5,4|0,1:0|0:0,0:0:0:0:
336,264,142822,2,0,P|278:346|167:358,1,187.5,4|0,1:0|0:0,0:0:0:0:
132,321,143374,5,8,0:3:0:0:
98,143,143558,1,0,1:0:0:0:
277,204,143742,1,8,0:3:0:0:
132,321,143926,2,0,L|26:289,1,75,0|4,1:0|0:3,0:0:0:0:
234,140,144294,2,0,L|215:67,1,75,0|0,1:0|0:0,0:0:0:0:
450,219,144662,6,0,P|508:135|508:61,1,150,4|0,1:0|0:0,0:0:0:0:
423,293,145214,2,0,P|405:186|363:134,1,150,4|0,1:0|0:0,0:0:0:0:
478,362,145766,2,0,P|400:316|341:320,1,150,4|0,1:0|0:0,0:0:0:0:
91,384,146319,5,8,0:3:0:0:
307,234,146503,1,0,1:0:0:0:
89,180,146687,1,8,0:3:0:0:
259,359,146871,1,0,1:0:0:0:
205,41,147055,1,4,0:3:0:0:
259,359,147239,1,0,1:0:0:0:
259,359,147607,6,0,L|268:299,2,56.2500021457673,2|2|2,0:0|0:0|0:0,0:0:0:0:
213,199,148343,6,0,L|223:265,1,44.999998626709,8|0,0:3|0:0,0:0:0:0:
267,303,148527,1,2,0:0:0:0:
426,177,148711,2,0,L|523:203,1,89.9999972534181,2|2,1:2|0:0,0:0:0:0:
355,306,149079,2,0,P|399:266|432:262,1,89.9999972534181,2|0,1:2|0:0,0:0:0:0:
512,124,149447,1,2,1:2:0:0:
261,5,149631,1,2,0:0:0:0:
347,207,149815,1,8,0:3:0:0:
401,0,149999,5,2,3:1:0:0:
376,81,150184,1,2,1:0:0:0:
452,65,150368,1,2,1:1:0:0:
283,130,150552,5,6,1:1:0:0:
512,255,150736,1,2,0:1:0:0:
273,384,150920,2,0,P|270:286|245:191,1,179.999994506836,0|8,1:0|0:3,0:0:0:0:
111,0,151472,5,0,1:0:0:0:
0,205,151656,2,0,L|108:179,1,89.9999972534181,2|2,1:2|0:0,0:0:0:0:
332,79,152024,2,0,P|274:26|158:72,1,179.999994506836,8|2,0:3|1:2,0:0:0:0:
244,283,152576,2,0,P|286:281|340:224,1,89.9999972534181,2|8,0:0|0:3,0:0:0:0:
245,112,152944,5,2,3:1:0:0:
222,197,153128,1,2,1:0:0:0:
245,112,153312,1,2,1:1:0:0:
479,201,153496,5,6,1:1:0:0:
136,118,153680,1,2,0:1:0:0:
342,384,153865,1,0,1:0:0:0:
383,313,154049,5,0,0:0:0:0:
189,384,154233,2,0,L|172:284,1,89.9999972534181,8|2,0:3|0:0,0:0:0:0:
383,313,154601,2,0,L|411:185,1,89.9999972534181,2|2,1:2|0:0,0:0:0:0:
71,254,154969,2,0,P|139:201|246:220,1,179.999994506836,2|2,1:2|1:2,0:0:0:0:
402,54,155521,2,0,P|401:137|369:167,1,89.9999972534181,2|8,0:0|0:3,0:0:0:0:
199,286,155889,5,2,3:1:0:0:
283,265,156073,1,2,1:0:0:0:
228,208,156257,1,2,1:1:0:0:
277,384,156441,5,6,1:1:0:0:
331,95,156625,1,2,0:1:0:0:
275,384,156809,1,0,1:0:0:0:
34,248,156993,1,2,0:0:0:0:
34,248,157085,1,2,0:0:0:0:
34,248,157177,2,0,L|145:220,1,89.9999972534181,8|2,0:3|0:0,0:0:0:0:
213,39,157546,2,0,L|305:20,1,89.9999972534181,2|2,1:2|0:0,0:0:0:0:
201,266,157914,2,0,P|153:191|177:104,1,179.999994506836,2|2,1:2|1:2,0:0:0:0:
421,36,158466,1,2,0:0:0:0:
284,280,158650,1,8,0:3:0:0:
280,203,158834,5,2,3:1:0:0:
347,236,159018,1,2,1:0:0:0:
280,203,159202,1,2,1:1:0:0:
474,131,159386,5,6,1:1:0:0:
166,258,159570,1,2,0:1:0:0:
452,207,159754,2,0,L|429:315,2,89.9999972534181,0|2|10,1:0|0:0|0:3,0:0:0:0:
94,384,160306,5,2,0:0:0:0:
94,384,160398,1,2,0:0:0:0:
94,384,160490,2,0,L|77:272,1,89.9999972534181,2|2,1:2|0:0,0:0:0:0:
267,136,160858,1,2,1:2:0:0:
180,340,161042,1,0,0:0:0:0:
0,229,161226,2,0,L|88:214,1,89.9999972534181,2|2,1:2|0:0,0:0:0:0:
299,274,161595,1,2,1:2:0:0:
141,113,161779,5,2,3:1:0:0:
180,340,161963,1,2,1:0:0:0:
141,113,162147,1,2,1:1:0:0:
337,373,162331,5,6,1:1:0:0:
88,214,162515,1,2,0:1:0:0:
392,0,162699,2,0,P|394:85|316:177,1,179.999994506836,0|8,1:0|0:3,0:0:0:0:
127,33,163251,5,0,1:0:0:0:
263,188,163435,2,0,L|245:90,1,89.9999972534181,2|2,1:2|0:0,0:0:0:0:
99,318,163803,2,0,P|128:280|254:279,1,179.999994506836,8|2,0:3|1:2,0:0:0:0:
437,339,164355,2,0,P|427:354|338:352,1,89.9999972534181,2|8,0:0|0:3,0:0:0:0:
342,161,164723,5,2,3:1:0:0:
281,384,164907,1,2,1:0:0:0:
342,161,165092,1,2,1:1:0:0:
188,341,165276,5,6,1:1:0:0:
468,192,165460,1,2,0:1:0:0:
229,0,165644,1,0,1:0:0:0:
292,306,165828,5,8,0:3:0:0:
292,306,165920,1,8,0:3:0:0:
292,306,166012,2,0,L|273:207,1,89.9999972534181,8|0,0:3|1:0,0:0:0:0:
430,88,166380,2,0,L|447:0,1,89.9999972534181,2|2,1:2|0:0,0:0:0:0:
103,90,166748,2,0,P|196:150|263:112,1,179.999994506836,8|2,0:3|1:2,0:0:0:0:
423,319,167300,2,0,P|450:264|434:216,1,89.9999972534181,2|8,0:0|0:3,0:0:0:0:
337,102,167668,5,2,3:1:0:0:
312,199,167852,1,2,1:0:0:0:
403,167,168036,1,2,1:1:0:0:
312,0,168220,5,6,1:1:0:0:
512,195,168404,1,2,0:1:0:0:
250,125,168588,1,0,1:0:0:0:
512,68,168773,5,8,0:3:0:0:
512,68,168865,1,8,0:3:0:0:
512,68,168957,2,0,P|462:83|403:97,1,89.9999972534181,8|0,0:3|1:0,0:0:0:0:
154,226,169325,2,0,L|272:257,1,89.9999972534181,2|2,1:2|0:0,0:0:0:0:
408,384,169693,2,0,B|446:353|446:353|418:220,1,179.999994506836,8|2,0:3|1:2,0:0:0:0:
238,38,170245,1,2,1:2:0:0:
331,225,170429,1,8,1:3:0:0:
396,0,170613,1,0,1:0:0:0:
152,148,170797,5,0,1:0:0:0:
107,152,170889,1,0,1:0:0:0:
65,137,170981,1,0,1:0:0:0:
35,104,171073,1,0,1:0:0:0:
23,62,171165,1,4,1:0:0:0:
