osu file format v14

[General]
AudioFilename: audio.mp3
AudioLeadIn: 0
PreviewTime: -1
Countdown: 0
SampleSet: None
StackLeniency: 0.7
Mode: 3
LetterboxInBreaks: 0
SpecialStyle: 0
WidescreenStoryboard: 1

[Editor]
DistanceSpacing: 0.5
BeatDivisor: 4
GridSize: 4
TimelineZoom: 0.8

[Metadata]
Title:Tsuki -Yue-
TitleUnicode:月 -Yue-
Artist:Kozato Snow
ArtistUnicode:Kozato Snow
Creator:-Muses-
Version:7K Another
Source:
Tags:
BeatmapID:1523430
BeatmapSetID:721460

[Difficulty]
HPDrainRate:8
CircleSize:7
OverallDifficulty:8
ApproachRate:5
SliderMultiplier:1.4
SliderTickRate:1

[Events]
//Background and Video events
0,0,"BG.jpg",0,0
//Break Periods
//Storyboard Layer 0 (Background)
//Storyboard Layer 1 (Fail)
//Storyboard Layer 2 (Pass)
//Storyboard Layer 3 (Foreground)
//Storyboard Sound Samples

[TimingPoints]
1625,400,4,2,0,5,1,0
131225,-100,4,2,0,5,0,1
156825,-100,4,2,0,5,0,0

[HitObjects]
256,192,1625,5,0,0:0:0:0:
36,192,1625,1,0,0:0:0:0:
329,192,1650,1,0,0:0:0:0:
182,192,2025,1,0,0:0:0:0:
109,192,2425,1,0,0:0:0:0:
402,192,2425,1,0,0:0:0:0:
182,192,2825,1,0,0:0:0:0:
256,192,3225,1,0,0:0:0:0:
36,192,3225,1,0,0:0:0:0:
329,192,3250,1,0,0:0:0:0:
182,192,3625,1,0,0:0:0:0:
109,192,3825,1,0,0:0:0:0:
475,192,4025,1,0,0:0:0:0:
36,192,4025,1,0,0:0:0:0:
402,192,4050,1,0,0:0:0:0:
329,192,4425,1,0,0:0:0:0:
256,192,4825,1,0,0:0:0:0:
36,192,4825,1,0,0:0:0:0:
329,192,4850,1,0,0:0:0:0:
182,192,5225,1,0,0:0:0:0:
109,192,5625,1,0,0:0:0:0:
36,192,5625,1,0,0:0:0:0:
182,192,6025,1,0,0:0:0:0:
256,192,6425,1,0,0:0:0:0:
36,192,6425,1,0,0:0:0:0:
329,192,6450,1,0,0:0:0:0:
182,192,6825,1,0,0:0:0:0:
329,192,7025,1,0,0:0:0:0:
475,192,7225,1,0,0:0:0:0:
36,192,7225,1,0,0:0:0:0:
402,192,7250,1,0,0:0:0:0:
329,192,7625,1,0,0:0:0:0:
182,192,7625,1,0,0:0:0:0:
256,192,8025,1,0,0:0:0:0:
36,192,8025,1,0,0:0:0:0:
329,192,8050,1,0,0:0:0:0:
182,192,8425,1,0,0:0:0:0:
109,192,8825,1,0,0:0:0:0:
402,192,8825,1,0,0:0:0:0:
182,192,9225,1,0,0:0:0:0:
256,192,9625,1,0,0:0:0:0:
36,192,9625,1,0,0:0:0:0:
329,192,9650,1,0,0:0:0:0:
182,192,10025,1,0,0:0:0:0:
329,192,10225,1,0,0:0:0:0:
475,192,10425,1,0,0:0:0:0:
36,192,10425,1,0,0:0:0:0:
402,192,10450,1,0,0:0:0:0:
109,192,10825,1,0,0:0:0:0:
256,192,11225,1,0,0:0:0:0:
36,192,11225,1,0,0:0:0:0:
329,192,11250,1,0,0:0:0:0:
182,192,11625,1,0,0:0:0:0:
109,192,12025,1,0,0:0:0:0:
36,192,12025,1,0,0:0:0:0:
182,192,12425,1,0,0:0:0:0:
256,192,12825,1,0,0:0:0:0:
36,192,12825,1,0,0:0:0:0:
329,192,12850,1,0,0:0:0:0:
182,192,13225,1,0,0:0:0:0:
329,192,13425,1,0,0:0:0:0:
402,192,13625,1,0,0:0:0:0:
36,192,13625,1,0,0:0:0:0:
475,192,13650,1,0,0:0:0:0:
256,192,14025,1,0,0:0:0:0:
36,192,14025,1,0,0:0:0:0:
182,192,14050,1,0,0:0:0:0:
109,192,16025,1,0,0:0:0:0:
402,192,16025,1,0,0:0:0:0:
256,192,16025,1,0,0:0:0:0:
182,192,16225,1,0,0:0:0:0:
329,192,16425,1,0,0:0:0:0:
475,192,16625,1,0,0:0:0:0:
109,192,16825,1,0,0:0:0:0:
36,192,17025,1,0,0:0:0:0:
182,192,17225,1,0,0:0:0:0:
256,192,17425,1,0,0:0:0:0:
402,192,17625,1,0,0:0:0:0:
109,192,17625,1,0,0:0:0:0:
475,192,17625,1,0,0:0:0:0:
182,192,17825,1,0,0:0:0:0:
329,192,18025,1,0,0:0:0:0:
475,192,18225,1,0,0:0:0:0:
109,192,18425,1,0,0:0:0:0:
36,192,18625,1,0,0:0:0:0:
182,192,18825,1,0,0:0:0:0:
256,192,19025,1,0,0:0:0:0:
402,192,19225,1,0,0:0:0:0:
109,192,19225,1,0,0:0:0:0:
329,192,19225,1,0,0:0:0:0:
182,192,19425,1,0,0:0:0:0:
329,192,19625,1,0,0:0:0:0:
402,192,19825,1,0,0:0:0:0:
475,192,20025,1,0,0:0:0:0:
329,192,20225,1,0,0:0:0:0:
182,192,20425,1,0,0:0:0:0:
256,192,20625,1,0,0:0:0:0:
402,192,20825,1,0,0:0:0:0:
109,192,20825,1,0,0:0:0:0:
475,192,20825,1,0,0:0:0:0:
36,192,21025,1,0,0:0:0:0:
182,192,21225,1,0,0:0:0:0:
256,192,21425,1,0,0:0:0:0:
109,192,21625,1,0,0:0:0:0:
402,192,21625,1,0,0:0:0:0:
182,192,21625,1,0,0:0:0:0:
329,192,21825,1,0,0:0:0:0:
36,192,22025,1,0,0:0:0:0:
256,192,22225,1,0,0:0:0:0:
109,192,22425,1,0,0:0:0:0:
402,192,22425,1,0,0:0:0:0:
36,192,22425,1,0,0:0:0:0:
475,192,22625,1,0,0:0:0:0:
329,192,22825,1,0,0:0:0:0:
182,192,23025,1,0,0:0:0:0:
109,192,23225,1,0,0:0:0:0:
36,192,23425,1,0,0:0:0:0:
475,192,23625,1,0,0:0:0:0:
256,192,23825,1,0,0:0:0:0:
402,192,24025,1,0,0:0:0:0:
109,192,24025,1,0,0:0:0:0:
36,192,24025,1,0,0:0:0:0:
182,192,24225,1,0,0:0:0:0:
329,192,24425,1,0,0:0:0:0:
402,192,24625,1,0,0:0:0:0:
109,192,24825,1,0,0:0:0:0:
182,192,25025,1,0,0:0:0:0:
475,192,25225,1,0,0:0:0:0:
256,192,25425,1,0,0:0:0:0:
109,192,25625,1,0,0:0:0:0:
402,192,25625,1,0,0:0:0:0:
329,192,25625,1,0,0:0:0:0:
36,192,25825,1,0,0:0:0:0:
182,192,26025,1,0,0:0:0:0:
329,192,26225,1,0,0:0:0:0:
109,192,26425,1,0,0:0:0:0:
402,192,26625,1,0,0:0:0:0:
329,192,26825,1,0,0:0:0:0:
256,192,27025,1,0,0:0:0:0:
109,192,27225,1,0,0:0:0:0:
402,192,27225,1,0,0:0:0:0:
475,192,27225,1,0,0:0:0:0:
182,192,27425,1,0,0:0:0:0:
36,192,27625,1,0,0:0:0:0:
256,192,27825,1,0,0:0:0:0:
109,192,28025,1,0,0:0:0:0:
402,192,28025,1,0,0:0:0:0:
329,192,28025,1,0,0:0:0:0:
36,192,28225,1,0,0:0:0:0:
475,192,28225,1,0,0:0:0:0:
329,192,28425,1,0,0:0:0:0:
182,192,28425,1,0,0:0:0:0:
109,192,28825,1,0,0:0:0:0:
402,192,28825,1,0,0:0:0:0:
256,192,28825,1,0,0:0:0:0:
182,192,29025,1,0,0:0:0:0:
475,192,29025,1,0,0:0:0:0:
36,192,29225,1,0,0:0:0:0:
402,192,29225,1,0,0:0:0:0:
109,192,29425,1,0,0:0:0:0:
475,192,29425,1,0,0:0:0:0:
182,192,29625,1,0,0:0:0:0:
402,192,29625,1,0,0:0:0:0:
329,192,29825,1,0,0:0:0:0:
36,192,29825,1,0,0:0:0:0:
402,192,30025,1,0,0:0:0:0:
109,192,30025,1,0,0:0:0:0:
256,192,30225,1,0,0:0:0:0:
36,192,30225,1,0,0:0:0:0:
402,192,30425,1,0,0:0:0:0:
109,192,30425,1,0,0:0:0:0:
182,192,30425,1,0,0:0:0:0:
475,192,30625,1,0,0:0:0:0:
36,192,30625,1,0,0:0:0:0:
329,192,30825,1,0,0:0:0:0:
109,192,30825,1,0,0:0:0:0:
402,192,31025,1,0,0:0:0:0:
182,192,31025,1,0,0:0:0:0:
36,192,31225,1,0,0:0:0:0:
256,192,31225,1,0,0:0:0:0:
182,192,31425,1,0,0:0:0:0:
329,192,31425,1,0,0:0:0:0:
109,192,31625,1,0,0:0:0:0:
402,192,31625,1,0,0:0:0:0:
256,192,31825,1,0,0:0:0:0:
475,192,31825,1,0,0:0:0:0:
402,192,32025,1,0,0:0:0:0:
109,192,32025,1,0,0:0:0:0:
36,192,32025,1,0,0:0:0:0:
329,192,32225,1,0,0:0:0:0:
475,192,32225,1,0,0:0:0:0:
182,192,32425,1,0,0:0:0:0:
402,192,32425,1,0,0:0:0:0:
36,192,32625,1,0,0:0:0:0:
475,192,32625,1,0,0:0:0:0:
329,192,32825,1,0,0:0:0:0:
402,192,32825,1,0,0:0:0:0:
109,192,33025,1,0,0:0:0:0:
256,192,33025,1,0,0:0:0:0:
475,192,33225,1,0,0:0:0:0:
182,192,33225,1,0,0:0:0:0:
329,192,33325,1,0,0:0:0:0:
256,192,33425,1,0,0:0:0:0:
36,192,33425,1,0,0:0:0:0:
182,192,33525,1,0,0:0:0:0:
402,192,33625,1,0,0:0:0:0:
109,192,33625,1,0,0:0:0:0:
329,192,33625,1,0,0:0:0:0:
182,192,33825,1,0,0:0:0:0:
475,192,33825,1,0,0:0:0:0:
329,192,34025,1,0,0:0:0:0:
36,192,34025,1,0,0:0:0:0:
256,192,34225,1,0,0:0:0:0:
182,192,34225,1,0,0:0:0:0:
109,192,34425,1,0,0:0:0:0:
402,192,34425,1,0,0:0:0:0:
475,192,34425,1,0,0:0:0:0:
36,192,34625,1,0,0:0:0:0:
329,192,34625,1,0,0:0:0:0:
475,192,34825,1,0,0:0:0:0:
182,192,34825,1,0,0:0:0:0:
256,192,35025,1,0,0:0:0:0:
36,192,35025,1,0,0:0:0:0:
109,192,35225,1,0,0:0:0:0:
402,192,35225,1,0,0:0:0:0:
475,192,35225,1,0,0:0:0:0:
182,192,35425,1,0,0:0:0:0:
329,192,35425,1,0,0:0:0:0:
36,192,35625,1,0,0:0:0:0:
256,192,35625,1,0,0:0:0:0:
329,192,35825,1,0,0:0:0:0:
182,192,35825,1,0,0:0:0:0:
109,192,36025,1,0,0:0:0:0:
256,192,36025,1,0,0:0:0:0:
402,192,36225,1,0,0:0:0:0:
36,192,36225,1,0,0:0:0:0:
475,192,36425,1,0,0:0:0:0:
182,192,36425,1,0,0:0:0:0:
256,192,36625,1,0,0:0:0:0:
329,192,36625,1,0,0:0:0:0:
109,192,36825,1,0,0:0:0:0:
402,192,36825,1,0,0:0:0:0:
36,192,36825,1,0,0:0:0:0:
329,192,37025,1,0,0:0:0:0:
475,192,37025,1,0,0:0:0:0:
182,192,37225,1,0,0:0:0:0:
402,192,37225,1,0,0:0:0:0:
109,192,37425,1,0,0:0:0:0:
329,192,37425,1,0,0:0:0:0:
36,192,37625,1,0,0:0:0:0:
256,192,37625,1,0,0:0:0:0:
109,192,37825,1,0,0:0:0:0:
182,192,37825,1,0,0:0:0:0:
329,192,38025,1,0,0:0:0:0:
475,192,38025,1,0,0:0:0:0:
256,192,38225,1,0,0:0:0:0:
36,192,38225,1,0,0:0:0:0:
402,192,38425,1,0,0:0:0:0:
109,192,38425,1,0,0:0:0:0:
329,192,38425,1,0,0:0:0:0:
475,192,38625,1,0,0:0:0:0:
256,192,38625,1,0,0:0:0:0:
182,192,38825,1,0,0:0:0:0:
329,192,38825,1,0,0:0:0:0:
402,192,39025,1,0,0:0:0:0:
109,192,39025,1,0,0:0:0:0:
36,192,39225,1,0,0:0:0:0:
256,192,39225,1,0,0:0:0:0:
329,192,39425,1,0,0:0:0:0:
109,192,39425,1,0,0:0:0:0:
182,192,39625,1,0,0:0:0:0:
475,192,39625,1,0,0:0:0:0:
329,192,39725,1,0,0:0:0:0:
256,192,39825,1,0,0:0:0:0:
36,192,39825,1,0,0:0:0:0:
182,192,39925,1,0,0:0:0:0:
109,192,40025,1,0,0:0:0:0:
402,192,40025,1,0,0:0:0:0:
475,192,40025,1,0,0:0:0:0:
182,192,40225,1,0,0:0:0:0:
329,192,40425,1,0,0:0:0:0:
475,192,40425,1,0,0:0:0:0:
36,192,40625,1,0,0:0:0:0:
109,192,40825,1,0,0:0:0:0:
402,192,40825,1,0,0:0:0:0:
329,192,41025,1,0,0:0:0:0:
256,192,41075,1,0,0:0:0:0:
182,192,41125,1,0,0:0:0:0:
109,192,41225,1,0,0:0:0:0:
402,192,41225,1,0,0:0:0:0:
256,192,41425,1,0,0:0:0:0:
36,192,41625,1,0,0:0:0:0:
475,192,41625,1,0,0:0:0:0:
182,192,41625,1,0,0:0:0:0:
109,192,42025,1,0,0:0:0:0:
402,192,42025,1,0,0:0:0:0:
36,192,42125,1,0,0:0:0:0:
182,192,42225,1,0,0:0:0:0:
475,192,42225,1,0,0:0:0:0:
329,192,42325,1,0,0:0:0:0:
109,192,42325,1,0,0:0:0:0:
256,192,42425,1,0,0:0:0:0:
475,192,42425,1,0,0:0:0:0:
36,192,42425,1,0,0:0:0:0:
402,192,42625,1,0,0:0:0:0:
109,192,42625,1,0,0:0:0:0:
329,192,42825,1,0,0:0:0:0:
36,192,42825,1,0,0:0:0:0:
475,192,42825,1,0,0:0:0:0:
256,192,42925,1,0,0:0:0:0:
182,192,43025,1,0,0:0:0:0:
109,192,43225,1,0,0:0:0:0:
402,192,43225,1,0,0:0:0:0:
256,192,43225,1,0,0:0:0:0:
475,192,43425,1,0,0:0:0:0:
36,192,43425,1,0,0:0:0:0:
182,192,43625,1,0,0:0:0:0:
402,192,43625,1,0,0:0:0:0:
109,192,43625,1,0,0:0:0:0:
329,192,43725,1,0,0:0:0:0:
256,192,43825,1,0,0:0:0:0:
182,192,43925,1,0,0:0:0:0:
109,192,44025,1,0,0:0:0:0:
36,192,44025,1,0,0:0:0:0:
402,192,44025,1,0,0:0:0:0:
329,192,44225,1,0,0:0:0:0:
475,192,44225,1,0,0:0:0:0:
402,192,44425,1,0,0:0:0:0:
182,192,44425,1,0,0:0:0:0:
256,192,44525,1,0,0:0:0:0:
329,192,44625,1,0,0:0:0:0:
109,192,44625,1,0,0:0:0:0:
475,192,44825,1,0,0:0:0:0:
36,192,44825,1,0,0:0:0:0:
182,192,44825,1,0,0:0:0:0:
402,192,45025,1,0,0:0:0:0:
109,192,45025,1,0,0:0:0:0:
182,192,45225,1,0,0:0:0:0:
36,192,45225,1,0,0:0:0:0:
109,192,45325,1,0,0:0:0:0:
329,192,45425,1,0,0:0:0:0:
36,192,45425,1,0,0:0:0:0:
402,192,45525,1,0,0:0:0:0:
182,192,45525,1,0,0:0:0:0:
475,192,45625,1,0,0:0:0:0:
109,192,45625,1,0,0:0:0:0:
256,192,45625,1,0,0:0:0:0:
182,192,45825,1,0,0:0:0:0:
329,192,45825,1,0,0:0:0:0:
256,192,46025,1,0,0:0:0:0:
36,192,46025,1,0,0:0:0:0:
402,192,46125,1,0,0:0:0:0:
109,192,46225,1,0,0:0:0:0:
329,192,46225,1,0,0:0:0:0:
182,192,46425,1,0,0:0:0:0:
475,192,46425,1,0,0:0:0:0:
36,192,46425,1,0,0:0:0:0:
402,192,46625,1,0,0:0:0:0:
109,192,46625,1,0,0:0:0:0:
329,192,46725,1,0,0:0:0:0:
36,192,46725,1,0,0:0:0:0:
256,192,46825,1,0,0:0:0:0:
182,192,46825,1,0,0:0:0:0:
36,192,47025,1,0,0:0:0:0:
329,192,47025,1,0,0:0:0:0:
109,192,47125,1,0,0:0:0:0:
402,192,47125,1,0,0:0:0:0:
182,192,47225,1,0,0:0:0:0:
475,192,47225,1,0,0:0:0:0:
402,192,47325,1,0,0:0:0:0:
109,192,47325,1,0,0:0:0:0:
329,192,47425,1,0,0:0:0:0:
182,192,47425,1,0,0:0:0:0:
256,192,47525,1,0,0:0:0:0:
475,192,47525,1,0,0:0:0:0:
402,192,47625,1,0,0:0:0:0:
109,192,47625,1,0,0:0:0:0:
329,192,47625,1,0,0:0:0:0:
36,192,47725,1,0,0:0:0:0:
256,192,47725,1,0,0:0:0:0:
182,192,47825,1,0,0:0:0:0:
475,192,47825,1,0,0:0:0:0:
256,192,47925,1,0,0:0:0:0:
402,192,47925,1,0,0:0:0:0:
329,192,48025,1,0,0:0:0:0:
475,192,48025,1,0,0:0:0:0:
109,192,48025,1,0,0:0:0:0:
36,192,48025,1,0,0:0:0:0:
402,192,48225,1,0,0:0:0:0:
256,192,48225,1,0,0:0:0:0:
182,192,48325,1,0,0:0:0:0:
475,192,48325,1,0,0:0:0:0:
256,192,48425,1,0,0:0:0:0:
329,192,48425,1,0,0:0:0:0:
36,192,48525,1,0,0:0:0:0:
109,192,48625,1,0,0:0:0:0:
475,192,48625,1,0,0:0:0:0:
402,192,48725,1,0,0:0:0:0:
256,192,48725,1,0,0:0:0:0:
36,192,48825,1,0,0:0:0:0:
182,192,48825,1,0,0:0:0:0:
329,192,48825,1,0,0:0:0:0:
109,192,49025,1,0,0:0:0:0:
256,192,49025,1,0,0:0:0:0:
182,192,49225,1,0,0:0:0:0:
329,192,49225,1,0,0:0:0:0:
36,192,49225,1,0,0:0:0:0:
475,192,49325,1,0,0:0:0:0:
109,192,49425,1,0,0:0:0:0:
256,192,49625,1,0,0:0:0:0:
402,192,49625,1,0,0:0:0:0:
182,192,49625,1,0,0:0:0:0:
329,192,49825,1,0,0:0:0:0:
109,192,49825,1,0,0:0:0:0:
36,192,50025,1,0,0:0:0:0:
475,192,50025,1,0,0:0:0:0:
256,192,50025,1,0,0:0:0:0:
109,192,50125,1,0,0:0:0:0:
329,192,50225,1,0,0:0:0:0:
182,192,50225,1,0,0:0:0:0:
109,192,50325,1,0,0:0:0:0:
256,192,50325,1,0,0:0:0:0:
36,192,50425,1,0,0:0:0:0:
402,192,50425,1,0,0:0:0:0:
475,192,50425,1,0,0:0:0:0:
182,192,50425,1,0,0:0:0:0:
329,192,50625,1,0,0:0:0:0:
109,192,50625,1,0,0:0:0:0:
475,192,50825,1,0,0:0:0:0:
256,192,50825,1,0,0:0:0:0:
182,192,50925,1,0,0:0:0:0:
402,192,51025,1,0,0:0:0:0:
36,192,51025,1,0,0:0:0:0:
109,192,51225,1,0,0:0:0:0:
329,192,51225,1,0,0:0:0:0:
256,192,51225,1,0,0:0:0:0:
475,192,51425,1,0,0:0:0:0:
402,192,51425,1,0,0:0:0:0:
256,192,51625,1,0,0:0:0:0:
36,192,51625,1,0,0:0:0:0:
109,192,51625,1,0,0:0:0:0:
182,192,51825,1,0,0:0:0:0:
402,192,51825,1,0,0:0:0:0:
329,192,51925,1,0,0:0:0:0:
475,192,51925,1,0,0:0:0:0:
109,192,52025,1,0,0:0:0:0:
402,192,52025,1,0,0:0:0:0:
256,192,52025,1,0,0:0:0:0:
329,192,52225,1,0,0:0:0:0:
36,192,52225,1,0,0:0:0:0:
256,192,52425,1,0,0:0:0:0:
109,192,52425,1,0,0:0:0:0:
329,192,52525,1,0,0:0:0:0:
182,192,52625,1,0,0:0:0:0:
402,192,52625,1,0,0:0:0:0:
256,192,52825,1,0,0:0:0:0:
475,192,52825,1,0,0:0:0:0:
36,192,52825,1,0,0:0:0:0:
329,192,52925,1,0,0:0:0:0:
109,192,52925,1,0,0:0:0:0:
182,192,53025,1,0,0:0:0:0:
402,192,53025,1,0,0:0:0:0:
256,192,53125,1,0,0:0:0:0:
475,192,53125,1,0,0:0:0:0:
109,192,53225,1,0,0:0:0:0:
402,192,53225,1,0,0:0:0:0:
182,192,53325,1,0,0:0:0:0:
329,192,53325,1,0,0:0:0:0:
256,192,53425,1,0,0:0:0:0:
402,192,53425,1,0,0:0:0:0:
182,192,53525,1,0,0:0:0:0:
475,192,53525,1,0,0:0:0:0:
402,192,53625,1,0,0:0:0:0:
36,192,53625,1,0,0:0:0:0:
109,192,53625,1,0,0:0:0:0:
182,192,53725,1,0,0:0:0:0:
36,192,53825,1,0,0:0:0:0:
256,192,53825,1,0,0:0:0:0:
329,192,53875,1,0,0:0:0:0:
109,192,53875,1,0,0:0:0:0:
402,192,53925,1,0,0:0:0:0:
182,192,53925,1,0,0:0:0:0:
36,192,54025,1,0,0:0:0:0:
475,192,54025,1,0,0:0:0:0:
256,192,54025,1,0,0:0:0:0:
109,192,54225,1,0,0:0:0:0:
402,192,54225,1,0,0:0:0:0:
182,192,54325,1,0,0:0:0:0:
329,192,54325,1,0,0:0:0:0:
256,192,54425,1,0,0:0:0:0:
36,192,54425,1,0,0:0:0:0:
475,192,54425,1,0,0:0:0:0:
109,192,54425,1,0,0:0:0:0:
402,192,54625,1,0,0:0:0:0:
109,192,54825,1,0,0:0:0:0:
329,192,54825,1,0,0:0:0:0:
475,192,54825,1,0,0:0:0:0:
182,192,54825,1,0,0:0:0:0:
256,192,55025,1,0,0:0:0:0:
402,192,55025,1,0,0:0:0:0:
182,192,55125,1,0,0:0:0:0:
329,192,55125,1,0,0:0:0:0:
109,192,55225,1,0,0:0:0:0:
36,192,55225,1,0,0:0:0:0:
256,192,55225,1,0,0:0:0:0:
329,192,55425,1,0,0:0:0:0:
475,192,55425,1,0,0:0:0:0:
402,192,55625,1,0,0:0:0:0:
36,192,55625,1,0,0:0:0:0:
256,192,55625,1,0,0:0:0:0:
109,192,55625,1,0,0:0:0:0:
182,192,55725,1,0,0:0:0:0:
109,192,55825,1,0,0:0:0:0:
36,192,56025,1,0,0:0:0:0:
329,192,56025,1,0,0:0:0:0:
182,192,56025,1,0,0:0:0:0:
36,192,56225,1,0,0:0:0:0:
402,192,56225,1,0,0:0:0:0:
256,192,56425,1,0,0:0:0:0:
109,192,56425,1,0,0:0:0:0:
475,192,56425,1,0,0:0:0:0:
329,192,56425,1,0,0:0:0:0:
182,192,56525,1,0,0:0:0:0:
402,192,56625,1,0,0:0:0:0:
36,192,56625,1,0,0:0:0:0:
182,192,56725,1,0,0:0:0:0:
475,192,56725,1,0,0:0:0:0:
329,192,56825,1,0,0:0:0:0:
256,192,56825,1,0,0:0:0:0:
109,192,56825,1,0,0:0:0:0:
402,192,57025,1,0,0:0:0:0:
36,192,57025,1,0,0:0:0:0:
36,192,57225,1,0,0:0:0:0:
475,192,57225,1,0,0:0:0:0:
182,192,57225,1,0,0:0:0:0:
329,192,57225,1,0,0:0:0:0:
109,192,57325,1,0,0:0:0:0:
256,192,57425,1,0,0:0:0:0:
402,192,57425,1,0,0:0:0:0:
329,192,57625,1,0,0:0:0:0:
109,192,57625,1,0,0:0:0:0:
475,192,57625,1,0,0:0:0:0:
182,192,57825,1,0,0:0:0:0:
36,192,57825,1,0,0:0:0:0:
256,192,58025,1,0,0:0:0:0:
402,192,58025,1,0,0:0:0:0:
109,192,58025,1,0,0:0:0:0:
329,192,58025,1,0,0:0:0:0:
182,192,58125,1,0,0:0:0:0:
475,192,58225,1,0,0:0:0:0:
329,192,58225,1,0,0:0:0:0:
256,192,58325,1,0,0:0:0:0:
402,192,58325,1,0,0:0:0:0:
182,192,58425,1,0,0:0:0:0:
329,192,58425,1,0,0:0:0:0:
36,192,58425,1,0,0:0:0:0:
402,192,58625,1,0,0:0:0:0:
256,192,58625,1,0,0:0:0:0:
329,192,58825,1,0,0:0:0:0:
475,192,58825,1,0,0:0:0:0:
36,192,58825,1,0,0:0:0:0:
182,192,58825,1,0,0:0:0:0:
256,192,58925,1,0,0:0:0:0:
109,192,59025,1,0,0:0:0:0:
402,192,59025,1,0,0:0:0:0:
256,192,59225,1,0,0:0:0:0:
182,192,59225,1,0,0:0:0:0:
475,192,59225,1,0,0:0:0:0:
36,192,59425,1,0,0:0:0:0:
182,192,59425,1,0,0:0:0:0:
402,192,59525,1,0,0:0:0:0:
256,192,59525,1,0,0:0:0:0:
329,192,59625,1,0,0:0:0:0:
109,192,59625,1,0,0:0:0:0:
475,192,59625,1,0,0:0:0:0:
36,192,59725,1,0,0:0:0:0:
402,192,59725,1,0,0:0:0:0:
182,192,59825,1,0,0:0:0:0:
475,192,59825,1,0,0:0:0:0:
256,192,59925,1,0,0:0:0:0:
109,192,59925,1,0,0:0:0:0:
329,192,60025,1,0,0:0:0:0:
402,192,60025,1,0,0:0:0:0:
182,192,60025,1,0,0:0:0:0:
36,192,60125,1,0,0:0:0:0:
475,192,60125,1,0,0:0:0:0:
329,192,60225,1,0,0:0:0:0:
109,192,60225,1,0,0:0:0:0:
256,192,60325,1,0,0:0:0:0:
402,192,60325,1,0,0:0:0:0:
36,192,60425,1,0,0:0:0:0:
475,192,60425,1,0,0:0:0:0:
329,192,60425,1,0,0:0:0:0:
182,192,60425,1,0,0:0:0:0:
109,192,60525,1,0,0:0:0:0:
256,192,60525,1,0,0:0:0:0:
475,192,60625,1,0,0:0:0:0:
182,192,60625,1,0,0:0:0:0:
329,192,60625,1,0,0:0:0:0:
256,192,60725,1,0,0:0:0:0:
402,192,60725,1,0,0:0:0:0:
109,192,60825,1,0,0:0:0:0:
36,192,60825,1,0,0:0:0:0:
329,192,60825,1,0,0:0:0:0:
475,192,60825,1,0,0:0:0:0:
256,192,61025,1,0,0:0:0:0:
402,192,61025,1,0,0:0:0:0:
182,192,61125,1,0,0:0:0:0:
475,192,61125,1,0,0:0:0:0:
329,192,61225,1,0,0:0:0:0:
109,192,61225,1,0,0:0:0:0:
36,192,61225,1,0,0:0:0:0:
402,192,61225,1,0,0:0:0:0:
182,192,61325,1,0,0:0:0:0:
256,192,61425,1,0,0:0:0:0:
36,192,61425,1,0,0:0:0:0:
109,192,61525,1,0,0:0:0:0:
402,192,61525,1,0,0:0:0:0:
329,192,61625,1,0,0:0:0:0:
475,192,61625,1,0,0:0:0:0:
182,192,61625,1,0,0:0:0:0:
182,192,61825,1,0,0:0:0:0:
36,192,61825,1,0,0:0:0:0:
475,192,62025,1,0,0:0:0:0:
109,192,62025,1,0,0:0:0:0:
329,192,62025,1,0,0:0:0:0:
256,192,62025,1,0,0:0:0:0:
182,192,62125,1,0,0:0:0:0:
402,192,62225,1,0,0:0:0:0:
182,192,62425,1,0,0:0:0:0:
36,192,62425,1,0,0:0:0:0:
329,192,62425,1,0,0:0:0:0:
109,192,62625,1,0,0:0:0:0:
256,192,62625,1,0,0:0:0:0:
182,192,62825,1,0,0:0:0:0:
329,192,62825,1,0,0:0:0:0:
475,192,62825,1,0,0:0:0:0:
36,192,62825,1,0,0:0:0:0:
109,192,62925,1,0,0:0:0:0:
256,192,63025,1,0,0:0:0:0:
402,192,63025,1,0,0:0:0:0:
329,192,63125,1,0,0:0:0:0:
182,192,63125,1,0,0:0:0:0:
402,192,63225,1,0,0:0:0:0:
109,192,63225,1,0,0:0:0:0:
256,192,63225,1,0,0:0:0:0:
182,192,63425,1,0,0:0:0:0:
36,192,63425,1,0,0:0:0:0:
109,192,63625,1,0,0:0:0:0:
329,192,63625,1,0,0:0:0:0:
475,192,63625,1,0,0:0:0:0:
256,192,63625,1,0,0:0:0:0:
402,192,63725,1,0,0:0:0:0:
182,192,63825,1,0,0:0:0:0:
36,192,63825,1,0,0:0:0:0:
256,192,64025,1,0,0:0:0:0:
36,192,64025,1,0,0:0:0:0:
402,192,64025,1,0,0:0:0:0:
109,192,64225,1,0,0:0:0:0:
475,192,64225,1,0,0:0:0:0:
36,192,64425,1,0,0:0:0:0:
182,192,64425,1,0,0:0:0:0:
402,192,64425,1,0,0:0:0:0:
329,192,64425,1,0,0:0:0:0:
256,192,64525,1,0,0:0:0:0:
475,192,64625,1,0,0:0:0:0:
109,192,64625,1,0,0:0:0:0:
329,192,64725,1,0,0:0:0:0:
182,192,64725,1,0,0:0:0:0:
402,192,64825,1,0,0:0:0:0:
36,192,64825,1,0,0:0:0:0:
256,192,64825,1,0,0:0:0:0:
109,192,65025,1,0,0:0:0:0:
256,192,65025,1,0,0:0:0:0:
182,192,65225,1,0,0:0:0:0:
329,192,65225,1,0,0:0:0:0:
36,192,65225,1,0,0:0:0:0:
475,192,65225,1,0,0:0:0:0:
256,192,65325,1,0,0:0:0:0:
475,192,65425,1,0,0:0:0:0:
109,192,65425,1,0,0:0:0:0:
36,192,65625,1,0,0:0:0:0:
402,192,65625,1,0,0:0:0:0:
256,192,65625,1,0,0:0:0:0:
109,192,65725,1,0,0:0:0:0:
329,192,65725,1,0,0:0:0:0:
182,192,65825,1,0,0:0:0:0:
475,192,65825,1,0,0:0:0:0:
256,192,65925,1,0,0:0:0:0:
402,192,65925,1,0,0:0:0:0:
109,192,66025,1,0,0:0:0:0:
36,192,66025,1,0,0:0:0:0:
475,192,66025,1,0,0:0:0:0:
329,192,66025,1,0,0:0:0:0:
182,192,66125,1,0,0:0:0:0:
402,192,66125,1,0,0:0:0:0:
256,192,66225,1,0,0:0:0:0:
109,192,66225,1,0,0:0:0:0:
329,192,66325,1,0,0:0:0:0:
36,192,66325,1,0,0:0:0:0:
182,192,66425,1,0,0:0:0:0:
402,192,66425,1,0,0:0:0:0:
256,192,66525,1,0,0:0:0:0:
109,192,66525,1,0,0:0:0:0:
329,192,66625,1,0,0:0:0:0:
182,192,66625,1,0,0:0:0:0:
402,192,66725,1,0,0:0:0:0:
256,192,66725,1,0,0:0:0:0:
36,192,66825,1,0,0:0:0:0:
329,192,66825,1,0,0:0:0:0:
109,192,66875,1,0,0:0:0:0:
182,192,66925,1,0,0:0:0:0:
475,192,66975,1,0,0:0:0:0:
402,192,67025,1,0,0:0:0:0:
329,192,67075,1,0,0:0:0:0:
36,192,67125,1,0,0:0:0:0:
109,192,67175,1,0,0:0:0:0:
182,192,67225,1,0,0:0:0:0:
256,192,67225,1,0,0:0:0:0:
475,192,67225,1,0,0:0:0:0:
402,192,67625,1,0,0:0:0:0:
475,192,67625,1,0,0:0:0:0:
109,192,67625,1,0,0:0:0:0:
329,192,68025,1,0,0:0:0:0:
36,192,68025,1,0,0:0:0:0:
256,192,68225,1,0,0:0:0:0:
402,192,68225,1,0,0:0:0:0:
182,192,68425,1,0,0:0:0:0:
329,192,68425,1,0,0:0:0:0:
256,192,68625,1,0,0:0:0:0:
402,192,68625,1,0,0:0:0:0:
36,192,68825,1,0,0:0:0:0:
182,192,68825,1,0,0:0:0:0:
329,192,68825,1,0,0:0:0:0:
109,192,68925,1,0,0:0:0:0:
402,192,68925,1,0,0:0:0:0:
256,192,69025,1,0,0:0:0:0:
475,192,69025,1,0,0:0:0:0:
182,192,69125,1,0,0:0:0:0:
402,192,69125,1,0,0:0:0:0:
256,192,69225,1,0,0:0:0:0:
329,192,69225,1,0,0:0:0:0:
402,192,69425,1,0,0:0:0:0:
109,192,69425,1,0,0:0:0:0:
329,192,69625,1,0,0:0:0:0:
475,192,69625,1,0,0:0:0:0:
36,192,69625,1,0,0:0:0:0:
182,192,69825,1,0,0:0:0:0:
402,192,69825,1,0,0:0:0:0:
36,192,70025,1,0,0:0:0:0:
256,192,70025,1,0,0:0:0:0:
109,192,70225,1,0,0:0:0:0:
402,192,70225,1,0,0:0:0:0:
256,192,70425,1,0,0:0:0:0:
329,192,70425,1,0,0:0:0:0:
475,192,70425,1,0,0:0:0:0:
182,192,70725,1,0,0:0:0:0:
402,192,70725,1,0,0:0:0:0:
36,192,70725,1,0,0:0:0:0:
475,192,71025,1,0,0:0:0:0:
109,192,71025,1,0,0:0:0:0:
256,192,71025,1,0,0:0:0:0:
36,192,71225,1,0,0:0:0:0:
182,192,71425,1,0,0:0:0:0:
402,192,71425,1,0,0:0:0:0:
109,192,71625,1,0,0:0:0:0:
329,192,71625,1,0,0:0:0:0:
256,192,71825,1,0,0:0:0:0:
36,192,71825,1,0,0:0:0:0:
475,192,72025,1,0,0:0:0:0:
182,192,72025,1,0,0:0:0:0:
402,192,72225,1,0,0:0:0:0:
109,192,72225,1,0,0:0:0:0:
329,192,72425,1,0,0:0:0:0:
36,192,72425,1,0,0:0:0:0:
402,192,72625,1,0,0:0:0:0:
109,192,72625,1,0,0:0:0:0:
256,192,72825,1,0,0:0:0:0:
36,192,73025,1,0,0:0:0:0:
329,192,73025,1,0,0:0:0:0:
109,192,73125,1,0,0:0:0:0:
402,192,73125,1,0,0:0:0:0:
182,192,73225,1,0,0:0:0:0:
329,192,73225,1,0,0:0:0:0:
109,192,73325,1,0,0:0:0:0:
402,192,73325,1,0,0:0:0:0:
182,192,73425,1,0,0:0:0:0:
475,192,73425,1,0,0:0:0:0:
256,192,73525,1,0,0:0:0:0:
402,192,73525,1,0,0:0:0:0:
329,192,73625,1,0,0:0:0:0:
109,192,73625,1,0,0:0:0:0:
36,192,73625,1,0,0:0:0:0:
182,192,73825,1,0,0:0:0:0:
109,192,74025,1,0,0:0:0:0:
475,192,74025,1,0,0:0:0:0:
256,192,74025,1,0,0:0:0:0:
329,192,74225,1,0,0:0:0:0:
182,192,74425,1,0,0:0:0:0:
36,192,74425,1,0,0:0:0:0:
402,192,74425,1,0,0:0:0:0:
256,192,74625,1,0,0:0:0:0:
402,192,74825,1,0,0:0:0:0:
109,192,74825,1,0,0:0:0:0:
329,192,74825,1,0,0:0:0:0:
475,192,75025,1,0,0:0:0:0:
182,192,75225,1,0,0:0:0:0:
329,192,75225,1,0,0:0:0:0:
36,192,75225,1,0,0:0:0:0:
109,192,75425,1,0,0:0:0:0:
36,192,75625,1,0,0:0:0:0:
402,192,75625,1,0,0:0:0:0:
256,192,75625,1,0,0:0:0:0:
182,192,75825,1,0,0:0:0:0:
329,192,76025,1,0,0:0:0:0:
475,192,76025,1,0,0:0:0:0:
402,192,76025,1,0,0:0:0:0:
109,192,76225,1,0,0:0:0:0:
182,192,76425,1,0,0:0:0:0:
36,192,76425,1,0,0:0:0:0:
329,192,76425,1,0,0:0:0:0:
109,192,76625,1,0,0:0:0:0:
256,192,76825,1,0,0:0:0:0:
402,192,76825,1,0,0:0:0:0:
36,192,76825,1,0,0:0:0:0:
475,192,77225,1,0,0:0:0:0:
182,192,77425,1,0,0:0:0:0:
402,192,77425,1,0,0:0:0:0:
109,192,77525,1,0,0:0:0:0:
329,192,77525,1,0,0:0:0:0:
36,192,77625,1,0,0:0:0:0:
256,192,77625,1,0,0:0:0:0:
329,192,77825,1,0,0:0:0:0:
182,192,77825,1,0,0:0:0:0:
109,192,78025,1,0,0:0:0:0:
475,192,78025,1,0,0:0:0:0:
256,192,78125,1,0,0:0:0:0:
402,192,78125,1,0,0:0:0:0:
182,192,78225,1,0,0:0:0:0:
329,192,78225,1,0,0:0:0:0:
36,192,78225,1,0,0:0:0:0:
329,192,78425,1,0,0:0:0:0:
475,192,78425,1,0,0:0:0:0:
256,192,78425,1,0,0:0:0:0:
109,192,78625,1,0,0:0:0:0:
182,192,78825,1,0,0:0:0:0:
36,192,79025,1,0,0:0:0:0:
109,192,79225,1,0,0:0:0:0:
402,192,79225,1,0,0:0:0:0:
256,192,79225,1,0,0:0:0:0:
182,192,79425,1,0,0:0:0:0:
475,192,79425,1,0,0:0:0:0:
256,192,79475,1,0,0:0:0:0:
36,192,79475,1,0,0:0:0:0:
329,192,79525,1,0,0:0:0:0:
109,192,79525,1,0,0:0:0:0:
402,192,79625,1,0,0:0:0:0:
182,192,79625,1,0,0:0:0:0:
109,192,79825,1,0,0:0:0:0:
402,192,79825,1,0,0:0:0:0:
36,192,80025,1,0,0:0:0:0:
475,192,80025,1,0,0:0:0:0:
256,192,80025,1,0,0:0:0:0:
109,192,80225,1,0,0:0:0:0:
182,192,80225,1,0,0:0:0:0:
109,192,80325,1,0,0:0:0:0:
329,192,80325,1,0,0:0:0:0:
402,192,80425,1,0,0:0:0:0:
36,192,80425,1,0,0:0:0:0:
256,192,80425,1,0,0:0:0:0:
36,192,80625,1,0,0:0:0:0:
329,192,80625,1,0,0:0:0:0:
475,192,80625,1,0,0:0:0:0:
256,192,80825,1,0,0:0:0:0:
109,192,80825,1,0,0:0:0:0:
402,192,80825,1,0,0:0:0:0:
182,192,81025,1,0,0:0:0:0:
402,192,81025,1,0,0:0:0:0:
329,192,81225,1,0,0:0:0:0:
475,192,81225,1,0,0:0:0:0:
256,192,81225,1,0,0:0:0:0:
109,192,81425,1,0,0:0:0:0:
402,192,81425,1,0,0:0:0:0:
182,192,81625,1,0,0:0:0:0:
36,192,81625,1,0,0:0:0:0:
256,192,81725,1,0,0:0:0:0:
109,192,81725,1,0,0:0:0:0:
182,192,81825,1,0,0:0:0:0:
329,192,81825,1,0,0:0:0:0:
402,192,81925,1,0,0:0:0:0:
256,192,81925,1,0,0:0:0:0:
475,192,82025,1,0,0:0:0:0:
256,192,82025,1,0,0:0:0:0:
402,192,82225,1,0,0:0:0:0:
256,192,82225,1,0,0:0:0:0:
109,192,82225,1,0,0:0:0:0:
329,192,82425,1,0,0:0:0:0:
182,192,82425,1,0,0:0:0:0:
475,192,82425,1,0,0:0:0:0:
109,192,82625,1,0,0:0:0:0:
402,192,82625,1,0,0:0:0:0:
329,192,82825,1,0,0:0:0:0:
36,192,82825,1,0,0:0:0:0:
475,192,82825,1,0,0:0:0:0:
109,192,83025,1,0,0:0:0:0:
402,192,83025,1,0,0:0:0:0:
182,192,83025,1,0,0:0:0:0:
475,192,83225,1,0,0:0:0:0:
36,192,83225,1,0,0:0:0:0:
329,192,83225,1,0,0:0:0:0:
256,192,83425,1,0,0:0:0:0:
402,192,83425,1,0,0:0:0:0:
182,192,83525,1,0,0:0:0:0:
475,192,83525,1,0,0:0:0:0:
109,192,83625,1,0,0:0:0:0:
329,192,83625,1,0,0:0:0:0:
402,192,83625,1,0,0:0:0:0:
256,192,83825,1,0,0:0:0:0:
36,192,83825,1,0,0:0:0:0:
475,192,83825,1,0,0:0:0:0:
182,192,84025,1,0,0:0:0:0:
109,192,84225,1,0,0:0:0:0:
402,192,84225,1,0,0:0:0:0:
36,192,84225,1,0,0:0:0:0:
329,192,84425,1,0,0:0:0:0:
475,192,84425,1,0,0:0:0:0:
182,192,84425,1,0,0:0:0:0:
402,192,84625,1,0,0:0:0:0:
182,192,84625,1,0,0:0:0:0:
109,192,84625,1,0,0:0:0:0:
256,192,84825,1,0,0:0:0:0:
36,192,84825,1,0,0:0:0:0:
329,192,84825,1,0,0:0:0:0:
109,192,85025,1,0,0:0:0:0:
475,192,85025,1,0,0:0:0:0:
182,192,85125,1,0,0:0:0:0:
329,192,85125,1,0,0:0:0:0:
256,192,85225,1,0,0:0:0:0:
402,192,85225,1,0,0:0:0:0:
109,192,85225,1,0,0:0:0:0:
475,192,85425,1,0,0:0:0:0:
329,192,85425,1,0,0:0:0:0:
182,192,85425,1,0,0:0:0:0:
402,192,85625,1,0,0:0:0:0:
36,192,85825,1,0,0:0:0:0:
256,192,85825,1,0,0:0:0:0:
109,192,85875,1,0,0:0:0:0:
329,192,85875,1,0,0:0:0:0:
182,192,85925,1,0,0:0:0:0:
402,192,85925,1,0,0:0:0:0:
256,192,86025,1,0,0:0:0:0:
475,192,86025,1,0,0:0:0:0:
36,192,86025,1,0,0:0:0:0:
329,192,86125,1,0,0:0:0:0:
109,192,86125,1,0,0:0:0:0:
402,192,86225,1,0,0:0:0:0:
182,192,86225,1,0,0:0:0:0:
475,192,86325,1,0,0:0:0:0:
256,192,86325,1,0,0:0:0:0:
329,192,86425,1,0,0:0:0:0:
109,192,86425,1,0,0:0:0:0:
36,192,86425,1,0,0:0:0:0:
182,192,86625,1,0,0:0:0:0:
475,192,86625,1,0,0:0:0:0:
256,192,86725,1,0,0:0:0:0:
475,192,86725,1,0,0:0:0:0:
329,192,86825,1,0,0:0:0:0:
36,192,86825,1,0,0:0:0:0:
182,192,86825,1,0,0:0:0:0:
109,192,87025,1,0,0:0:0:0:
402,192,87025,1,0,0:0:0:0:
256,192,87025,1,0,0:0:0:0:
182,192,87225,1,0,0:0:0:0:
475,192,87225,1,0,0:0:0:0:
329,192,87225,1,0,0:0:0:0:
256,192,87425,1,0,0:0:0:0:
36,192,87425,1,0,0:0:0:0:
402,192,87625,1,0,0:0:0:0:
109,192,87625,1,0,0:0:0:0:
329,192,87625,1,0,0:0:0:0:
182,192,87825,1,0,0:0:0:0:
475,192,87825,1,0,0:0:0:0:
36,192,87825,1,0,0:0:0:0:
256,192,88025,1,0,0:0:0:0:
402,192,88025,1,0,0:0:0:0:
109,192,88025,1,0,0:0:0:0:
36,192,88225,1,0,0:0:0:0:
475,192,88225,1,0,0:0:0:0:
182,192,88325,1,0,0:0:0:0:
329,192,88325,1,0,0:0:0:0:
109,192,88425,1,0,0:0:0:0:
329,192,88425,1,0,0:0:0:0:
402,192,88425,1,0,0:0:0:0:
256,192,88625,1,0,0:0:0:0:
475,192,88625,1,0,0:0:0:0:
109,192,88625,1,0,0:0:0:0:
182,192,88825,1,0,0:0:0:0:
36,192,88825,1,0,0:0:0:0:
329,192,88825,1,0,0:0:0:0:
109,192,89025,1,0,0:0:0:0:
402,192,89025,1,0,0:0:0:0:
329,192,89225,1,0,0:0:0:0:
182,192,89225,1,0,0:0:0:0:
475,192,89225,1,0,0:0:0:0:
256,192,89425,1,0,0:0:0:0:
109,192,89425,1,0,0:0:0:0:
182,192,89625,1,0,0:0:0:0:
36,192,89625,1,0,0:0:0:0:
402,192,89625,1,0,0:0:0:0:
329,192,89825,1,0,0:0:0:0:
109,192,89825,1,0,0:0:0:0:
402,192,89925,1,0,0:0:0:0:
256,192,89925,1,0,0:0:0:0:
475,192,90025,1,0,0:0:0:0:
109,192,90025,1,0,0:0:0:0:
256,192,90025,1,0,0:0:0:0:
36,192,90225,1,0,0:0:0:0:
256,192,90225,1,0,0:0:0:0:
402,192,90225,1,0,0:0:0:0:
329,192,90325,1,0,0:0:0:0:
109,192,90325,1,0,0:0:0:0:
402,192,90425,1,0,0:0:0:0:
182,192,90425,1,0,0:0:0:0:
36,192,90425,1,0,0:0:0:0:
109,192,90625,1,0,0:0:0:0:
256,192,90625,1,0,0:0:0:0:
475,192,90625,1,0,0:0:0:0:
182,192,90825,1,0,0:0:0:0:
36,192,90825,1,0,0:0:0:0:
402,192,90825,1,0,0:0:0:0:
256,192,90925,1,0,0:0:0:0:
475,192,90925,1,0,0:0:0:0:
402,192,91025,1,0,0:0:0:0:
329,192,91025,1,0,0:0:0:0:
109,192,91025,1,0,0:0:0:0:
182,192,91225,1,0,0:0:0:0:
475,192,91225,1,0,0:0:0:0:
36,192,91225,1,0,0:0:0:0:
402,192,91325,1,0,0:0:0:0:
109,192,91325,1,0,0:0:0:0:
329,192,91425,1,0,0:0:0:0:
182,192,91425,1,0,0:0:0:0:
402,192,91525,1,0,0:0:0:0:
109,192,91525,1,0,0:0:0:0:
256,192,91625,1,0,0:0:0:0:
36,192,91625,1,0,0:0:0:0:
475,192,91625,1,0,0:0:0:0:
109,192,91725,1,0,0:0:0:0:
402,192,91725,1,0,0:0:0:0:
182,192,91825,1,0,0:0:0:0:
329,192,91825,1,0,0:0:0:0:
109,192,91925,1,0,0:0:0:0:
256,192,91925,1,0,0:0:0:0:
475,192,92025,1,0,0:0:0:0:
182,192,92025,1,0,0:0:0:0:
36,192,92025,1,0,0:0:0:0:
402,192,92125,1,0,0:0:0:0:
256,192,92125,1,0,0:0:0:0:
36,192,92225,1,0,0:0:0:0:
329,192,92225,1,0,0:0:0:0:
109,192,92275,1,0,0:0:0:0:
182,192,92325,1,0,0:0:0:0:
402,192,92325,1,0,0:0:0:0:
256,192,92425,1,0,0:0:0:0:
475,192,92425,1,0,0:0:0:0:
402,192,92525,1,0,0:0:0:0:
182,192,92525,1,0,0:0:0:0:
329,192,92625,1,0,0:0:0:0:
36,192,92625,1,0,0:0:0:0:
109,192,92625,1,0,0:0:0:0:
109,192,92825,1,0,0:0:0:0:
256,192,92825,1,0,0:0:0:0:
475,192,92825,1,0,0:0:0:0:
402,192,93091,1,0,0:0:0:0:
182,192,93091,1,0,0:0:0:0:
36,192,93091,1,0,0:0:0:0:
256,192,93358,1,0,0:0:0:0:
109,192,93358,1,0,0:0:0:0:
475,192,93358,1,0,0:0:0:0:
182,192,93625,1,0,0:0:0:0:
402,192,93625,1,0,0:0:0:0:
36,192,93625,1,0,0:0:0:0:
329,192,93891,1,0,0:0:0:0:
109,192,93891,1,0,0:0:0:0:
475,192,93891,1,0,0:0:0:0:
256,192,94158,1,0,0:0:0:0:
36,192,94158,1,0,0:0:0:0:
402,192,94158,1,0,0:0:0:0:
109,192,94425,1,0,0:0:0:0:
402,192,94425,1,0,0:0:0:0:
256,192,94425,1,0,0:0:0:0:
182,192,94625,1,0,0:0:0:0:
329,192,94625,1,0,0:0:0:0:
475,192,94625,1,0,0:0:0:0:
256,192,94825,1,0,0:0:0:0:
36,192,94825,1,0,0:0:0:0:
109,192,94825,1,0,0:0:0:0:
109,192,95025,1,0,0:0:0:0:
402,192,95025,1,0,0:0:0:0:
475,192,95025,1,0,0:0:0:0:
182,192,95225,1,0,0:0:0:0:
329,192,95225,1,0,0:0:0:0:
402,192,95225,1,0,0:0:0:0:
256,192,95425,1,0,0:0:0:0:
475,192,95425,1,0,0:0:0:0:
36,192,95425,1,0,0:0:0:0:
402,192,95625,1,0,0:0:0:0:
109,192,95625,1,0,0:0:0:0:
256,192,95625,1,0,0:0:0:0:
329,192,95825,1,0,0:0:0:0:
182,192,95825,1,0,0:0:0:0:
256,192,96025,1,0,0:0:0:0:
36,192,96025,1,0,0:0:0:0:
402,192,96025,1,0,0:0:0:0:
109,192,96291,1,0,0:0:0:0:
475,192,96291,1,0,0:0:0:0:
329,192,96291,1,0,0:0:0:0:
36,192,96558,1,0,0:0:0:0:
256,192,96558,1,0,0:0:0:0:
182,192,96558,1,0,0:0:0:0:
109,192,96825,1,0,0:0:0:0:
402,192,96825,1,0,0:0:0:0:
475,192,96825,1,0,0:0:0:0:
182,192,97091,1,0,0:0:0:0:
329,192,97091,1,0,0:0:0:0:
256,192,97091,1,0,0:0:0:0:
256,192,97358,1,0,0:0:0:0:
475,192,97358,1,0,0:0:0:0:
109,192,97358,1,0,0:0:0:0:
402,192,97625,1,0,0:0:0:0:
109,192,97625,1,0,0:0:0:0:
182,192,97625,1,0,0:0:0:0:
329,192,97825,1,0,0:0:0:0:
36,192,97825,1,0,0:0:0:0:
475,192,97825,1,0,0:0:0:0:
182,192,98025,1,0,0:0:0:0:
475,192,98025,1,0,0:0:0:0:
36,192,98025,1,0,0:0:0:0:
402,192,98225,1,0,0:0:0:0:
109,192,98225,1,0,0:0:0:0:
329,192,98225,1,0,0:0:0:0:
256,192,98425,1,0,0:0:0:0:
36,192,98425,1,0,0:0:0:0:
475,192,98425,1,0,0:0:0:0:
329,192,98525,1,0,0:0:0:0:
182,192,98625,1,0,0:0:0:0:
402,192,98625,1,0,0:0:0:0:
109,192,98625,1,0,0:0:0:0:
109,192,98825,1,0,0:0:0:0:
256,192,98825,1,0,0:0:0:0:
329,192,98825,1,0,0:0:0:0:
475,192,99025,1,0,0:0:0:0:
182,192,99025,1,0,0:0:0:0:
402,192,99025,1,0,0:0:0:0:
36,192,99225,1,0,0:0:0:0:
329,192,99225,1,0,0:0:0:0:
256,192,99225,1,0,0:0:0:0:
182,192,99425,1,0,0:0:0:0:
329,192,99425,1,0,0:0:0:0:
256,192,99525,1,0,0:0:0:0:
402,192,99525,1,0,0:0:0:0:
329,192,99625,1,0,0:0:0:0:
475,192,99625,1,0,0:0:0:0:
402,192,99725,1,0,0:0:0:0:
256,192,99725,1,0,0:0:0:0:
329,192,99825,1,0,0:0:0:0:
109,192,99825,1,0,0:0:0:0:
182,192,99925,1,0,0:0:0:0:
402,192,99925,1,0,0:0:0:0:
109,192,100025,1,0,0:0:0:0:
475,192,100025,1,0,0:0:0:0:
36,192,100125,1,0,0:0:0:0:
402,192,100125,1,0,0:0:0:0:
329,192,100225,1,0,0:0:0:0:
182,192,100225,1,0,0:0:0:0:
109,192,100325,1,0,0:0:0:0:
256,192,100325,1,0,0:0:0:0:
402,192,100425,1,0,0:0:0:0:
182,192,100425,1,0,0:0:0:0:
36,192,100525,1,0,0:0:0:0:
329,192,100525,1,0,0:0:0:0:
109,192,100625,1,0,0:0:0:0:
256,192,100625,1,0,0:0:0:0:
182,192,100725,1,0,0:0:0:0:
329,192,100725,1,0,0:0:0:0:
256,192,100825,1,0,0:0:0:0:
475,192,100825,1,0,0:0:0:0:
109,192,100825,1,0,0:0:0:0:
402,192,100925,1,0,0:0:0:0:
182,192,100925,1,0,0:0:0:0:
475,192,101025,1,0,0:0:0:0:
36,192,101025,1,0,0:0:0:0:
329,192,101125,1,0,0:0:0:0:
109,192,101125,1,0,0:0:0:0:
256,192,101225,1,0,0:0:0:0:
36,192,101225,1,0,0:0:0:0:
402,192,101225,1,0,0:0:0:0:
182,192,101358,1,0,0:0:0:0:
329,192,101358,1,0,0:0:0:0:
109,192,101491,1,0,0:0:0:0:
256,192,101491,1,0,0:0:0:0:
36,192,101625,1,0,0:0:0:0:
182,192,101625,1,0,0:0:0:0:
109,192,101725,1,0,0:0:0:0:
256,192,101725,1,0,0:0:0:0:
182,192,101825,1,0,0:0:0:0:
329,192,101825,1,0,0:0:0:0:
109,192,101925,1,0,0:0:0:0:
402,192,101925,1,0,0:0:0:0:
256,192,102025,1,0,0:0:0:0:
475,192,102025,1,0,0:0:0:0:
329,192,102125,1,0,0:0:0:0:
182,192,102125,1,0,0:0:0:0:
402,192,102225,1,0,0:0:0:0:
256,192,102225,1,0,0:0:0:0:
475,192,102325,1,0,0:0:0:0:
182,192,102325,1,0,0:0:0:0:
329,192,102425,1,0,0:0:0:0:
36,192,102425,1,0,0:0:0:0:
109,192,102425,1,0,0:0:0:0:
109,192,102625,1,0,0:0:0:0:
256,192,102625,1,0,0:0:0:0:
329,192,102725,1,0,0:0:0:0:
475,192,102725,1,0,0:0:0:0:
182,192,102825,1,0,0:0:0:0:
402,192,102825,1,0,0:0:0:0:
36,192,102825,1,0,0:0:0:0:
256,192,102925,1,0,0:0:0:0:
475,192,102925,1,0,0:0:0:0:
182,192,103025,1,0,0:0:0:0:
402,192,103025,1,0,0:0:0:0:
109,192,103125,1,0,0:0:0:0:
256,192,103125,1,0,0:0:0:0:
329,192,103225,1,0,0:0:0:0:
256,192,103325,1,0,0:0:0:0:
475,192,103325,1,0,0:0:0:0:
182,192,103425,1,0,0:0:0:0:
329,192,103425,1,0,0:0:0:0:
402,192,103525,1,0,0:0:0:0:
109,192,103525,1,0,0:0:0:0:
329,192,103625,1,0,0:0:0:0:
36,192,103625,1,0,0:0:0:0:
256,192,103625,1,0,0:0:0:0:
109,192,103725,1,0,0:0:0:0:
402,192,103725,1,0,0:0:0:0:
182,192,103825,1,0,0:0:0:0:
475,192,103825,1,0,0:0:0:0:
256,192,103925,1,0,0:0:0:0:
402,192,103925,1,0,0:0:0:0:
329,192,104025,1,0,0:0:0:0:
109,192,104025,1,0,0:0:0:0:
36,192,104025,1,0,0:0:0:0:
182,192,104125,1,0,0:0:0:0:
402,192,104125,1,0,0:0:0:0:
36,192,104225,1,0,0:0:0:0:
475,192,104225,1,0,0:0:0:0:
182,192,104325,1,0,0:0:0:0:
329,192,104325,1,0,0:0:0:0:
256,192,104425,1,0,0:0:0:0:
109,192,104425,1,0,0:0:0:0:
182,192,104525,1,0,0:0:0:0:
402,192,104525,1,0,0:0:0:0:
329,192,104625,1,0,0:0:0:0:
109,192,104625,1,0,0:0:0:0:
402,192,104725,1,0,0:0:0:0:
256,192,104725,1,0,0:0:0:0:
475,192,104825,1,0,0:0:0:0:
36,192,104825,1,0,0:0:0:0:
182,192,104825,1,0,0:0:0:0:
109,192,104958,1,0,0:0:0:0:
402,192,104958,1,0,0:0:0:0:
256,192,104958,1,0,0:0:0:0:
475,192,105091,1,0,0:0:0:0:
36,192,105091,1,0,0:0:0:0:
182,192,105091,1,0,0:0:0:0:
182,192,105225,1,0,0:0:0:0:
329,192,105225,1,0,0:0:0:0:
109,192,105225,1,0,0:0:0:0:
402,192,105358,1,0,0:0:0:0:
256,192,105358,1,0,0:0:0:0:
475,192,105358,1,0,0:0:0:0:
329,192,105491,1,0,0:0:0:0:
182,192,105491,1,0,0:0:0:0:
109,192,105491,1,0,0:0:0:0:
36,192,105625,1,0,0:0:0:0:
402,192,105625,1,0,0:0:0:0:
475,192,105625,1,0,0:0:0:0:
256,192,105625,1,0,0:0:0:0:
109,192,105825,1,0,0:0:0:0:
475,192,105825,1,0,0:0:0:0:
329,192,105825,1,0,0:0:0:0:
182,192,106025,1,0,0:0:0:0:
402,192,106025,1,0,0:0:0:0:
475,192,106025,1,0,0:0:0:0:
475,192,106225,1,0,0:0:0:0:
329,192,106225,1,0,0:0:0:0:
109,192,106325,1,0,0:0:0:0:
402,192,106325,1,0,0:0:0:0:
256,192,106425,1,0,0:0:0:0:
36,192,106425,1,0,0:0:0:0:
475,192,106425,1,0,0:0:0:0:
182,192,106625,1,0,0:0:0:0:
402,192,106625,1,0,0:0:0:0:
475,192,106625,1,0,0:0:0:0:
329,192,106825,1,0,0:0:0:0:
109,192,106825,1,0,0:0:0:0:
475,192,106825,1,0,0:0:0:0:
475,192,107025,1,0,0:0:0:0:
256,192,107025,1,0,0:0:0:0:
36,192,107025,1,0,0:0:0:0:
329,192,107225,1,0,0:0:0:0:
36,192,107225,1,0,0:0:0:0:
475,192,107225,1,0,0:0:0:0:
402,192,107425,1,0,0:0:0:0:
109,192,107425,1,0,0:0:0:0:
475,192,107425,1,0,0:0:0:0:
182,192,107625,1,0,0:0:0:0:
329,192,107625,1,0,0:0:0:0:
475,192,107625,1,0,0:0:0:0:
475,192,107825,1,0,0:0:0:0:
109,192,107825,1,0,0:0:0:0:
256,192,107925,1,0,0:0:0:0:
36,192,107925,1,0,0:0:0:0:
402,192,108025,1,0,0:0:0:0:
109,192,108025,1,0,0:0:0:0:
475,192,108025,1,0,0:0:0:0:
329,192,108225,1,0,0:0:0:0:
36,192,108225,1,0,0:0:0:0:
475,192,108225,1,0,0:0:0:0:
109,192,108425,1,0,0:0:0:0:
402,192,108425,1,0,0:0:0:0:
475,192,108425,1,0,0:0:0:0:
182,192,108625,1,0,0:0:0:0:
329,192,108625,1,0,0:0:0:0:
475,192,108625,1,0,0:0:0:0:
256,192,108825,1,0,0:0:0:0:
36,192,108825,1,0,0:0:0:0:
475,192,108825,1,0,0:0:0:0:
109,192,109025,1,0,0:0:0:0:
402,192,109025,1,0,0:0:0:0:
36,192,109025,1,0,0:0:0:0:
182,192,109225,1,0,0:0:0:0:
36,192,109225,1,0,0:0:0:0:
329,192,109225,1,0,0:0:0:0:
256,192,109425,1,0,0:0:0:0:
36,192,109425,1,0,0:0:0:0:
109,192,109425,1,0,0:0:0:0:
329,192,109525,1,0,0:0:0:0:
182,192,109525,1,0,0:0:0:0:
402,192,109625,1,0,0:0:0:0:
475,192,109625,1,0,0:0:0:0:
36,192,109625,1,0,0:0:0:0:
329,192,109825,1,0,0:0:0:0:
109,192,109825,1,0,0:0:0:0:
36,192,109825,1,0,0:0:0:0:
182,192,110025,1,0,0:0:0:0:
256,192,110025,1,0,0:0:0:0:
36,192,110025,1,0,0:0:0:0:
36,192,110225,1,0,0:0:0:0:
402,192,110225,1,0,0:0:0:0:
475,192,110225,1,0,0:0:0:0:
182,192,110425,1,0,0:0:0:0:
329,192,110425,1,0,0:0:0:0:
36,192,110425,1,0,0:0:0:0:
109,192,110625,1,0,0:0:0:0:
36,192,110625,1,0,0:0:0:0:
256,192,110625,1,0,0:0:0:0:
182,192,110725,1,0,0:0:0:0:
475,192,110725,1,0,0:0:0:0:
36,192,110825,1,0,0:0:0:0:
256,192,110825,1,0,0:0:0:0:
402,192,110825,1,0,0:0:0:0:
329,192,111025,1,0,0:0:0:0:
36,192,111025,1,0,0:0:0:0:
475,192,111025,1,0,0:0:0:0:
256,192,111125,1,0,0:0:0:0:
402,192,111125,1,0,0:0:0:0:
182,192,111225,1,0,0:0:0:0:
36,192,111225,1,0,0:0:0:0:
329,192,111225,1,0,0:0:0:0:
109,192,111325,1,0,0:0:0:0:
256,192,111325,1,0,0:0:0:0:
329,192,111425,1,0,0:0:0:0:
36,192,111425,1,0,0:0:0:0:
182,192,111425,1,0,0:0:0:0:
256,192,111525,1,0,0:0:0:0:
402,192,111525,1,0,0:0:0:0:
182,192,111625,1,0,0:0:0:0:
475,192,111625,1,0,0:0:0:0:
36,192,111625,1,0,0:0:0:0:
402,192,111725,1,0,0:0:0:0:
256,192,111725,1,0,0:0:0:0:
329,192,111825,1,0,0:0:0:0:
36,192,111825,1,0,0:0:0:0:
109,192,111825,1,0,0:0:0:0:
402,192,111925,1,0,0:0:0:0:
182,192,111925,1,0,0:0:0:0:
475,192,112025,1,0,0:0:0:0:
36,192,112025,1,0,0:0:0:0:
256,192,112025,1,0,0:0:0:0:
182,192,112225,1,0,0:0:0:0:
36,192,112225,1,0,0:0:0:0:
475,192,112225,1,0,0:0:0:0:
256,192,112325,1,0,0:0:0:0:
402,192,112325,1,0,0:0:0:0:
329,192,112425,1,0,0:0:0:0:
109,192,112425,1,0,0:0:0:0:
475,192,112425,1,0,0:0:0:0:
182,192,112625,1,0,0:0:0:0:
402,192,112625,1,0,0:0:0:0:
475,192,112625,1,0,0:0:0:0:
329,192,112725,1,0,0:0:0:0:
109,192,112725,1,0,0:0:0:0:
256,192,112825,1,0,0:0:0:0:
475,192,112825,1,0,0:0:0:0:
36,192,112825,1,0,0:0:0:0:
402,192,113025,1,0,0:0:0:0:
109,192,113025,1,0,0:0:0:0:
475,192,113025,1,0,0:0:0:0:
182,192,113225,1,0,0:0:0:0:
36,192,113225,1,0,0:0:0:0:
475,192,113225,1,0,0:0:0:0:
329,192,113425,1,0,0:0:0:0:
256,192,113425,1,0,0:0:0:0:
475,192,113425,1,0,0:0:0:0:
402,192,113625,1,0,0:0:0:0:
109,192,113625,1,0,0:0:0:0:
475,192,113625,1,0,0:0:0:0:
182,192,113625,1,0,0:0:0:0:
256,192,113825,1,0,0:0:0:0:
36,192,113825,1,0,0:0:0:0:
182,192,113825,1,0,0:0:0:0:
109,192,114025,1,0,0:0:0:0:
329,192,114025,1,0,0:0:0:0:
182,192,114025,1,0,0:0:0:0:
182,192,114225,1,0,0:0:0:0:
475,192,114225,1,0,0:0:0:0:
36,192,114225,1,0,0:0:0:0:
256,192,114325,1,0,0:0:0:0:
329,192,114325,1,0,0:0:0:0:
402,192,114425,1,0,0:0:0:0:
36,192,114425,1,0,0:0:0:0:
182,192,114425,1,0,0:0:0:0:
329,192,114625,1,0,0:0:0:0:
109,192,114625,1,0,0:0:0:0:
182,192,114625,1,0,0:0:0:0:
182,192,114825,1,0,0:0:0:0:
402,192,114825,1,0,0:0:0:0:
475,192,114825,1,0,0:0:0:0:
256,192,115025,1,0,0:0:0:0:
36,192,115025,1,0,0:0:0:0:
182,192,115025,1,0,0:0:0:0:
109,192,115225,1,0,0:0:0:0:
329,192,115225,1,0,0:0:0:0:
182,192,115225,1,0,0:0:0:0:
402,192,115225,1,0,0:0:0:0:
182,192,115425,1,0,0:0:0:0:
402,192,115425,1,0,0:0:0:0:
475,192,115425,1,0,0:0:0:0:
329,192,115625,1,0,0:0:0:0:
109,192,115625,1,0,0:0:0:0:
402,192,115625,1,0,0:0:0:0:
256,192,115825,1,0,0:0:0:0:
36,192,115825,1,0,0:0:0:0:
402,192,115825,1,0,0:0:0:0:
182,192,115925,1,0,0:0:0:0:
329,192,115925,1,0,0:0:0:0:
109,192,116025,1,0,0:0:0:0:
402,192,116025,1,0,0:0:0:0:
256,192,116025,1,0,0:0:0:0:
256,192,116225,1,0,0:0:0:0:
402,192,116225,1,0,0:0:0:0:
36,192,116225,1,0,0:0:0:0:
329,192,116425,1,0,0:0:0:0:
475,192,116425,1,0,0:0:0:0:
402,192,116425,1,0,0:0:0:0:
402,192,116625,1,0,0:0:0:0:
182,192,116625,1,0,0:0:0:0:
109,192,116625,1,0,0:0:0:0:
256,192,116825,1,0,0:0:0:0:
475,192,116825,1,0,0:0:0:0:
402,192,116825,1,0,0:0:0:0:
36,192,116825,1,0,0:0:0:0:
329,192,116925,1,0,0:0:0:0:
182,192,116925,1,0,0:0:0:0:
402,192,117025,1,0,0:0:0:0:
36,192,117025,1,0,0:0:0:0:
256,192,117025,1,0,0:0:0:0:
109,192,117125,1,0,0:0:0:0:
329,192,117125,1,0,0:0:0:0:
256,192,117225,1,0,0:0:0:0:
36,192,117225,1,0,0:0:0:0:
475,192,117225,1,0,0:0:0:0:
182,192,117325,1,0,0:0:0:0:
402,192,117325,1,0,0:0:0:0:
36,192,117425,1,0,0:0:0:0:
256,192,117425,1,0,0:0:0:0:
109,192,117425,1,0,0:0:0:0:
329,192,117525,1,0,0:0:0:0:
475,192,117525,1,0,0:0:0:0:
256,192,117625,1,0,0:0:0:0:
36,192,117625,1,0,0:0:0:0:
402,192,117625,1,0,0:0:0:0:
329,192,117725,1,0,0:0:0:0:
182,192,117725,1,0,0:0:0:0:
402,192,117825,1,0,0:0:0:0:
36,192,117825,1,0,0:0:0:0:
109,192,117825,1,0,0:0:0:0:
475,192,117925,1,0,0:0:0:0:
182,192,117925,1,0,0:0:0:0:
256,192,118025,1,0,0:0:0:0:
36,192,118025,1,0,0:0:0:0:
402,192,118025,1,0,0:0:0:0:
329,192,118125,1,0,0:0:0:0:
109,192,118125,1,0,0:0:0:0:
182,192,118225,1,0,0:0:0:0:
36,192,118225,1,0,0:0:0:0:
475,192,118225,1,0,0:0:0:0:
402,192,118325,1,0,0:0:0:0:
256,192,118325,1,0,0:0:0:0:
475,192,118425,1,0,0:0:0:0:
109,192,118425,1,0,0:0:0:0:
36,192,118425,1,0,0:0:0:0:
329,192,118425,1,0,0:0:0:0:
475,192,118625,1,0,0:0:0:0:
256,192,118625,1,0,0:0:0:0:
402,192,118625,1,0,0:0:0:0:
109,192,118825,1,0,0:0:0:0:
182,192,118825,1,0,0:0:0:0:
329,192,118825,1,0,0:0:0:0:
36,192,119025,1,0,0:0:0:0:
182,192,119025,1,0,0:0:0:0:
475,192,119025,1,0,0:0:0:0:
109,192,119125,1,0,0:0:0:0:
256,192,119125,1,0,0:0:0:0:
182,192,119225,1,0,0:0:0:0:
329,192,119225,1,0,0:0:0:0:
402,192,119225,1,0,0:0:0:0:
256,192,119425,1,0,0:0:0:0:
475,192,119425,1,0,0:0:0:0:
182,192,119425,1,0,0:0:0:0:
402,192,119625,1,0,0:0:0:0:
109,192,119625,1,0,0:0:0:0:
182,192,119625,1,0,0:0:0:0:
475,192,119825,1,0,0:0:0:0:
182,192,119825,1,0,0:0:0:0:
36,192,119825,1,0,0:0:0:0:
329,192,120025,1,0,0:0:0:0:
36,192,120025,1,0,0:0:0:0:
182,192,120025,1,0,0:0:0:0:
109,192,120225,1,0,0:0:0:0:
402,192,120225,1,0,0:0:0:0:
182,192,120225,1,0,0:0:0:0:
182,192,120425,1,0,0:0:0:0:
475,192,120425,1,0,0:0:0:0:
329,192,120425,1,0,0:0:0:0:
402,192,120625,1,0,0:0:0:0:
256,192,120625,1,0,0:0:0:0:
182,192,120625,1,0,0:0:0:0:
329,192,120725,1,0,0:0:0:0:
36,192,120725,1,0,0:0:0:0:
402,192,120825,1,0,0:0:0:0:
109,192,120825,1,0,0:0:0:0:
182,192,120825,1,0,0:0:0:0:
182,192,121025,1,0,0:0:0:0:
36,192,121025,1,0,0:0:0:0:
475,192,121025,1,0,0:0:0:0:
109,192,121225,1,0,0:0:0:0:
329,192,121225,1,0,0:0:0:0:
182,192,121225,1,0,0:0:0:0:
256,192,121425,1,0,0:0:0:0:
475,192,121425,1,0,0:0:0:0:
182,192,121425,1,0,0:0:0:0:
402,192,121625,1,0,0:0:0:0:
182,192,121625,1,0,0:0:0:0:
109,192,121625,1,0,0:0:0:0:
329,192,121825,1,0,0:0:0:0:
109,192,121825,1,0,0:0:0:0:
475,192,121825,1,0,0:0:0:0:
36,192,122025,1,0,0:0:0:0:
109,192,122025,1,0,0:0:0:0:
182,192,122025,1,0,0:0:0:0:
109,192,122225,1,0,0:0:0:0:
402,192,122225,1,0,0:0:0:0:
256,192,122225,1,0,0:0:0:0:
182,192,122325,1,0,0:0:0:0:
329,192,122325,1,0,0:0:0:0:
256,192,122425,1,0,0:0:0:0:
109,192,122425,1,0,0:0:0:0:
475,192,122425,1,0,0:0:0:0:
329,192,122625,1,0,0:0:0:0:
182,192,122625,1,0,0:0:0:0:
109,192,122625,1,0,0:0:0:0:
256,192,122825,1,0,0:0:0:0:
36,192,122825,1,0,0:0:0:0:
109,192,122825,1,0,0:0:0:0:
109,192,123025,1,0,0:0:0:0:
402,192,123025,1,0,0:0:0:0:
329,192,123025,1,0,0:0:0:0:
182,192,123225,1,0,0:0:0:0:
329,192,123225,1,0,0:0:0:0:
109,192,123225,1,0,0:0:0:0:
475,192,123225,1,0,0:0:0:0:
256,192,123425,1,0,0:0:0:0:
475,192,123425,1,0,0:0:0:0:
36,192,123425,1,0,0:0:0:0:
402,192,123525,1,0,0:0:0:0:
109,192,123525,1,0,0:0:0:0:
329,192,123625,1,0,0:0:0:0:
182,192,123625,1,0,0:0:0:0:
475,192,123625,1,0,0:0:0:0:
256,192,123825,1,0,0:0:0:0:
36,192,123825,1,0,0:0:0:0:
475,192,123825,1,0,0:0:0:0:
109,192,123925,1,0,0:0:0:0:
329,192,123925,1,0,0:0:0:0:
182,192,124025,1,0,0:0:0:0:
36,192,124025,1,0,0:0:0:0:
475,192,124025,1,0,0:0:0:0:
256,192,124125,1,0,0:0:0:0:
402,192,124125,1,0,0:0:0:0:
182,192,124225,1,0,0:0:0:0:
475,192,124225,1,0,0:0:0:0:
329,192,124225,1,0,0:0:0:0:
109,192,124325,1,0,0:0:0:0:
256,192,124325,1,0,0:0:0:0:
329,192,124425,1,0,0:0:0:0:
475,192,124425,1,0,0:0:0:0:
182,192,124425,1,0,0:0:0:0:
36,192,124525,1,0,0:0:0:0:
256,192,124525,1,0,0:0:0:0:
402,192,124625,1,0,0:0:0:0:
475,192,124625,1,0,0:0:0:0:
109,192,124625,1,0,0:0:0:0:
256,192,124725,1,0,0:0:0:0:
36,192,124725,1,0,0:0:0:0:
329,192,124825,1,0,0:0:0:0:
182,192,124825,1,0,0:0:0:0:
475,192,124825,1,0,0:0:0:0:
109,192,124925,1,0,0:0:0:0:
402,192,124925,1,0,0:0:0:0:
36,192,125025,1,0,0:0:0:0:
256,192,125025,1,0,0:0:0:0:
475,192,125025,1,0,0:0:0:0:
182,192,125125,1,0,0:0:0:0:
402,192,125125,1,0,0:0:0:0:
109,192,125225,1,0,0:0:0:0:
329,192,125225,1,0,0:0:0:0:
475,192,125225,1,0,0:0:0:0:
256,192,125325,1,0,0:0:0:0:
36,192,125325,1,0,0:0:0:0:
402,192,125425,1,0,0:0:0:0:
182,192,125425,1,0,0:0:0:0:
329,192,125425,1,0,0:0:0:0:
109,192,125525,1,0,0:0:0:0:
256,192,125525,1,0,0:0:0:0:
36,192,125625,1,0,0:0:0:0:
475,192,125625,1,0,0:0:0:0:
182,192,125625,1,0,0:0:0:0:
109,192,125725,1,0,0:0:0:0:
329,192,125725,1,0,0:0:0:0:
402,192,125825,1,0,0:0:0:0:
256,192,125825,1,0,0:0:0:0:
36,192,125825,1,0,0:0:0:0:
329,192,125925,1,0,0:0:0:0:
109,192,125925,1,0,0:0:0:0:
182,192,126025,1,0,0:0:0:0:
475,192,126025,1,0,0:0:0:0:
402,192,126025,1,0,0:0:0:0:
256,192,126125,1,0,0:0:0:0:
36,192,126125,1,0,0:0:0:0:
109,192,126225,1,0,0:0:0:0:
329,192,126225,1,0,0:0:0:0:
475,192,126225,1,0,0:0:0:0:
182,192,126325,1,0,0:0:0:0:
402,192,126325,1,0,0:0:0:0:
256,192,126425,1,0,0:0:0:0:
109,192,126425,1,0,0:0:0:0:
475,192,126425,1,0,0:0:0:0:
329,192,126525,1,0,0:0:0:0:
36,192,126525,1,0,0:0:0:0:
182,192,126625,1,0,0:0:0:0:
402,192,126625,1,0,0:0:0:0:
256,192,126625,1,0,0:0:0:0:
36,192,126725,1,0,0:0:0:0:
329,192,126725,1,0,0:0:0:0:
182,192,126825,1,0,0:0:0:0:
402,192,126825,1,0,0:0:0:0:
109,192,126825,1,0,0:0:0:0:
256,192,126925,1,0,0:0:0:0:
475,192,126925,1,0,0:0:0:0:
182,192,127025,1,0,0:0:0:0:
36,192,127025,1,0,0:0:0:0:
402,192,127025,1,0,0:0:0:0:
329,192,127125,1,0,0:0:0:0:
109,192,127125,1,0,0:0:0:0:
402,192,127225,1,0,0:0:0:0:
36,192,127225,1,0,0:0:0:0:
182,192,127225,1,0,0:0:0:0:
256,192,127325,1,0,0:0:0:0:
475,192,127325,1,0,0:0:0:0:
109,192,127425,1,0,0:0:0:0:
329,192,127425,1,0,0:0:0:0:
36,192,127425,1,0,0:0:0:0:
182,192,127525,1,0,0:0:0:0:
475,192,127525,1,0,0:0:0:0:
402,192,127625,1,0,0:0:0:0:
36,192,127625,1,0,0:0:0:0:
256,192,127625,1,0,0:0:0:0:
329,192,127725,1,0,0:0:0:0:
182,192,127725,1,0,0:0:0:0:
109,192,127825,1,0,0:0:0:0:
475,192,127825,1,0,0:0:0:0:
402,192,127825,1,0,0:0:0:0:
329,192,127925,1,0,0:0:0:0:
182,192,127925,1,0,0:0:0:0:
36,192,128025,1,0,0:0:0:0:
256,192,128025,1,0,0:0:0:0:
109,192,128025,1,0,0:0:0:0:
402,192,128125,1,0,0:0:0:0:
182,192,128125,1,0,0:0:0:0:
475,192,128225,1,0,0:0:0:0:
329,192,128225,1,0,0:0:0:0:
36,192,128225,1,0,0:0:0:0:
109,192,128325,1,0,0:0:0:0:
256,192,128325,1,0,0:0:0:0:
402,192,128425,1,0,0:0:0:0:
182,192,128425,1,0,0:0:0:0:
36,192,128425,1,0,0:0:0:0:
329,192,128525,1,0,0:0:0:0:
109,192,128525,1,0,0:0:0:0:
182,192,128625,1,0,0:0:0:0:
402,192,128625,1,0,0:0:0:0:
475,192,128625,1,0,0:0:0:0:
36,192,128725,1,0,0:0:0:0:
329,192,128725,1,0,0:0:0:0:
475,192,128825,1,0,0:0:0:0:
256,192,128825,1,0,0:0:0:0:
109,192,128825,1,0,0:0:0:0:
36,192,128925,1,0,0:0:0:0:
329,192,128925,1,0,0:0:0:0:
402,192,129025,1,0,0:0:0:0:
182,192,129025,1,0,0:0:0:0:
475,192,129025,1,0,0:0:0:0:
256,192,129125,1,0,0:0:0:0:
109,192,129125,1,0,0:0:0:0:
329,192,129225,1,0,0:0:0:0:
36,192,129225,1,0,0:0:0:0:
402,192,129225,1,0,0:0:0:0:
256,192,129325,1,0,0:0:0:0:
109,192,129325,1,0,0:0:0:0:
475,192,129425,1,0,0:0:0:0:
182,192,129425,1,0,0:0:0:0:
329,192,129425,1,0,0:0:0:0:
36,192,129525,1,0,0:0:0:0:
402,192,129625,1,0,0:0:0:0:
182,192,129625,1,0,0:0:0:0:
475,192,129625,1,0,0:0:0:0:
109,192,129725,1,0,0:0:0:0:
256,192,129725,1,0,0:0:0:0:
36,192,129825,1,0,0:0:0:0:
329,192,129825,1,0,0:0:0:0:
182,192,129825,1,0,0:0:0:0:
256,192,129925,1,0,0:0:0:0:
475,192,129925,1,0,0:0:0:0:
182,192,130025,1,0,0:0:0:0:
402,192,130025,1,0,0:0:0:0:
36,192,130025,1,0,0:0:0:0:
329,192,130125,1,0,0:0:0:0:
109,192,130125,1,0,0:0:0:0:
402,192,130225,1,0,0:0:0:0:
182,192,130225,1,0,0:0:0:0:
256,192,130225,1,0,0:0:0:0:
475,192,130325,1,0,0:0:0:0:
329,192,130325,1,0,0:0:0:0:
36,192,130425,1,0,0:0:0:0:
402,192,130425,1,0,0:0:0:0:
256,192,130425,1,0,0:0:0:0:
109,192,130475,1,0,0:0:0:0:
182,192,130525,1,0,0:0:0:0:
329,192,130525,1,0,0:0:0:0:
256,192,130575,1,0,0:0:0:0:
36,192,130625,1,0,0:0:0:0:
475,192,130625,1,0,0:0:0:0:
109,192,130675,1,0,0:0:0:0:
182,192,130725,1,0,0:0:0:0:
402,192,130725,1,0,0:0:0:0:
256,192,130775,1,0,0:0:0:0:
36,192,130825,1,0,0:0:0:0:
329,192,130825,1,0,0:0:0:0:
109,192,130875,1,0,0:0:0:0:
182,192,130925,1,0,0:0:0:0:
402,192,130925,1,0,0:0:0:0:
256,192,130975,1,0,0:0:0:0:
36,192,131025,1,0,0:0:0:0:
475,192,131025,1,0,0:0:0:0:
109,192,131075,1,0,0:0:0:0:
182,192,131125,1,0,0:0:0:0:
402,192,131125,1,0,0:0:0:0:
256,192,131175,1,0,0:0:0:0:
329,192,131225,1,0,0:0:0:0:
36,192,131225,1,0,0:0:0:0:
109,192,131225,1,0,0:0:0:0:
475,192,131225,1,0,0:0:0:0:
109,192,131425,1,0,0:0:0:0:
402,192,131425,1,0,0:0:0:0:
182,192,131625,1,0,0:0:0:0:
329,192,131625,1,0,0:0:0:0:
36,192,131625,1,0,0:0:0:0:
475,192,131625,1,0,0:0:0:0:
109,192,131725,1,0,0:0:0:0:
475,192,131825,1,0,0:0:0:0:
256,192,131825,1,0,0:0:0:0:
402,192,131925,1,0,0:0:0:0:
182,192,131925,1,0,0:0:0:0:
329,192,132025,1,0,0:0:0:0:
109,192,132025,1,0,0:0:0:0:
256,192,132025,1,0,0:0:0:0:
182,192,132225,1,0,0:0:0:0:
36,192,132225,1,0,0:0:0:0:
402,192,132225,1,0,0:0:0:0:
109,192,132425,1,0,0:0:0:0:
329,192,132425,1,0,0:0:0:0:
475,192,132425,1,0,0:0:0:0:
36,192,132425,1,0,0:0:0:0:
182,192,132525,1,0,0:0:0:0:
256,192,132625,1,0,0:0:0:0:
402,192,132625,1,0,0:0:0:0:
402,192,132825,1,0,0:0:0:0:
182,192,132825,1,0,0:0:0:0:
36,192,132825,1,0,0:0:0:0:
329,192,133025,1,0,0:0:0:0:
109,192,133025,1,0,0:0:0:0:
475,192,133025,1,0,0:0:0:0:
256,192,133225,1,0,0:0:0:0:
36,192,133225,1,0,0:0:0:0:
475,192,133225,1,0,0:0:0:0:
402,192,133225,1,0,0:0:0:0:
182,192,133325,1,0,0:0:0:0:
109,192,133425,1,0,0:0:0:0:
256,192,133425,1,0,0:0:0:0:
182,192,133525,1,0,0:0:0:0:
36,192,133525,1,0,0:0:0:0:
329,192,133625,1,0,0:0:0:0:
402,192,133625,1,0,0:0:0:0:
109,192,133625,1,0,0:0:0:0:
256,192,133825,1,0,0:0:0:0:
402,192,133825,1,0,0:0:0:0:
36,192,134025,1,0,0:0:0:0:
182,192,134025,1,0,0:0:0:0:
475,192,134025,1,0,0:0:0:0:
329,192,134025,1,0,0:0:0:0:
256,192,134125,1,0,0:0:0:0:
402,192,134225,1,0,0:0:0:0:
109,192,134225,1,0,0:0:0:0:
256,192,134425,1,0,0:0:0:0:
36,192,134425,1,0,0:0:0:0:
475,192,134425,1,0,0:0:0:0:
109,192,134625,1,0,0:0:0:0:
329,192,134625,1,0,0:0:0:0:
256,192,134625,1,0,0:0:0:0:
182,192,134825,1,0,0:0:0:0:
402,192,134825,1,0,0:0:0:0:
475,192,134825,1,0,0:0:0:0:
36,192,134825,1,0,0:0:0:0:
256,192,134925,1,0,0:0:0:0:
109,192,134925,1,0,0:0:0:0:
329,192,135025,1,0,0:0:0:0:
182,192,135025,1,0,0:0:0:0:
256,192,135125,1,0,0:0:0:0:
402,192,135125,1,0,0:0:0:0:
36,192,135225,1,0,0:0:0:0:
329,192,135225,1,0,0:0:0:0:
475,192,135225,1,0,0:0:0:0:
109,192,135425,1,0,0:0:0:0:
402,192,135425,1,0,0:0:0:0:
256,192,135425,1,0,0:0:0:0:
182,192,135625,1,0,0:0:0:0:
475,192,135625,1,0,0:0:0:0:
329,192,135625,1,0,0:0:0:0:
36,192,135625,1,0,0:0:0:0:
109,192,135725,1,0,0:0:0:0:
256,192,135825,1,0,0:0:0:0:
402,192,135825,1,0,0:0:0:0:
329,192,136025,1,0,0:0:0:0:
36,192,136025,1,0,0:0:0:0:
182,192,136025,1,0,0:0:0:0:
109,192,136225,1,0,0:0:0:0:
402,192,136225,1,0,0:0:0:0:
256,192,136325,1,0,0:0:0:0:
36,192,136325,1,0,0:0:0:0:
329,192,136425,1,0,0:0:0:0:
182,192,136425,1,0,0:0:0:0:
475,192,136425,1,0,0:0:0:0:
109,192,136425,1,0,0:0:0:0:
402,192,136525,1,0,0:0:0:0:
109,192,136625,1,0,0:0:0:0:
256,192,136625,1,0,0:0:0:0:
36,192,136725,1,0,0:0:0:0:
402,192,136725,1,0,0:0:0:0:
182,192,136825,1,0,0:0:0:0:
329,192,136825,1,0,0:0:0:0:
475,192,136825,1,0,0:0:0:0:
256,192,136925,1,0,0:0:0:0:
402,192,136925,1,0,0:0:0:0:
109,192,137025,1,0,0:0:0:0:
329,192,137025,1,0,0:0:0:0:
182,192,137125,1,0,0:0:0:0:
402,192,137125,1,0,0:0:0:0:
36,192,137225,1,0,0:0:0:0:
329,192,137225,1,0,0:0:0:0:
475,192,137225,1,0,0:0:0:0:
109,192,137225,1,0,0:0:0:0:
256,192,137325,1,0,0:0:0:0:
402,192,137425,1,0,0:0:0:0:
109,192,137425,1,0,0:0:0:0:
329,192,137425,1,0,0:0:0:0:
182,192,137525,1,0,0:0:0:0:
36,192,137625,1,0,0:0:0:0:
329,192,137625,1,0,0:0:0:0:
475,192,137625,1,0,0:0:0:0:
256,192,137625,1,0,0:0:0:0:
109,192,137825,1,0,0:0:0:0:
402,192,137825,1,0,0:0:0:0:
182,192,137825,1,0,0:0:0:0:
329,192,137925,1,0,0:0:0:0:
475,192,137925,1,0,0:0:0:0:
256,192,138025,1,0,0:0:0:0:
182,192,138025,1,0,0:0:0:0:
36,192,138025,1,0,0:0:0:0:
402,192,138025,1,0,0:0:0:0:
109,192,138125,1,0,0:0:0:0:
329,192,138225,1,0,0:0:0:0:
475,192,138225,1,0,0:0:0:0:
36,192,138225,1,0,0:0:0:0:
256,192,138325,1,0,0:0:0:0:
109,192,138325,1,0,0:0:0:0:
329,192,138425,1,0,0:0:0:0:
182,192,138425,1,0,0:0:0:0:
402,192,138425,1,0,0:0:0:0:
109,192,138625,1,0,0:0:0:0:
256,192,138625,1,0,0:0:0:0:
475,192,138625,1,0,0:0:0:0:
182,192,138825,1,0,0:0:0:0:
36,192,138825,1,0,0:0:0:0:
475,192,138825,1,0,0:0:0:0:
402,192,138825,1,0,0:0:0:0:
329,192,138925,1,0,0:0:0:0:
109,192,139025,1,0,0:0:0:0:
256,192,139025,1,0,0:0:0:0:
256,192,139225,1,0,0:0:0:0:
402,192,139225,1,0,0:0:0:0:
36,192,139225,1,0,0:0:0:0:
329,192,139425,1,0,0:0:0:0:
182,192,139425,1,0,0:0:0:0:
109,192,139425,1,0,0:0:0:0:
256,192,139625,1,0,0:0:0:0:
36,192,139625,1,0,0:0:0:0:
475,192,139625,1,0,0:0:0:0:
329,192,139625,1,0,0:0:0:0:
402,192,139725,1,0,0:0:0:0:
182,192,139725,1,0,0:0:0:0:
329,192,139825,1,0,0:0:0:0:
109,192,139825,1,0,0:0:0:0:
182,192,139925,1,0,0:0:0:0:
475,192,139925,1,0,0:0:0:0:
256,192,140025,1,0,0:0:0:0:
402,192,140025,1,0,0:0:0:0:
36,192,140025,1,0,0:0:0:0:
329,192,140225,1,0,0:0:0:0:
475,192,140225,1,0,0:0:0:0:
109,192,140225,1,0,0:0:0:0:
402,192,140425,1,0,0:0:0:0:
182,192,140425,1,0,0:0:0:0:
36,192,140425,1,0,0:0:0:0:
475,192,140425,1,0,0:0:0:0:
256,192,140525,1,0,0:0:0:0:
109,192,140625,1,0,0:0:0:0:
329,192,140625,1,0,0:0:0:0:
36,192,140625,1,0,0:0:0:0:
182,192,140825,1,0,0:0:0:0:
402,192,140825,1,0,0:0:0:0:
475,192,140825,1,0,0:0:0:0:
256,192,141025,1,0,0:0:0:0:
36,192,141025,1,0,0:0:0:0:
109,192,141025,1,0,0:0:0:0:
109,192,141225,1,0,0:0:0:0:
329,192,141225,1,0,0:0:0:0:
475,192,141225,1,0,0:0:0:0:
256,192,141225,1,0,0:0:0:0:
182,192,141325,1,0,0:0:0:0:
402,192,141425,1,0,0:0:0:0:
36,192,141425,1,0,0:0:0:0:
329,192,141425,1,0,0:0:0:0:
475,192,141525,1,0,0:0:0:0:
256,192,141525,1,0,0:0:0:0:
329,192,141625,1,0,0:0:0:0:
109,192,141625,1,0,0:0:0:0:
182,192,141625,1,0,0:0:0:0:
182,192,141825,1,0,0:0:0:0:
402,192,141825,1,0,0:0:0:0:
36,192,141825,1,0,0:0:0:0:
256,192,142025,1,0,0:0:0:0:
475,192,142025,1,0,0:0:0:0:
109,192,142025,1,0,0:0:0:0:
329,192,142025,1,0,0:0:0:0:
36,192,142125,1,0,0:0:0:0:
182,192,142225,1,0,0:0:0:0:
329,192,142225,1,0,0:0:0:0:
402,192,142225,1,0,0:0:0:0:
402,192,142425,1,0,0:0:0:0:
475,192,142425,1,0,0:0:0:0:
36,192,142425,1,0,0:0:0:0:
256,192,142525,1,0,0:0:0:0:
109,192,142525,1,0,0:0:0:0:
329,192,142625,1,0,0:0:0:0:
182,192,142625,1,0,0:0:0:0:
402,192,142725,1,0,0:0:0:0:
256,192,142725,1,0,0:0:0:0:
475,192,142825,1,0,0:0:0:0:
109,192,142825,1,0,0:0:0:0:
36,192,142825,1,0,0:0:0:0:
329,192,142825,1,0,0:0:0:0:
256,192,142925,1,0,0:0:0:0:
402,192,142925,1,0,0:0:0:0:
329,192,143025,1,0,0:0:0:0:
182,192,143025,1,0,0:0:0:0:
475,192,143025,1,0,0:0:0:0:
36,192,143125,1,0,0:0:0:0:
256,192,143125,1,0,0:0:0:0:
329,192,143225,1,0,0:0:0:0:
109,192,143225,1,0,0:0:0:0:
402,192,143225,1,0,0:0:0:0:
256,192,143325,1,0,0:0:0:0:
475,192,143325,1,0,0:0:0:0:
182,192,143425,1,0,0:0:0:0:
402,192,143425,1,0,0:0:0:0:
109,192,143475,1,0,0:0:0:0:
36,192,143525,1,0,0:0:0:0:
256,192,143525,1,0,0:0:0:0:
109,192,143625,1,0,0:0:0:0:
329,192,143625,1,0,0:0:0:0:
475,192,143625,1,0,0:0:0:0:
402,192,143625,1,0,0:0:0:0:
182,192,143725,1,0,0:0:0:0:
256,192,143825,1,0,0:0:0:0:
36,192,143825,1,0,0:0:0:0:
475,192,143825,1,0,0:0:0:0:
109,192,143925,1,0,0:0:0:0:
329,192,143925,1,0,0:0:0:0:
182,192,144025,1,0,0:0:0:0:
36,192,144025,1,0,0:0:0:0:
402,192,144025,1,0,0:0:0:0:
475,192,144025,1,0,0:0:0:0:
256,192,144225,1,0,0:0:0:0:
109,192,144225,1,0,0:0:0:0:
329,192,144425,1,0,0:0:0:0:
475,192,144425,1,0,0:0:0:0:
36,192,144425,1,0,0:0:0:0:
402,192,144425,1,0,0:0:0:0:
182,192,144525,1,0,0:0:0:0:
109,192,144625,1,0,0:0:0:0:
256,192,144625,1,0,0:0:0:0:
475,192,144725,1,0,0:0:0:0:
36,192,144725,1,0,0:0:0:0:
402,192,144825,1,0,0:0:0:0:
182,192,144825,1,0,0:0:0:0:
329,192,144825,1,0,0:0:0:0:
109,192,145025,1,0,0:0:0:0:
329,192,145025,1,0,0:0:0:0:
475,192,145025,1,0,0:0:0:0:
256,192,145225,1,0,0:0:0:0:
36,192,145225,1,0,0:0:0:0:
475,192,145225,1,0,0:0:0:0:
109,192,145225,1,0,0:0:0:0:
329,192,145325,1,0,0:0:0:0:
182,192,145425,1,0,0:0:0:0:
402,192,145425,1,0,0:0:0:0:
109,192,145625,1,0,0:0:0:0:
329,192,145625,1,0,0:0:0:0:
475,192,145625,1,0,0:0:0:0:
256,192,145825,1,0,0:0:0:0:
36,192,145825,1,0,0:0:0:0:
182,192,145825,1,0,0:0:0:0:
109,192,146025,1,0,0:0:0:0:
475,192,146025,1,0,0:0:0:0:
402,192,146025,1,0,0:0:0:0:
36,192,146025,1,0,0:0:0:0:
256,192,146125,1,0,0:0:0:0:
182,192,146225,1,0,0:0:0:0:
329,192,146225,1,0,0:0:0:0:
475,192,146225,1,0,0:0:0:0:
109,192,146325,1,0,0:0:0:0:
402,192,146325,1,0,0:0:0:0:
36,192,146425,1,0,0:0:0:0:
182,192,146425,1,0,0:0:0:0:
256,192,146425,1,0,0:0:0:0:
109,192,146625,1,0,0:0:0:0:
402,192,146625,1,0,0:0:0:0:
329,192,146625,1,0,0:0:0:0:
256,192,146825,1,0,0:0:0:0:
182,192,146825,1,0,0:0:0:0:
475,192,146825,1,0,0:0:0:0:
36,192,146825,1,0,0:0:0:0:
329,192,146925,1,0,0:0:0:0:
402,192,147025,1,0,0:0:0:0:
109,192,147025,1,0,0:0:0:0:
256,192,147025,1,0,0:0:0:0:
36,192,147225,1,0,0:0:0:0:
182,192,147225,1,0,0:0:0:0:
329,192,147225,1,0,0:0:0:0:
109,192,147425,1,0,0:0:0:0:
329,192,147425,1,0,0:0:0:0:
475,192,147425,1,0,0:0:0:0:
256,192,147625,1,0,0:0:0:0:
402,192,147625,1,0,0:0:0:0:
475,192,147625,1,0,0:0:0:0:
36,192,147625,1,0,0:0:0:0:
182,192,147725,1,0,0:0:0:0:
329,192,147825,1,0,0:0:0:0:
109,192,147825,1,0,0:0:0:0:
256,192,147925,1,0,0:0:0:0:
402,192,147925,1,0,0:0:0:0:
182,192,148025,1,0,0:0:0:0:
36,192,148025,1,0,0:0:0:0:
475,192,148025,1,0,0:0:0:0:
109,192,148225,1,0,0:0:0:0:
329,192,148225,1,0,0:0:0:0:
402,192,148225,1,0,0:0:0:0:
182,192,148425,1,0,0:0:0:0:
475,192,148425,1,0,0:0:0:0:
36,192,148425,1,0,0:0:0:0:
256,192,148425,1,0,0:0:0:0:
329,192,148525,1,0,0:0:0:0:
402,192,148625,1,0,0:0:0:0:
256,192,148625,1,0,0:0:0:0:
109,192,148625,1,0,0:0:0:0:
109,192,148825,1,0,0:0:0:0:
475,192,148825,1,0,0:0:0:0:
36,192,148825,1,0,0:0:0:0:
182,192,148925,1,0,0:0:0:0:
256,192,149025,1,0,0:0:0:0:
402,192,149025,1,0,0:0:0:0:
182,192,149125,1,0,0:0:0:0:
329,192,149125,1,0,0:0:0:0:
256,192,149225,1,0,0:0:0:0:
402,192,149225,1,0,0:0:0:0:
36,192,149225,1,0,0:0:0:0:
475,192,149225,1,0,0:0:0:0:
109,192,149325,1,0,0:0:0:0:
329,192,149325,1,0,0:0:0:0:
182,192,149425,1,0,0:0:0:0:
402,192,149425,1,0,0:0:0:0:
329,192,149525,1,0,0:0:0:0:
109,192,149525,1,0,0:0:0:0:
256,192,149625,1,0,0:0:0:0:
475,192,149625,1,0,0:0:0:0:
182,192,149625,1,0,0:0:0:0:
36,192,149725,1,0,0:0:0:0:
329,192,149725,1,0,0:0:0:0:
109,192,149825,1,0,0:0:0:0:
182,192,149825,1,0,0:0:0:0:
475,192,149825,1,0,0:0:0:0:
256,192,149925,1,0,0:0:0:0:
402,192,149925,1,0,0:0:0:0:
329,192,150025,1,0,0:0:0:0:
182,192,150025,1,0,0:0:0:0:
475,192,150025,1,0,0:0:0:0:
36,192,150025,1,0,0:0:0:0:
109,192,150125,1,0,0:0:0:0:
402,192,150125,1,0,0:0:0:0:
256,192,150225,1,0,0:0:0:0:
329,192,150225,1,0,0:0:0:0:
36,192,150225,1,0,0:0:0:0:
182,192,150325,1,0,0:0:0:0:
402,192,150325,1,0,0:0:0:0:
109,192,150425,1,0,0:0:0:0:
36,192,150425,1,0,0:0:0:0:
329,192,150425,1,0,0:0:0:0:
475,192,150425,1,0,0:0:0:0:
256,192,150625,1,0,0:0:0:0:
475,192,150625,1,0,0:0:0:0:
109,192,150625,1,0,0:0:0:0:
329,192,150725,1,0,0:0:0:0:
182,192,150725,1,0,0:0:0:0:
402,192,150825,1,0,0:0:0:0:
36,192,150825,1,0,0:0:0:0:
256,192,150825,1,0,0:0:0:0:
475,192,150825,1,0,0:0:0:0:
109,192,150925,1,0,0:0:0:0:
256,192,151025,1,0,0:0:0:0:
475,192,151025,1,0,0:0:0:0:
36,192,151025,1,0,0:0:0:0:
329,192,151125,1,0,0:0:0:0:
109,192,151125,1,0,0:0:0:0:
182,192,151225,1,0,0:0:0:0:
402,192,151225,1,0,0:0:0:0:
36,192,151225,1,0,0:0:0:0:
256,192,151425,1,0,0:0:0:0:
36,192,151425,1,0,0:0:0:0:
402,192,151425,1,0,0:0:0:0:
109,192,151625,1,0,0:0:0:0:
329,192,151625,1,0,0:0:0:0:
475,192,151625,1,0,0:0:0:0:
182,192,151625,1,0,0:0:0:0:
36,192,151725,1,0,0:0:0:0:
256,192,151825,1,0,0:0:0:0:
182,192,151825,1,0,0:0:0:0:
109,192,152025,1,0,0:0:0:0:
402,192,152025,1,0,0:0:0:0:
475,192,152025,1,0,0:0:0:0:
36,192,152225,1,0,0:0:0:0:
329,192,152225,1,0,0:0:0:0:
256,192,152225,1,0,0:0:0:0:
182,192,152425,1,0,0:0:0:0:
109,192,152425,1,0,0:0:0:0:
475,192,152425,1,0,0:0:0:0:
36,192,152425,1,0,0:0:0:0:
329,192,152525,1,0,0:0:0:0:
402,192,152625,1,0,0:0:0:0:
256,192,152625,1,0,0:0:0:0:
182,192,152725,1,0,0:0:0:0:
475,192,152725,1,0,0:0:0:0:
109,192,152825,1,0,0:0:0:0:
329,192,152825,1,0,0:0:0:0:
36,192,152825,1,0,0:0:0:0:
256,192,153025,1,0,0:0:0:0:
36,192,153025,1,0,0:0:0:0:
402,192,153025,1,0,0:0:0:0:
402,192,153225,1,0,0:0:0:0:
109,192,153225,1,0,0:0:0:0:
475,192,153225,1,0,0:0:0:0:
329,192,153225,1,0,0:0:0:0:
182,192,153325,1,0,0:0:0:0:
256,192,153425,1,0,0:0:0:0:
36,192,153425,1,0,0:0:0:0:
109,192,153425,1,0,0:0:0:0:
182,192,153625,1,0,0:0:0:0:
329,192,153625,1,0,0:0:0:0:
475,192,153625,1,0,0:0:0:0:
109,192,153825,1,0,0:0:0:0:
402,192,153825,1,0,0:0:0:0:
256,192,153825,1,0,0:0:0:0:
329,192,154025,1,0,0:0:0:0:
475,192,154025,1,0,0:0:0:0:
36,192,154025,1,0,0:0:0:0:
109,192,154025,1,0,0:0:0:0:
256,192,154125,1,0,0:0:0:0:
109,192,154225,1,0,0:0:0:0:
182,192,154225,1,0,0:0:0:0:
329,192,154225,1,0,0:0:0:0:
256,192,154325,1,0,0:0:0:0:
402,192,154325,1,0,0:0:0:0:
329,192,154425,1,0,0:0:0:0:
475,192,154425,1,0,0:0:0:0:
36,192,154425,1,0,0:0:0:0:
182,192,154625,1,0,0:0:0:0:
402,192,154625,1,0,0:0:0:0:
109,192,154625,1,0,0:0:0:0:
329,192,154825,1,0,0:0:0:0:
36,192,154825,1,0,0:0:0:0:
475,192,154825,1,0,0:0:0:0:
109,192,154825,1,0,0:0:0:0:
256,192,154925,1,0,0:0:0:0:
182,192,155025,1,0,0:0:0:0:
402,192,155025,1,0,0:0:0:0:
475,192,155025,1,0,0:0:0:0:
329,192,155225,1,0,0:0:0:0:
109,192,155225,1,0,0:0:0:0:
475,192,155225,1,0,0:0:0:0:
182,192,155325,1,0,0:0:0:0:
402,192,155325,1,0,0:0:0:0:
36,192,155425,1,0,0:0:0:0:
256,192,155425,1,0,0:0:0:0:
475,192,155425,1,0,0:0:0:0:
329,192,155525,1,0,0:0:0:0:
182,192,155525,1,0,0:0:0:0:
256,192,155625,1,0,0:0:0:0:
109,192,155625,1,0,0:0:0:0:
36,192,155625,1,0,0:0:0:0:
402,192,155725,1,0,0:0:0:0:
182,192,155725,1,0,0:0:0:0:
329,192,155825,1,0,0:0:0:0:
109,192,155825,1,0,0:0:0:0:
475,192,155825,1,0,0:0:0:0:
182,192,155925,1,0,0:0:0:0:
402,192,155925,1,0,0:0:0:0:
256,192,156025,1,0,0:0:0:0:
36,192,156025,1,0,0:0:0:0:
329,192,156025,1,0,0:0:0:0:
109,192,156125,1,0,0:0:0:0:
475,192,156125,1,0,0:0:0:0:
182,192,156225,1,0,0:0:0:0:
402,192,156225,1,0,0:0:0:0:
36,192,156225,1,0,0:0:0:0:
256,192,156325,1,0,0:0:0:0:
329,192,156325,1,0,0:0:0:0:
182,192,156425,1,0,0:0:0:0:
36,192,156425,1,0,0:0:0:0:
475,192,156425,1,0,0:0:0:0:
402,192,156475,1,0,0:0:0:0:
109,192,156525,1,0,0:0:0:0:
329,192,156525,1,0,0:0:0:0:
256,192,156575,1,0,0:0:0:0:
36,192,156625,1,0,0:0:0:0:
475,192,156625,1,0,0:0:0:0:
402,192,156675,1,0,0:0:0:0:
182,192,156725,1,0,0:0:0:0:
329,192,156725,1,0,0:0:0:0:
256,192,156775,1,0,0:0:0:0:
109,192,156825,1,0,0:0:0:0:
36,192,156825,1,0,0:0:0:0:
475,192,156825,1,0,0:0:0:0:
402,192,156825,1,0,0:0:0:0:
