osu file format v14

[General]
AudioFilename: Kozato snow - ____.mp3
AudioLeadIn: 0
PreviewTime: 120347
Countdown: 0
SampleSet: None
StackLeniency: 0.8
Mode: 0
LetterboxInBreaks: 1
WidescreenStoryboard: 1
SamplesMatchPlaybackRate: 1

[Editor]
Bookmarks: 14254,14875,24811,28123,41372,47996,52965,54621,67248,67869,80497,81118,93953,94367,100991,105959,120450,140737,145706,147362,170547,197044,200356,226854
DistanceSpacing: 1.1
BeatDivisor: 4
GridSize: 4
TimelineZoom: 1.2

[Metadata]
Title:Rengetsu Ouka
TitleUnicode:Rengetsu Ouka
Artist:Kozato Snow
ArtistUnicode:Kozato Snow
Creator:Veridian
Version:Old Light Insane (No Bursts)
Source:
Tags:
BeatmapID:1970168
BeatmapSetID:943420

[Difficulty]
HPDrainRate:5
CircleSize:3.5
OverallDifficulty:5
ApproachRate:7.7
SliderMultiplier:1.9
SliderTickRate:1

[Events]
//Background and Video events
0,0,"Sakura-Tree-Wallpaper-NBpeP.jpg",0,0
//Break Periods
2,94567,100196
2,147562,158780
//Storyboard Layer 0 (Background)
//Storyboard Layer 1 (Fail)
//Storyboard Layer 2 (Pass)
//Storyboard Layer 3 (Foreground)
//Storyboard Sound Samples

[TimingPoints]
1626.53552827573,414.021529119514,4,2,0,50,1,0
54621,-133.333333333333,4,2,0,50,0,0
67869,-117.647058823529,4,2,0,50,0,0
81118,-100,4,2,0,50,0,0
94367,-133.333333333333,4,2,0,50,0,0
100991,-117.647058823529,4,2,0,50,0,0
107616,-90.9090909090909,4,2,0,50,0,1
119208,-100,4,2,0,50,0,0
120864,-90.9090909090909,4,2,0,50,0,1
133699,-100,4,2,0,50,0,0
134113,-100,4,2,0,50,0,1
134527,-100,4,2,0,50,0,1
140737,-100,4,2,0,50,0,0
160610,-117.647058823529,4,2,0,50,0,0
170547,-100,4,2,0,50,0,0
173859,-83.3333333333333,4,2,0,50,0,1
186694,-100,4,2,0,50,0,0
187108,-83.3333333333333,4,2,0,50,0,1
193732,-90.9090909090909,4,2,0,50,0,0
200356,-133.333333333333,4,2,0,50,0,0

[Colours]
Combo1 : 0,128,192
Combo2 : 255,83,83
Combo3 : 255,255,128
Combo4 : 128,255,128
Combo5 : 1,197,138
Combo6 : 255,179,255
Combo7 : 186,117,255
Combo8 : 193,255,255

[HitObjects]
456,328,14254,6,0,L|424:252,1,47.5
396,260,14461,2,0,L|372:192,3,47.5
396,172,14875,6,0,P|308:204|208:160,1,190
144,116,15496,1,0,0:0:0:0:
128,208,15703,2,0,P|120:268|148:328,2,95
144,116,16324,1,0,0:0:0:0:
232,72,16531,6,0,L|344:48,1,95
324,148,16945,2,0,L|440:124,1,95
408,224,17359,2,0,L|524:200,2,95
364,308,17980,1,0,0:0:0:0:
320,224,18187,6,0,L|148:184,2,142.5
308,128,19015,2,0,P|300:88|316:20,1,95
404,36,19429,2,0,P|413:82|404:128,1,95
364,212,19843,5,0,0:0:0:0:
364,212,20050,1,0,0:0:0:0:
308,128,20257,2,0,L|184:100,1,95
160,28,20671,1,0,0:0:0:0:
160,28,20878,1,0,0:0:0:0:
108,108,21085,2,0,L|60:176,3,47.5
52,184,21499,6,0,P|32:240|60:336,2,142.5
120,248,22327,2,0,P|144:304|208:336,1,95
264,324,22741,2,0,P|298:292|313:247,1,95
248,176,23155,5,0,0:0:0:0:
248,176,23362,1,0,0:0:0:0:
312,104,23569,2,0,L|380:80,3,47.5
400,64,23983,2,0,L|420:168,1,95
336,208,24397,2,0,L|312:328,1,95
240,356,24811,6,0,B|240:352|235:307|220:280|223:283,3,47.5
240,356,25225,2,0,B|192:336|192:372|116:344,1,95
100,268,25639,2,0,B|100:264|104:219|120:192|116:195,3,47.5
100,268,26053,2,0,B|148:248|148:284|224:256,1,95
276,216,26467,6,0,L|296:164,3,47.5
252,148,26881,2,0,L|236:76,3,47.5
268,64,27295,2,0,L|208:52,1,47.5
184,24,27502,2,0,L|104:44,1,47.5
92,48,27709,1,0,0:0:0:0:
136,132,27916,1,0,0:0:0:0:
136,132,28020,1,0,0:0:0:0:
136,132,28123,6,0,P|168:196|106:325,1,190
60,360,28744,1,0,0:0:0:0:
136,300,28951,2,0,B|200:300|200:300|232:328|240:328|240:328|328:328,1,190
408,360,29572,1,0,0:0:0:0:
392,268,29779,6,0,P|428:216|472:192,2,95
257,133,30608,2,0,P|221:81|177:57,2,95
284,224,31229,1,0,0:0:0:0:
364,276,31436,6,0,P|320:312|188:244,1,190
140,204,32057,1,0,0:0:0:0:
80,276,32264,2,0,L|-20:268,2,95
208,136,33092,6,0,L|332:120,1,95
384,76,33506,2,0,L|472:60,3,47.5
460,32,33920,1,0,0:0:0:0:
512,112,34127,1,0,0:0:0:0:
512,112,34230,1,0,0:0:0:0:
512,112,34334,1,0,0:0:0:0:
448,184,34541,1,0,0:0:0:0:
500,264,34748,6,0,L|480:372,1,95
387,357,35162,2,0,L|369:263,1,95
344,172,35576,2,0,B|252:136|248:200|136:172,1,190
92,108,36197,1,0,0:0:0:0:
60,196,36404,6,0,L|16:328,2,95
233,274,37232,2,0,L|277:406,2,95
268,184,37853,1,0,0:0:0:0:
336,252,38060,6,0,P|400:284|528:232,1,190
456,172,38681,1,0,0:0:0:0:
396,100,38888,2,0,P|368:68|344:-8,1,95
252,20,39302,2,0,P|234:63|203:99,1,95
108,104,39716,6,0,L|144:220,1,95
164,284,40130,2,0,L|236:288,3,47.5
244,320,40544,1,0,0:0:0:0:
304,248,40751,1,0,0:0:0:0:
304,248,40855,1,0,0:0:0:0:
304,248,40958,2,0,L|351:245,3,47.5
396,264,41372,6,0,B|356:172|436:172|376:52,1,190
316,16,41993,1,0,0:0:0:0:
284,104,42200,2,0,L|168:84,1,95
132,164,42614,2,0,L|268:188,1,95
320,196,43028,6,0,P|356:256|300:380,1,190
144,300,43856,2,0,P|88:304|32:296,2,95
224,248,44477,1,0,0:0:0:0:
148,192,44684,6,0,L|120:76,1,95
220,100,45098,2,0,P|272:120|368:76,2,142.5
144,40,45926,1,0,0:0:0:0:
144,40,46133,1,0,0:0:0:0:
72,100,46340,6,0,L|48:180,3,47.5
80,188,46754,2,0,L|32:336,2,142.5
168,228,47582,2,0,L|192:160,3,47.5
204,140,47996,6,0,P|276:116|408:160,3,190
388,332,49653,2,0,P|316:356|184:312,3,190
300,200,51309,2,0,B|344:104|256:104|304:0,3,190
188,172,52965,6,0,P|156:170|116:184,3,47.5
100,196,53379,2,0,P|68:198|28:184,3,47.5
20,160,53793,2,0,P|18:128|32:88,3,47.5
48,76,54207,2,0,L|132:56,1,47.5
140,84,54414,2,0,L|216:64,1,47.5
232,84,54621,5,0,0:0:0:0:
392,212,55242,1,0,0:0:0:0:
392,212,55449,2,0,P|416:272|380:356,1,142.500005435944
240,268,56277,6,0,L|148:252,1,71.2500027179719
200,176,56691,2,0,L|108:160,1,71.2500027179719
60,116,57105,1,0,0:0:0:0:
136,76,57312,1,0,0:0:0:0:
136,76,57415,1,0,0:0:0:0:
136,76,57519,2,0,L|152:16,3,35.625001358986
180,20,57933,6,0,B|272:-8|272:80|400:16,1,213.750008153916
448,84,58761,2,0,P|416:128|408:176,1,71.2500027179719
328,164,59175,2,0,P|292:132|248:128,1,71.2500027179719
252,212,59589,6,0,P|232:264|264:360,1,142.500005435944
324,300,60210,1,0,0:0:0:0:
396,344,60417,1,0,0:0:0:0:
504,20,61245,5,0,0:0:0:0:
292,164,61866,1,0,0:0:0:0:
292,164,62073,2,0,L|140:132,1,142.500005435944
52,272,62901,6,0,L|148:260,1,71.2500027179719
188,320,63315,2,0,L|288:304,1,71.2500027179719
328,356,63729,1,0,0:0:0:0:
400,308,63936,1,0,0:0:0:0:
400,308,64040,1,0,0:0:0:0:
400,308,64143,2,0,L|416:256,3,35.625001358986
448,252,64557,5,0,0:0:0:0:
176,44,65385,1,0,0:0:0:0:
264,372,66213,5,0,0:0:0:0:
392,148,66834,2,0,P|400:108|376:56,1,71.2500027179719
316,112,67248,6,0,L|264:96,1,35.625001358986
240,92,67455,1,0,0:0:0:0:
172,152,67662,1,0,0:0:0:0:
240,224,67869,6,0,P|264:272|232:380,1,161.500003080368
168,304,68491,1,0,0:0:0:0:
168,304,68698,2,0,P|128:344|76:356,1,80.750001540184
84,256,69112,2,0,P|36:268|-24:252,1,80.750001540184
36,172,69526,5,0,0:0:0:0:
36,172,69733,1,0,0:0:0:0:
132,172,69940,2,0,P|180:160|240:176,1,80.750001540184
288,220,70354,1,0,0:0:0:0:
372,168,70561,1,0,0:0:0:0:
372,168,70664,1,0,0:0:0:0:
372,168,70768,2,0,L|400:108,3,40.375000770092
412,88,71182,6,0,B|332:120|332:52|248:88,1,161.500003080368
172,40,71803,1,0,0:0:0:0:
172,40,72010,2,0,L|140:124,1,80.750001540184
220,176,72424,2,0,L|248:260,1,80.750001540184
272,348,72838,5,0,0:0:0:0:
344,284,73045,1,0,0:0:0:0:
344,284,73252,2,0,P|384:272|432:288,1,80.750001540184
496,344,73666,2,0,L|432:160,1,161.500003080368
292,72,74494,6,0,L|238:224,1,161.500003080368
156,176,75115,1,0,0:0:0:0:
116,88,75322,2,0,P|168:80|216:104,1,80.750001540184
268,152,75736,2,0,P|320:160|368:136,1,80.750001540184
412,80,76150,5,0,0:0:0:0:
480,152,76357,2,0,L|508:244,2,80.750001540184
412,220,76978,1,0,0:0:0:0:
340,156,77185,1,0,0:0:0:0:
340,156,77288,1,0,0:0:0:0:
340,156,77392,2,0,L|264:136,3,40.375000770092
268,112,77806,6,0,B|192:80|192:144|84:108,1,161.500003080368
32,292,78634,2,0,B|108:324|108:260|216:296,1,161.500003080368
372,356,79462,2,0,L|432:192,2,161.500003080368
288,304,80497,2,0,L|220:292,1,40.375000770092
200,288,80704,1,0,0:0:0:0:
120,344,80911,1,0,0:0:0:0:
44,284,81118,5,0,0:0:0:0:
124,232,81325,2,0,L|108:168,4,47.5
200,288,81946,1,0,0:0:0:0:
244,204,82153,2,0,L|228:152,4,47.5
316,264,82774,5,0,0:0:0:0:
392,204,82981,2,0,L|408:140,4,47.5
316,148,83602,1,0,0:0:0:0:
244,204,83809,2,0,L|230:158,4,47.5
208,292,84430,5,0,0:0:0:0:
136,228,84637,2,0,L|112:156,4,47.5
208,292,85258,1,0,0:0:0:0:
124,336,85465,2,0,L|140:392,4,47.5
40,292,86086,5,0,0:0:0:0:
100,216,86293,1,0,0:0:0:0:
100,216,86397,1,0,0:0:0:0:
100,216,86500,2,0,P|112:168|88:104,1,95
168,56,86914,2,0,L|276:24,1,95
272,124,87328,2,0,L|384:144,1,95
460,164,87743,5,0,0:0:0:0:
392,232,87950,2,0,L|380:292,4,47.5
352,148,88571,1,0,0:0:0:0:
284,212,88778,2,0,L|272:272,4,47.5
216,148,89399,5,0,0:0:0:0:
144,212,89606,2,0,L|156:272,4,47.5
68,156,90227,1,0,0:0:0:0:
20,240,90434,2,0,L|32:308,4,47.5
72,160,91055,5,0,0:0:0:0:
128,84,91262,2,0,L|112:0,4,47.5
208,136,91883,1,0,0:0:0:0:
284,196,92090,2,0,L|300:280,4,47.5
316,108,92711,5,0,0:0:0:0:
392,168,92918,1,0,0:0:0:0:
392,168,93021,1,0,0:0:0:0:
392,168,93125,2,0,L|512:160,2,95
324,236,93746,1,0,0:0:0:0:
324,236,93849,1,0,0:0:0:0:
324,236,93953,2,0,L|248:216,3,47.5
244,252,94367,5,0,0:0:0:0:
296,160,100991,6,0,B|216:104|216:212|116:124,3,161.500003080368
216,292,102647,2,0,B|296:236|296:344|396:256,3,161.500003080368
476,160,104303,2,0,P|500:108|460:0,3,161.500003080368
340,104,105959,6,0,L|268:88,3,40.375000770092
280,60,106373,2,0,L|204:40,3,40.375000770092
204,68,106788,2,0,L|140:52,3,40.375000770092
124,52,107202,2,0,L|132:128,1,40.375000770092
100,124,107409,2,0,L|108:196,1,40.375000770092
76,208,107616,5,0,0:0:0:0:
0,284,107823,1,0,0:0:0:0:
76,356,108030,2,0,P|128:368|200:344,1,104.500003189087
256,288,108444,1,0,0:0:0:0:
256,288,108651,1,0,0:0:0:0:
332,216,108858,2,0,P|382:205|433:217,1,104.500003189087
448,116,109272,6,0,L|516:28,2,104.500003189087
380,36,109893,1,0,0:0:0:0:
316,116,110100,2,0,L|248:28,2,104.500003189087
380,196,110721,1,0,0:0:0:0:
280,224,110928,6,0,P|236:264|212:320,1,104.500003189087
112,304,111342,2,0,P|87:258|48:224,1,104.500003189087
16,124,111756,1,0,0:0:0:0:
16,124,111859,1,0,0:0:0:0:
16,124,111963,1,0,0:0:0:0:
120,140,112170,2,0,L|204:124,3,52.2500015945435
208,92,112584,6,0,L|384:132,1,156.750004783631
472,240,113205,2,0,L|296:280,1,156.750004783631
168,312,113826,1,0,0:0:0:0:
168,312,113929,1,0,0:0:0:0:
168,312,114033,1,0,0:0:0:0:
216,220,114240,6,0,P|228:172|204:108,1,104.500003189087
124,64,114654,2,0,L|84:128,3,52.2500015945435
52,140,115068,2,0,L|84:216,3,52.2500015945435
91,237,115482,2,0,L|51:301,3,52.2500015945435
32,324,115896,5,0,0:0:0:0:
128,364,116103,1,0,0:0:0:0:
228,328,116310,1,0,0:0:0:0:
228,328,116414,1,0,0:0:0:0:
228,328,116517,1,0,0:0:0:0:
324,368,116724,2,0,L|364:292,3,52.2500015945435
400,336,117138,2,0,L|440:260,3,52.2500015945435
472,264,117552,6,0,P|460:212|488:136,1,104.500003189087
372,128,117966,2,0,P|383:77|373:26,1,104.500003189087
280,72,118380,2,0,L|160:40,1,104.500003189087
96,108,118794,1,0,0:0:0:0:
176,176,119001,1,0,0:0:0:0:
176,176,119105,1,0,0:0:0:0:
176,176,119208,6,0,L|200:248,3,47.5
168,264,119622,2,0,L|192:336,3,47.5
164,352,120036,1,0,0:0:0:0:
164,352,120140,1,0,0:0:0:0:
164,352,120243,1,0,0:0:0:0:
324,292,120450,2,0,B|320:288|283:263|264:244|267:247,3,47.5
324,292,120864,6,0,L|464:264,1,104.500003189087
480,184,121278,2,0,L|352:152,1,104.500003189087
288,104,121692,2,0,L|288:24,2,52.2500015945435
200,164,122106,2,0,L|98:189,1,104.500003189087
98,189,122417,1,0,0:0:0:0:
98,189,122520,6,0,P|84:256|116:316,1,104.500003189087
180,348,122934,2,0,L|312:316,1,104.500003189087
384,296,123348,1,0,0:0:0:0:
384,296,123555,1,0,0:0:0:0:
312,220,123762,1,0,0:0:0:0:
380,140,123969,1,0,0:0:0:0:
312,64,124176,6,0,P|268:36|156:92,2,156.750004783631
244,144,125004,2,0,L|244:264,1,104.500003189087
144,284,125418,2,0,L|144:176,1,104.500003189087
68,104,125832,5,0,0:0:0:0:
68,104,126040,1,0,0:0:0:0:
144,32,126247,1,0,0:0:0:0:
220,104,126454,1,0,0:0:0:0:
220,104,126557,1,0,0:0:0:0:
220,104,126661,2,0,L|288:76,2,52.2500015945435
292,180,127075,2,0,L|212:212,3,52.2500015945435
340,164,127489,6,0,B|416:164|416:164|488:104,2,156.750004783631
292,256,128317,2,0,L|216:256,3,52.2500015945435
208,300,128731,2,0,L|128:300,3,52.2500015945435
116,336,129145,5,0,0:0:0:0:
116,336,129352,1,0,0:0:0:0:
48,256,129559,2,0,L|24:184,3,52.2500015945435
60,164,129973,2,0,P|92:116|96:52,1,104.500003189087
204,72,130387,2,0,P|212:123|242:165,1,104.500003189087
312,88,130801,6,0,P|356:120|484:104,2,156.750004783631
236,16,131629,1,0,0:0:0:0:
236,16,131836,1,0,0:0:0:0:
160,88,132043,1,0,0:0:0:0:
232,164,132250,1,0,0:0:0:0:
160,240,132457,6,0,B|140:284|140:284|148:320|148:320|116:388,2,156.750004783631
260,276,133285,2,0,L|336:264,3,52.2500015945435
356,288,133699,2,0,L|428:272,3,47.5
448,292,134113,6,0,B|420:192|488:192|440:88,1,190
384,36,134734,1,0,0:0:0:0:
316,104,134941,2,0,L|204:80,2,95
372,180,135562,1,0,0:0:0:0:
316,256,135769,6,0,L|204:280,1,95
156,344,136183,1,0,0:0:0:0:
156,344,136390,1,0,0:0:0:0:
88,276,136597,2,0,P|68:232|0:184,1,95
101,132,137011,2,0,P|121:88|189:40,1,95
208,132,137425,6,0,P|260:116|372:152,2,142.5
112,132,138253,2,0,L|152:240,1,95
52,240,138667,2,0,L|100:356,1,95
172,372,139081,5,0,0:0:0:0:
172,372,139288,1,0,0:0:0:0:
256,328,139495,1,0,0:0:0:0:
344,368,139702,1,0,0:0:0:0:
428,324,139909,2,0,L|456:252,2,47.5
348,272,140323,2,0,L|328:204,3,47.5
360,184,140737,6,0,P|300:200|200:168,2,142.5
448,148,141565,2,0,L|464:220,3,47.5
436,236,141979,2,0,L|420:308,3,47.5
448,324,142393,6,0,P|400:312|332:340,1,95
272,368,142807,2,0,L|204:352,3,47.5
180,364,143221,2,0,L|216:252,1,95
132,216,143635,2,0,L|112:96,1,95
168,44,144049,6,0,P|116:64|12:32,2,142.5
232,112,144877,2,0,L|336:72,1,95
324,172,145292,2,0,L|424:132,1,95
484,200,145706,6,0,L|496:264,3,47.5
464,284,146120,2,0,L|452:360,3,47.5
424,364,146534,2,0,L|352:344,3,47.5
344,316,146948,2,0,L|280:336,1,47.5
256,312,147155,2,0,L|196:332,1,47.5
168,344,147362,5,0,0:0:0:0:
92,160,159575,5,0,0:0:0:0:
92,160,159679,1,0,0:0:0:0:
92,160,159782,2,0,L|176:128,3,47.5
176,168,160196,2,0,L|248:140,3,47.5
268,136,160610,6,0,P|320:116|448:152,1,161.500003080368
480,212,161231,1,0,0:0:0:0:
344,352,161645,2,0,P|340:300|348:256,1,80.750001540184
260,224,162059,1,0,0:0:0:0:
340,172,162266,6,0,P|352:112|336:0,1,161.500003080368
252,52,162887,1,0,0:0:0:0:
80,140,163301,2,0,L|188:136,1,80.750001540184
224,212,163715,1,0,0:0:0:0:
288,284,163922,6,0,L|464:280,1,161.500003080368
508,360,164544,1,0,0:0:0:0:
416,188,164958,2,0,P|412:136|420:76,1,80.750001540184
492,48,165372,1,0,0:0:0:0:
404,8,165579,6,0,P|332:4|216:12,1,161.500003080368
284,96,166200,2,0,P|212:100|96:92,1,161.500003080368
28,76,166821,1,0,0:0:0:0:
176,200,167235,6,0,P|200:236|224:368,1,161.500003080368
324,348,167856,2,0,P|334:268|373:198,1,161.500003080368
468,172,168477,1,0,0:0:0:0:
468,172,168684,1,0,0:0:0:0:
392,108,168891,6,0,P|320:96|196:92,1,161.500003080368
252,184,169512,2,0,P|180:196|56:200,1,161.500003080368
28,128,170133,1,0,0:0:0:0:
28,128,170340,1,0,0:0:0:0:
96,220,170547,6,0,P|112:264|84:372,2,142.5
152,120,171375,2,0,L|264:100,1,95
240,216,171789,2,0,L|344:200,1,95
440,244,172203,6,0,L|468:176,3,47.5
428,152,172617,2,0,L|412:80,3,47.5
456,64,173031,1,0,0:0:0:0:
64,192,173445,2,0,B|27:223|-4:224|0:227,3,47.5
64,192,173859,6,0,P|52:136|84:52,1,113.999996520996
176,140,174273,2,0,P|188:196|156:280,1,113.999996520996
88,340,174687,2,0,L|8:324,2,56.9999982604981
175,250,175101,2,0,L|316:232,1,113.999996520996
288,235,175412,1,0,0:0:0:0:
288,235,175515,5,0,0:0:0:0:
384,316,175722,1,0,0:0:0:0:
484,244,175929,2,0,P|492:188|468:104,1,113.999996520996
384,52,176343,2,0,B|332:52|308:80|308:80|284:52|224:52,2,170.999994781494
448,160,177171,6,0,B|391:160|367:132|367:132|343:160|291:160,2,170.999994781494
364,252,177999,2,0,P|376:308|352:376,1,113.999996520996
252,304,178413,2,0,P|237:249|249:194,1,113.999996520996
340,108,178827,5,0,0:0:0:0:
340,108,179034,1,0,0:0:0:0:
252,20,179241,1,0,0:0:0:0:
160,108,179448,1,0,0:0:0:0:
256,188,179655,2,0,P|260:220|244:272,2,56.9999982604981
148,252,180069,2,0,P|144:284|160:340,3,56.9999982604981
188,356,180483,6,0,B|112:336|124:380|8:352,2,170.999994781494
312,368,181311,2,0,L|288:280,3,56.9999982604981
272,256,181725,2,0,L|304:172,3,56.9999982604981
324,148,182139,6,0,P|260:160|168:124,1,113.999996520996
108,80,182553,2,0,L|16:56,3,56.9999982604981
64,128,182967,2,0,P|80:184|44:264,1,113.999996520996
66,236,183278,1,0,0:0:0:0:
66,236,183381,2,0,P|50:290|63:344,1,113.999996520996
180,296,183796,6,0,B|240:296|240:296|268:328|268:328|364:328,2,170.999994781494
248,188,184624,2,0,L|208:80,1,113.999996520996
332,92,185038,2,0,L|380:216,1,113.999996520996
476,268,185452,5,0,0:0:0:0:
380,352,185659,1,0,0:0:0:0:
380,352,185762,1,0,0:0:0:0:
380,352,185866,1,0,0:0:0:0:
288,268,186073,1,0,0:0:0:0:
288,268,186176,1,0,0:0:0:0:
288,268,186280,2,0,L|216:228,3,56.9999982604981
184,240,186694,2,0,L|112:288,3,47.5
92,300,187108,6,0,P|132:236|68:80,1,227.999993041992
216,92,187729,1,0,0:0:0:0:
216,92,187832,1,0,0:0:0:0:
216,92,187936,2,0,L|288:72,3,56.9999982604981
320,112,188350,2,0,L|428:84,3,56.9999982604981
424,60,188764,6,0,L|472:192,1,113.999996520996
360,236,189178,2,0,L|328:360,1,113.999996520996
232,268,189592,2,0,B|232:264|211:215|204:200|207:203,3,56.9999982604981
232,268,190006,2,0,P|172:260|84:276,1,113.999996520996
152,144,190420,6,0,P|88:156|-36:136,2,170.999994781494
200,108,191144,1,0,0:0:0:0:
200,108,191248,1,0,0:0:0:0:
312,168,191455,1,0,0:0:0:0:
312,168,191558,1,0,0:0:0:0:
312,168,191662,2,0,L|336:304,1,113.999996520996
228,348,192076,6,0,L|208:236,1,113.999996520996
188,112,192490,2,0,L|212:24,2,56.9999982604981
64,124,192904,2,0,L|88:208,3,56.9999982604981
40,228,193318,2,0,L|64:304,3,56.9999982604981
56,340,193732,6,0,P|120:316|228:360,2,156.750004783631
100,232,194560,2,0,L|76:160,3,52.2500015945435
124,140,194974,2,0,L|100:56,3,52.2500015945435
92,36,195388,5,0,0:0:0:0:
192,88,195595,1,0,0:0:0:0:
292,28,195802,2,0,P|317:26|382:38,3,52.2500015945435
384,68,196216,2,0,P|440:72|512:60,1,104.500003189087
456,176,196630,2,0,P|400:172|328:184,1,104.500003189087
240,200,197044,6,0,L|220:268,3,52.2500015945435
176,276,197458,2,0,L|152:356,3,52.2500015945435
104,328,197872,2,0,L|88:277,3,52.2500015945435
36,256,198286,2,0,L|21:205,3,52.2500015945435
56,160,198700,6,0,P|76:132|88:72,3,52.2500015945435
140,116,199114,2,0,P|150:139|166:160,3,52.2500015945435
216,188,199528,2,0,L|288:172,1,52.2500015945435
292,228,199735,2,0,L|368:212,1,52.2500015945435
348,160,199942,2,0,L|412:144,1,52.2500015945435
436,192,200149,2,0,L|504:172,1,52.2500015945435
504,128,200356,5,0,0:0:0:0:
