osu file format v14

[General]
AudioFilename: Kozato snow - ____.mp3
AudioLeadIn: 0
PreviewTime: 107194
Countdown: 0
SampleSet: None
StackLeniency: 0.8
Mode: 0
LetterboxInBreaks: 1
WidescreenStoryboard: 1
SamplesMatchPlaybackRate: 1

[Editor]
Bookmarks: 14867,24803,27287,28115,45401,47988,52957,54613,67861,81110,93531,94359,100983,119200,145698,147354,160602,170539,172195,197036,200348
DistanceSpacing: 0.8
BeatDivisor: 1
GridSize: 32
TimelineZoom: 2

[Metadata]
Title:Rengetsu Ouka
TitleUnicode:Rengetsu Ouka
Artist:Kozato Snow
ArtistUnicode:Kozato Snow
Creator:Veridian
Version:Insane
Source:
Tags:
BeatmapID:1970166
BeatmapSetID:943420

[Difficulty]
HPDrainRate:7
CircleSize:3.5
OverallDifficulty:8
ApproachRate:8.5
SliderMultiplier:2.1
SliderTickRate:1

[Events]
//Background and Video events
0,0,"Sakura-Tree-Wallpaper-NBpeP.jpg",0,0
//Break Periods
2,54811,66489
2,94557,100232
2,147552,159851
//Storyboard Layer 0 (Background)
//Storyboard Layer 1 (Fail)
//Storyboard Layer 2 (Pass)
//Storyboard Layer 3 (Foreground)
//Storyboard Sound Samples

[TimingPoints]
-39,414.021529119514,4,2,0,50,1,0
1617,-166.666666666667,4,2,0,50,0,0
14865,-142.857142857143,4,2,0,50,0,0
28114,-100,4,2,0,50,0,0
67860,-166.666666666667,4,2,0,50,0,0
80488,-100,4,2,0,50,0,0
81109,-83.3333333333333,4,2,0,50,0,0
100982,-133.333333333333,4,2,0,50,0,0
107606,-90.9090909090909,4,2,0,50,0,1
108434,-90.9090909090909,4,2,0,50,0,0
120441,-200,4,2,0,50,0,0
120855,-83.3333333333333,4,2,0,50,0,1
133691,-100,4,2,0,50,0,0
134105,-83.3333333333333,4,2,0,50,0,1
140728,-100,4,2,0,50,0,0
173851,-100,4,2,0,50,0,1
173852,414.021529119514,4,2,0,50,1,1
173852,-76.9230769230769,4,2,0,50,0,1
186686,-76.9230769230769,4,2,0,50,0,0
187100,-76.9230769230769,4,2,0,50,0,1
193724,-100,4,2,0,50,0,0
197037,-76.9230769230769,4,2,0,50,0,0

[Colours]
Combo1 : 126,196,222
Combo2 : 252,123,86
Combo3 : 255,255,128
Combo4 : 205,143,228
Combo5 : 170,221,136

[HitObjects]
88,192,1617,6,0,P|84:244|320:256,1,377.999988464356
224,104,3273,2,0,L|202:228,1,125.999996154785
332,160,4101,2,0,L|353:35,1,125.999996154785
288,240,4929,2,0,B|380:280|380:192|480:240,2,188.999994232178
200,176,6585,2,0,P|150:158|64:190,1,125.999996154785
228,316,7413,2,0,P|278:334|364:302,1,125.999996154785
428,260,8034,1,0,0:0:0:0:
340,216,8241,6,0,L|319:97,2,94.499997116089
436,160,9069,2,0,L|410:18,2,125.999996154785
236,112,10311,2,0,L|222:37,2,62.9999980773926
260,276,11139,1,0,0:0:0:0:
396,208,11553,2,0,B|304:248|304:160|204:208,2,188.999994232178
488,268,13209,6,0,P|506:218|474:132,1,125.999996154785
396,112,13830,1,0,0:0:0:0:
468,64,14037,2,0,L|456:-2,2,62.9999980773926
316,168,14865,6,0,P|300:127|326:52,2,110.249996635437
400,224,15693,2,0,P|415:264|389:339,2,110.249996635437
248,288,16521,2,0,L|322:274,1,73.4999977569581
148,220,16935,2,0,L|73:233,1,73.4999977569581
232,204,17349,2,0,L|218:129,1,73.4999977569581
160,300,17763,2,0,L|173:374,1,73.4999977569581
0,184,18177,6,0,P|-15:224|10:299,2,110.249996635437
60,104,19005,2,0,B|69:70|69:70|53:8,1,73.4999977569581
116,200,19420,2,0,B|106:237|106:237|115:271,1,73.4999977569581
160,120,19834,2,0,L|254:136,1,73.4999977569581
276,252,20248,2,0,L|181:235,1,73.4999977569581
324,172,20662,2,0,L|396:184,1,73.4999977569581
488,168,21076,2,0,P|492:191|483:209,2,36.749998878479
248,224,21490,6,0,P|232:183|258:108,2,110.249996635437
396,184,22318,2,0,L|324:172,1,73.4999977569581
220,28,22732,2,0,L|292:40,1,73.4999977569581
128,112,23146,2,0,B|137:78|137:78|121:16,1,73.4999977569581
36,72,23560,2,0,L|-7:64,2,36.749998878479
44,229,23974,2,0,B|35:195|35:195|51:133,1,73.4999977569581
204,208,24388,2,0,L|132:196,1,73.4999977569581
256,192,24802,12,0,27700,0:0:0:0:
256,136,28114,5,0,0:0:0:0:
232,268,28321,1,0,0:0:0:0:
168,184,28528,2,0,B|152:136|152:136|180:60,1,105
344,92,28942,1,0,0:0:0:0:
356,116,29046,1,0,0:0:0:0:
356,144,29149,1,0,0:0:0:0:
352,168,29253,1,0,0:0:0:0:
340,192,29356,1,0,0:0:0:0:
328,216,29460,1,0,0:0:0:0:
324,240,29563,1,0,0:0:0:0:
328,264,29667,1,0,0:0:0:0:
336,288,29770,6,0,L|450:267,1,105
256,136,30184,2,0,L|141:156,1,105
72,108,30598,1,0,0:0:0:0:
60,132,30702,1,0,0:0:0:0:
60,160,30805,1,0,0:0:0:0:
64,184,30909,1,0,0:0:0:0:
76,208,31012,1,0,0:0:0:0:
88,232,31116,1,0,0:0:0:0:
92,256,31219,1,0,0:0:0:0:
88,280,31323,1,0,0:0:0:0:
80,304,31426,6,0,P|77:343|88:374,3,52.5
176,328,31840,2,0,B|228:342|228:342|281:326,1,105
368,376,32254,1,0,0:0:0:0:
380,352,32358,1,0,0:0:0:0:
380,324,32461,1,0,0:0:0:0:
376,300,32565,1,0,0:0:0:0:
364,276,32668,1,0,0:0:0:0:
352,252,32772,1,0,0:0:0:0:
348,228,32875,1,0,0:0:0:0:
352,204,32979,1,0,0:0:0:0:
360,180,33082,6,0,L|341:73,1,105
440,224,33496,2,0,L|514:210,1,52.5
268,152,33703,2,0,L|193:165,1,52.5
132,108,33910,1,0,0:0:0:0:
120,132,34014,1,0,0:0:0:0:
116,156,34117,1,0,0:0:0:0:
120,184,34221,1,0,0:0:0:0:
132,208,34324,1,0,0:0:0:0:
224,64,34531,1,0,0:0:0:0:
44,264,34738,6,0,P|84:300|232:244,1,210
300,180,35359,1,0,0:0:0:0:
320,164,35463,1,0,0:0:0:0:
344,152,35566,1,0,0:0:0:0:
368,144,35670,1,0,0:0:0:0:
392,140,35773,1,0,0:0:0:0:
420,144,35877,1,0,0:0:0:0:
444,152,35980,1,0,0:0:0:0:
468,164,36084,1,0,0:0:0:0:
488,180,36187,2,0,L|476:246,1,52.5
364,360,36394,6,0,L|384:245,1,105
484,340,36808,1,0,0:0:0:0:
240,272,37015,1,0,0:0:0:0:
224,252,37119,1,0,0:0:0:0:
212,228,37222,1,0,0:0:0:0:
204,204,37326,1,0,0:0:0:0:
200,180,37429,1,0,0:0:0:0:
204,152,37533,1,0,0:0:0:0:
212,128,37636,1,0,0:0:0:0:
224,104,37740,1,0,0:0:0:0:
240,84,37843,2,0,L|306:95,1,52.5
77,105,38050,6,0,L|128:114,3,52.5
0,56,38465,2,0,B|-14:108|-14:108|0:157,1,105
52,252,38879,1,0,0:0:0:0:
76,264,38983,1,0,0:0:0:0:
104,264,39086,1,0,0:0:0:0:
128,260,39190,1,0,0:0:0:0:
152,248,39293,1,0,0:0:0:0:
176,236,39397,1,0,0:0:0:0:
200,232,39500,1,0,0:0:0:0:
224,236,39604,1,0,0:0:0:0:
248,244,39707,6,0,L|354:225,1,105
200,316,40121,2,0,B|196:344|196:344|200:372,1,52.5
260,152,40328,2,0,B|264:124|264:124|260:96,1,52.5
176,128,40535,1,0,0:0:0:0:
153,140,40638,1,0,0:0:0:0:
130,132,40742,1,0,0:0:0:0:
113,112,40845,1,0,0:0:0:0:
118,85,40949,2,0,L|124:49,5,26.25
0,200,41363,6,0,L|22:73,1,105
88,244,41777,2,0,L|65:370,1,105
88,368,42087,1,0,0:0:0:0:
112,380,42191,1,0,0:0:0:0:
140,380,42294,1,0,0:0:0:0:
164,372,42398,1,0,0:0:0:0:
184,356,42501,1,0,0:0:0:0:
204,340,42605,1,0,0:0:0:0:
228,328,42708,1,0,0:0:0:0:
256,328,42812,1,0,0:0:0:0:
280,340,42915,1,0,0:0:0:0:
300,356,43019,6,0,P|350:370|420:339,1,105
288,248,43433,2,0,P|238:234|168:265,1,105
168,264,43743,1,0,0:0:0:0:
144,272,43847,1,0,0:0:0:0:
116,272,43950,1,0,0:0:0:0:
92,264,44054,1,0,0:0:0:0:
68,252,44157,1,0,0:0:0:0:
52,228,44261,1,0,0:0:0:0:
44,204,44364,1,0,0:0:0:0:
48,176,44468,1,0,0:0:0:0:
60,152,44571,1,0,0:0:0:0:
80,136,44675,6,0,L|68:69,3,52.5
176,168,45089,2,0,L|147:6,2,157.5
248,56,45917,1,0,0:0:0:0:
272,44,46020,1,0,0:0:0:0:
296,40,46124,1,0,0:0:0:0:
324,44,46227,1,0,0:0:0:0:
348,56,46331,6,0,L|359:122,3,52.5
456,156,46745,2,0,L|428:0,2,157.5
480,284,47573,1,0,0:0:0:0:
456,296,47676,1,0,0:0:0:0:
432,300,47780,1,0,0:0:0:0:
404,296,47883,1,0,0:0:0:0:
380,284,47987,6,0,L|368:217,3,52.5
276,232,48401,2,0,P|236:184|136:184,2,157.5
200,284,49229,2,0,P|182:261|156:284,3,52.5
144,348,49643,5,0,0:0:0:0:
24,180,49850,1,0,0:0:0:0:
145,178,50057,2,0,P|222:177|276:232,2,157.5
162,266,50885,2,0,P|187:262|200:284,3,52.5
44,260,51299,5,0,0:0:0:0:
48,232,51403,1,0,0:0:0:0:
53,204,51506,1,0,0:0:0:0:
58,177,51610,1,0,0:0:0:0:
64,152,51713,2,0,L|88:-20,2,157.5
148,176,52541,2,0,L|163:89,3,52.5
172,40,52955,5,0,0:0:0:0:
192,24,53059,1,0,0:0:0:0:
216,16,53162,1,0,0:0:0:0:
244,16,53266,1,0,0:0:0:0:
268,24,53369,1,0,0:0:0:0:
288,40,53473,1,0,0:0:0:0:
308,56,53576,1,0,0:0:0:0:
328,72,53680,1,0,0:0:0:0:
352,84,53783,1,0,0:0:0:0:
376,88,53887,1,0,0:0:0:0:
400,84,53990,1,0,0:0:0:0:
424,72,54094,1,0,0:0:0:0:
444,56,54197,6,0,L|452:12,6,26.25
428,172,54611,1,0,0:0:0:0:
56,192,67239,6,0,L|68:121,1,52.5
44,112,67446,1,0,0:0:0:0:
124,268,67653,1,0,0:0:0:0:
184,192,67860,6,0,B|276:164|276:252|372:192,1,188.999994232178
448,256,68688,2,0,P|464:216|444:132,1,125.999996154785
296,108,69516,2,0,L|366:95,2,62.9999980773926
216,24,70344,2,0,L|145:36,2,62.9999980773926
96,108,70965,1,0,0:0:0:0:
16,48,71172,2,0,P|-2:107|15:166,1,125.999996154785
100,264,72000,2,0,P|107:229|92:191,2,62.9999980773926
40,364,72828,2,0,L|181:338,1,125.999996154785
256,376,73656,1,0,0:0:0:0:
328,192,74484,6,0,B|236:164|236:252|140:192,1,188.999994232178
64,256,75312,2,0,P|48:216|68:132,1,125.999996154785
216,108,76140,2,0,L|145:95,2,62.9999980773926
296,24,76968,2,0,L|366:36,2,62.9999980773926
416,108,77589,1,0,0:0:0:0:
496,48,77796,2,0,P|514:107|496:166,1,125.999996154785
412,264,78624,2,0,P|405:229|420:191,2,62.9999980773926
480,336,79453,5,0,0:0:0:0:
356,120,79867,1,0,0:0:0:0:
248,340,80281,1,0,0:0:0:0:
176,272,80488,2,0,L|190:189,1,52.5
168,188,80695,1,0,0:0:0:0:
248,340,80902,1,0,0:0:0:0:
356,120,81109,5,0,0:0:0:0:
428,196,81316,2,0,B|428:216|440:228|440:228|428:240|428:252,4,62.9999980773926
356,32,81937,1,0,0:0:0:0:
208,92,82144,2,0,L|298:76,1,62.9999980773926
144,0,82351,2,0,L|53:15,1,62.9999980773926
4,104,82558,2,0,L|66:93,1,62.9999980773926
140,196,82765,5,0,0:0:0:0:
172,288,82972,2,0,B|152:288|140:300|140:300|128:288|116:288,4,62.9999980773926
66,93,83593,1,0,0:0:0:0:
24,184,83800,2,0,P|17:219|32:264,1,62.9999980773926
152,120,84007,2,0,P|157:89|150:58,1,62.9999980773926
24,184,84214,2,0,P|17:219|32:264,1,62.9999980773926
172,288,84421,5,0,0:0:0:0:
240,208,84628,2,0,B|260:208|272:196|272:196|284:208|296:208,4,62.9999980773926
112,364,85249,1,0,0:0:0:0:
109,277,85456,2,0,L|215:295,1,62.9999980773926
329,384,85663,2,0,L|222:365,1,62.9999980773926
396,328,85870,2,0,L|458:338,1,62.9999980773926
512,212,86077,5,0,0:0:0:0:
428,184,86284,2,0,B|428:196|416:208|416:208|428:220|428:240,4,62.9999980773926
428,12,86905,1,0,0:0:0:0:
396,92,87112,2,0,P|431:97|475:81,1,62.9999980773926
292,8,87319,2,0,P|261:1|230:6,1,62.9999980773926
396,92,87526,2,0,P|431:97|475:81,1,62.9999980773926
216,24,87733,6,0,L|254:240,1,188.999994232178
256,240,88147,1,0,0:0:0:0:
348,180,88354,1,0,0:0:0:0:
148,244,88561,1,0,0:0:0:0:
248,336,88768,1,0,0:0:0:0:
263,333,88872,1,0,0:0:0:0:
275,331,88975,1,0,0:0:0:0:
287,329,89079,1,0,0:0:0:0:
299,326,89182,1,0,0:0:0:0:
148,244,89389,5,0,0:0:0:0:
68,300,89596,2,0,B|68:312|56:324|56:324|68:336|68:356,4,62.9999980773926
256,240,90217,1,0,0:0:0:0:
148,144,90424,1,0,0:0:0:0:
136,147,90527,1,0,0:0:0:0:
124,149,90631,1,0,0:0:0:0:
112,151,90734,1,0,0:0:0:0:
97,154,90838,1,0,0:0:0:0:
256,240,91045,5,0,0:0:0:0:
256,104,91252,2,0,P|251:69|267:25,1,62.9999980773926
347,212,91459,2,0,P|352:243|345:274,1,62.9999980773926
256,104,91666,2,0,P|251:69|267:25,1,62.9999980773926
348,0,91873,1,0,0:0:0:0:
404,120,92080,1,0,0:0:0:0:
389,117,92184,1,0,0:0:0:0:
377,115,92287,1,0,0:0:0:0:
365,113,92391,1,0,0:0:0:0:
353,110,92494,1,0,0:0:0:0:
160,76,92701,5,0,0:0:0:0:
132,168,92908,2,0,B|148:168|161:180|161:180|176:168|188:168,4,62.9999980773926
272,124,93529,1,0,0:0:0:0:
284,148,93633,1,0,0:0:0:0:
284,176,93736,1,0,0:0:0:0:
280,200,93840,1,0,0:0:0:0:
268,224,93943,1,0,0:0:0:0:
256,248,94047,1,0,0:0:0:0:
252,272,94150,1,0,0:0:0:0:
256,296,94254,1,0,0:0:0:0:
272,332,94357,5,0,0:0:0:0:
96,104,100982,6,0,L|113:5,1,78.7500030040742
169,169,101396,2,0,L|155:246,1,78.7500030040742
81,105,101810,2,0,L|98:6,1,78.7500030040742
154,170,102224,2,0,L|140:247,1,78.7500030040742
209,317,102638,6,0,P|161:341|113:333,1,78.7500030040742
61,289,103052,2,0,P|50:236|70:192,1,78.7500030040742
205,333,103466,2,0,P|157:357|109:349,1,78.7500030040742
57,305,103880,2,0,P|46:252|66:208,1,78.7500030040742
252,76,104294,6,0,L|219:261,1,157.500006008148
296,312,104915,1,0,0:0:0:0:
408,224,105122,2,0,L|301:205,1,78.7500030040742
400,320,105536,2,0,L|506:338,1,78.7500030040742
256,192,105950,12,0,107192,0:0:0:0:
40,140,107606,6,0,P|60:68|208:76,1,231.000007049561
268,132,108227,1,0,0:0:0:0:
300,164,108331,1,0,0:0:0:0:
316,208,108434,1,0,0:0:0:0:
316,256,108538,1,0,0:0:0:0:
300,300,108641,1,0,0:0:0:0:
268,332,108745,1,0,0:0:0:0:
228,352,108848,1,0,0:0:0:0:
181,351,108951,1,0,0:0:0:0:
136,335,109055,1,0,0:0:0:0:
100,305,109158,1,0,0:0:0:0:
81,264,109262,5,0,0:0:0:0:
80,216,109366,1,0,0:0:0:0:
100,176,109469,1,0,0:0:0:0:
136,148,109573,1,0,0:0:0:0:
180,140,109676,1,0,0:0:0:0:
224,148,109780,1,0,0:0:0:0:
260,180,109883,1,0,0:0:0:0:
288,216,109987,1,0,0:0:0:0:
320,248,110090,5,0,0:0:0:0:
360,272,110194,1,0,0:0:0:0:
404,272,110297,1,0,0:0:0:0:
444,248,110401,1,0,0:0:0:0:
472,212,110504,1,0,0:0:0:0:
472,164,110608,1,0,0:0:0:0:
448,124,110711,1,0,0:0:0:0:
408,104,110815,1,0,0:0:0:0:
364,116,110918,6,0,L|337:-33,1,115.50000352478
320,248,111332,2,0,L|340:361,1,115.50000352478
364,116,111746,1,0,0:0:0:0:
332,152,111850,1,0,0:0:0:0:
288,164,111953,1,0,0:0:0:0:
240,164,112057,1,0,0:0:0:0:
196,148,112160,1,0,0:0:0:0:
160,116,112264,1,0,0:0:0:0:
116,104,112367,1,0,0:0:0:0:
72,116,112471,1,0,0:0:0:0:
40,148,112574,6,0,P|22:204|66:283,1,115.50000352478
76,284,112885,1,0,0:0:0:0:
76,284,112988,1,0,0:0:0:0:
116,200,113195,1,0,0:0:0:0:
4,336,113402,1,0,0:0:0:0:
4,336,113506,2,0,P|37:366|156:323,1,173.250005287171
184,304,113920,1,0,0:0:0:0:
228,288,114023,1,0,0:0:0:0:
272,300,114127,1,0,0:0:0:0:
304,336,114230,6,0,L|445:310,1,115.50000352478
464,304,114541,1,0,0:0:0:0:
496,268,114644,1,0,0:0:0:0:
508,224,114748,1,0,0:0:0:0:
488,180,114851,1,0,0:0:0:0:
452,152,114955,1,0,0:0:0:0:
408,148,115058,1,0,0:0:0:0:
368,168,115162,1,0,0:0:0:0:
336,200,115265,1,0,0:0:0:0:
300,232,115369,1,0,0:0:0:0:
256,252,115473,1,0,0:0:0:0:
212,252,115576,1,0,0:0:0:0:
168,232,115680,1,0,0:0:0:0:
136,200,115783,1,0,0:0:0:0:
120,156,115887,5,0,0:0:0:0:
120,112,115990,1,0,0:0:0:0:
140,68,116094,1,0,0:0:0:0:
240,92,116301,2,0,L|229:148,2,57.7500017623902
362,48,116715,1,0,0:0:0:0:
354,91,116818,1,0,0:0:0:0:
346,138,116922,1,0,0:0:0:0:
338,182,117025,1,0,0:0:0:0:
330,229,117129,2,0,L|312:320,1,57.7500017623902
432,228,117336,2,0,L|443:171,1,57.7500017623902
496,364,117543,6,0,B|376:316|376:404|272:364,1,231.000007049561
168,284,118164,1,0,0:0:0:0:
168,284,118267,1,0,0:0:0:0:
168,284,118371,2,0,P|152:216|188:156,1,115.50000352478
272,232,118785,1,0,0:0:0:0:
140,96,118992,2,0,P|180:90|222:121,1,57.7500017623902
315,156,119199,5,0,0:0:0:0:
355,180,119302,1,0,0:0:0:0:
403,176,119406,1,0,0:0:0:0:
431,140,119509,1,0,0:0:0:0:
431,92,119613,1,0,0:0:0:0:
399,60,119716,1,0,0:0:0:0:
351,64,119820,1,0,0:0:0:0:
319,96,119923,1,0,0:0:0:0:
279,120,120027,1,0,0:0:0:0:
235,120,120130,1,0,0:0:0:0:
195,96,120234,1,0,0:0:0:0:
256,32,120441,6,0,L|256:-12,2,26.25
120,40,120855,6,0,P|97:101|132:164,1,125.999996154785
36,284,121269,1,0,0:0:0:0:
72,248,121372,1,0,0:0:0:0:
120,236,121476,1,0,0:0:0:0:
168,252,121579,1,0,0:0:0:0:
204,288,121683,1,0,0:0:0:0:
240,320,121786,1,0,0:0:0:0:
289,331,121890,1,0,0:0:0:0:
336,320,121993,1,0,0:0:0:0:
376,288,122097,1,0,0:0:0:0:
256,96,122304,5,0,0:0:0:0:
256,96,122407,1,0,0:0:0:0:
256,96,122511,1,0,0:0:0:0:
288,236,122718,1,0,0:0:0:0:
372,160,122925,1,0,0:0:0:0:
168,64,123132,2,0,B|160:95|160:95|171:144,1,62.9999980773926
344,60,123339,5,0,0:0:0:0:
396,56,123442,1,0,0:0:0:0:
444,76,123546,1,0,0:0:0:0:
472,120,123649,1,0,0:0:0:0:
476,172,123753,1,0,0:0:0:0:
460,220,123856,1,0,0:0:0:0:
420,252,123960,1,0,0:0:0:0:
372,264,124063,1,0,0:0:0:0:
324,248,124167,6,0,P|260:228|192:264,1,125.999996154785
171,283,124477,1,0,0:0:0:0:
135,318,124581,2,0,P|76:338|18:318,1,125.999996154785
64,180,124995,2,0,L|82:282,1,62.9999980773926
152,128,125202,2,0,L|133:25,1,62.9999980773926
32,16,125409,1,0,0:0:0:0:
83,25,125513,1,0,0:0:0:0:
134,34,125616,1,0,0:0:0:0:
185,43,125720,1,0,0:0:0:0:
236,52,125823,5,0,0:0:0:0:
412,96,126030,1,0,0:0:0:0:
324,168,126237,1,0,0:0:0:0:
412,0,126444,1,0,0:0:0:0:
492,172,126651,1,0,0:0:0:0:
456,208,126755,1,0,0:0:0:0:
408,224,126858,1,0,0:0:0:0:
360,208,126962,1,0,0:0:0:0:
324,168,127065,5,0,0:0:0:0:
280,144,127169,1,0,0:0:0:0:
232,132,127272,1,0,0:0:0:0:
184,144,127376,1,0,0:0:0:0:
140,168,127479,2,0,P|120:236|160:304,1,125.999996154785
184,312,127790,1,0,0:0:0:0:
184,312,127893,1,0,0:0:0:0:
280,340,128100,6,0,P|287:298|266:263,1,62.9999980773926
324,168,128307,2,0,L|233:183,1,62.9999980773926
56,96,128514,2,0,L|146:80,1,62.9999980773926
196,28,128721,1,0,0:0:0:0:
240,4,128825,1,0,0:0:0:0:
280,0,128928,1,0,0:0:0:0:
332,8,129032,1,0,0:0:0:0:
372,36,129135,1,0,0:0:0:0:
280,96,129342,1,0,0:0:0:0:
480,8,129549,5,0,0:0:0:0:
480,60,129653,1,0,0:0:0:0:
456,104,129756,1,0,0:0:0:0:
416,132,129860,1,0,0:0:0:0:
376,164,129963,1,0,0:0:0:0:
352,208,130067,1,0,0:0:0:0:
352,260,130170,1,0,0:0:0:0:
376,304,130274,1,0,0:0:0:0:
416,332,130377,2,0,P|344:312|272:360,1,125.999996154785
256,360,130688,1,0,0:0:0:0:
213,330,130791,6,0,P|154:311|95:332,1,125.999996154785
52,360,131102,1,0,0:0:0:0:
12,328,131205,2,0,L|30:225,1,62.9999980773926
128,116,131412,1,0,0:0:0:0:
128,116,131516,1,0,0:0:0:0:
128,116,131619,1,0,0:0:0:0:
208,192,131826,1,0,0:0:0:0:
36,140,132033,2,0,P|29:106|50:55,1,62.9999980773926
208,16,132240,2,0,P|214:49|193:100,1,62.9999980773926
83,213,132447,6,0,L|240:185,1,125.999996154785
242,226,132758,1,0,0:0:0:0:
242,226,132861,1,0,0:0:0:0:
300,144,133068,1,0,0:0:0:0:
328,100,133172,1,0,0:0:0:0:
376,84,133275,1,0,0:0:0:0:
424,100,133379,1,0,0:0:0:0:
448,144,133482,1,0,0:0:0:0:
444,196,133586,1,0,0:0:0:0:
404,228,133689,2,0,L|411:271,4,31.4999990386963
492,312,134103,6,0,B|388:264|388:356|288:308,1,210
144,264,134725,1,0,0:0:0:0:
184,236,134828,1,0,0:0:0:0:
192,284,134932,1,0,0:0:0:0:
156,320,135035,1,0,0:0:0:0:
108,308,135139,1,0,0:0:0:0:
88,264,135242,1,0,0:0:0:0:
112,220,135346,1,0,0:0:0:0:
156,192,135449,1,0,0:0:0:0:
168,144,135553,1,0,0:0:0:0:
156,96,135656,1,0,0:0:0:0:
112,60,135760,5,0,0:0:0:0:
8,212,135967,1,0,0:0:0:0:
84,140,136174,2,0,L|245:168,1,125.999996154785
228,116,136484,1,0,0:0:0:0:
268,88,136588,1,0,0:0:0:0:
320,88,136691,1,0,0:0:0:0:
364,112,136795,1,0,0:0:0:0:
384,160,136898,1,0,0:0:0:0:
376,212,137002,1,0,0:0:0:0:
344,248,137105,1,0,0:0:0:0:
332,296,137209,1,0,0:0:0:0:
352,344,137312,1,0,0:0:0:0:
396,364,137416,6,0,P|456:356|492:276,1,125.999996154785
492,256,137726,1,0,0:0:0:0:
492,256,137830,1,0,0:0:0:0:
232,164,138037,2,0,L|310:177,1,62.9999980773926
364,112,138244,1,0,0:0:0:0:
344,68,138347,1,0,0:0:0:0:
300,48,138451,1,0,0:0:0:0:
248,48,138554,1,0,0:0:0:0:
208,76,138658,1,0,0:0:0:0:
172,112,138761,1,0,0:0:0:0:
128,140,138865,1,0,0:0:0:0:
76,140,138968,1,0,0:0:0:0:
32,112,139072,5,0,0:0:0:0:
103,36,139279,1,0,0:0:0:0:
12,208,139486,2,0,B|4:240|4:240|16:292,1,62.9999980773926
168,380,139693,2,0,B|176:348|176:348|164:296,1,62.9999980773926
16,356,139900,2,0,L|94:342,3,62.9999980773926
128,236,140314,1,0,0:0:0:0:
176,224,140417,1,0,0:0:0:0:
224,236,140521,1,0,0:0:0:0:
256,276,140624,1,0,0:0:0:0:
268,324,140728,6,0,L|410:298,1,105
400,335,141038,1,0,0:0:0:0:
340,160,141349,1,0,0:0:0:0:
340,160,141452,1,0,0:0:0:0:
340,160,141556,2,0,L|323:254,1,52.5
277,32,141763,2,0,L|268:84,1,52.5
196,140,141970,2,0,L|179:234,1,52.5
140,40,142177,2,0,L|130:91,1,52.5
96,276,142384,5,0,0:0:0:0:
24,192,142591,1,0,0:0:0:0:
24,344,142798,1,0,0:0:0:0:
56,368,142901,1,0,0:0:0:0:
96,376,143005,1,0,0:0:0:0:
136,368,143108,1,0,0:0:0:0:
172,344,143212,2,0,P|206:339|242:355,3,52.5
320,376,143626,2,0,P|354:381|390:365,3,52.5
344,284,144040,6,0,L|369:138,1,105
340,144,144351,2,0,P|280:116|172:168,1,157.5
172,176,144765,1,0,0:0:0:0:
172,176,144868,1,0,0:0:0:0:
104,88,145075,1,0,0:0:0:0:
268,208,145282,1,0,0:0:0:0:
108,324,145489,1,0,0:0:0:0:
256,192,145696,12,0,147352,0:0:0:0:
256,128,160601,5,0,0:0:0:0:
256,128,161015,1,0,0:0:0:0:
316,260,161222,1,0,0:0:0:0:
256,128,161636,1,0,0:0:0:0:
196,260,161843,1,0,0:0:0:0:
256,332,162050,1,0,0:0:0:0:
256,128,162257,5,0,0:0:0:0:
256,128,162671,1,0,0:0:0:0:
388,68,162878,1,0,0:0:0:0:
256,128,163292,1,0,0:0:0:0:
388,188,163499,1,0,0:0:0:0:
256,24,163706,1,0,0:0:0:0:
256,128,163913,5,0,0:0:0:0:
256,128,164327,1,0,0:0:0:0:
124,68,164534,1,0,0:0:0:0:
256,128,164948,1,0,0:0:0:0:
124,188,165155,1,0,0:0:0:0:
256,24,165362,1,0,0:0:0:0:
256,244,165569,5,0,0:0:0:0:
256,244,165983,1,0,0:0:0:0:
112,316,166190,1,0,0:0:0:0:
256,244,166604,1,0,0:0:0:0:
112,316,166811,1,0,0:0:0:0:
192,376,167018,1,0,0:0:0:0:
256,244,167225,5,0,0:0:0:0:
256,244,167639,1,0,0:0:0:0:
400,316,167846,1,0,0:0:0:0:
256,244,168260,1,0,0:0:0:0:
400,316,168467,1,0,0:0:0:0:
320,376,168674,1,0,0:0:0:0:
256,152,168881,5,0,0:0:0:0:
256,152,169295,1,0,0:0:0:0:
392,56,169502,1,0,0:0:0:0:
256,152,169916,1,0,0:0:0:0:
120,56,170123,1,0,0:0:0:0:
52,148,170330,2,0,B|47:177|47:177|56:220,1,52.5
144,288,170537,6,0,L|165:165,1,105
368,288,170951,2,0,L|346:165,1,105
164,308,171365,2,0,L|185:185,1,105
348,308,171779,2,0,L|326:185,1,105
256,192,172193,12,0,173436,0:0:0:0:
256,192,173852,5,0,0:0:0:0:
392,20,174266,1,0,0:0:0:0:
432,56,174369,1,0,0:0:0:0:
444,108,174473,1,0,0:0:0:0:
432,160,174576,1,0,0:0:0:0:
392,200,174680,1,0,0:0:0:0:
352,240,174783,1,0,0:0:0:0:
364,292,174887,1,0,0:0:0:0:
416,312,174990,1,0,0:0:0:0:
456,272,175094,1,0,0:0:0:0:
444,220,175197,1,0,0:0:0:0:
392,200,175301,1,0,0:0:0:0:
340,208,175404,1,0,0:0:0:0:
304,248,175508,5,0,0:0:0:0:
152,292,175715,1,0,0:0:0:0:
304,368,175922,1,0,0:0:0:0:
216,176,176129,1,0,0:0:0:0:
216,176,176232,1,0,0:0:0:0:
216,176,176336,2,0,L|113:194,1,68.2499968757631
84,303,176543,2,0,L|151:291,1,68.2499968757631
16,208,176750,1,0,0:0:0:0:
188,376,176957,1,0,0:0:0:0:
232,348,177060,1,0,0:0:0:0:
244,296,177164,5,0,0:0:0:0:
284,332,177267,1,0,0:0:0:0:
336,344,177371,1,0,0:0:0:0:
388,332,177474,1,0,0:0:0:0:
428,292,177578,2,0,P|452:228|404:148,1,136.499993751526
388,132,177888,1,0,0:0:0:0:
388,132,177992,5,0,0:0:0:0:
352,232,178199,1,0,0:0:0:0:
480,80,178406,1,0,0:0:0:0:
440,44,178509,1,0,0:0:0:0:
388,32,178613,1,0,0:0:0:0:
336,44,178716,1,0,0:0:0:0:
296,80,178820,5,0,0:0:0:0:
180,110,179027,2,0,B|172:76|172:76|180:44,1,68.2499968757631
268,196,179234,1,0,0:0:0:0:
232,156,179337,1,0,0:0:0:0:
180,144,179441,1,0,0:0:0:0:
128,152,179544,1,0,0:0:0:0:
92,192,179648,5,0,0:0:0:0:
80,244,179751,1,0,0:0:0:0:
96,296,179855,1,0,0:0:0:0:
132,336,179958,1,0,0:0:0:0:
184,348,180062,1,0,0:0:0:0:
236,332,180165,1,0,0:0:0:0:
276,296,180269,1,0,0:0:0:0:
332,296,180372,1,0,0:0:0:0:
376,328,180476,6,0,L|406:154,1,136.499993751526
408,156,180786,1,0,0:0:0:0:
408,156,180890,1,0,0:0:0:0:
340,32,181097,1,0,0:0:0:0:
340,32,181200,1,0,0:0:0:0:
340,32,181304,6,0,L|322:130,1,68.2499968757631
496,188,181511,2,0,B|504:154|504:154|496:122,1,68.2499968757631
304,192,181718,1,0,0:0:0:0:
264,228,181821,1,0,0:0:0:0:
212,240,181925,1,0,0:0:0:0:
160,228,182028,1,0,0:0:0:0:
120,192,182132,5,0,0:0:0:0:
212,136,182339,1,0,0:0:0:0:
76,284,182546,1,0,0:0:0:0:
40,244,182649,1,0,0:0:0:0:
28,192,182753,1,0,0:0:0:0:
40,140,182856,1,0,0:0:0:0:
76,100,182960,1,0,0:0:0:0:
223,68,183167,1,0,0:0:0:0:
223,68,183270,1,0,0:0:0:0:
223,68,183374,2,0,L|203:178,3,68.2499968757631
304,192,183788,5,0,0:0:0:0:
348,228,183892,1,0,0:0:0:0:
404,228,183995,1,0,0:0:0:0:
448,192,184099,2,0,P|368:224|336:356,1,204.749990627289
328,384,184513,1,0,0:0:0:0:
328,384,184616,1,0,0:0:0:0:
448,312,184823,1,0,0:0:0:0:
252,216,185030,1,0,0:0:0:0:
384,116,185237,2,0,L|293:131,1,68.2499968757631
117,239,185444,6,0,L|270:211,1,136.499993751526
296,248,185755,1,0,0:0:0:0:
296,248,185858,1,0,0:0:0:0:
144,136,186065,1,0,0:0:0:0:
88,132,186169,1,0,0:0:0:0:
40,160,186272,1,0,0:0:0:0:
12,208,186376,1,0,0:0:0:0:
12,264,186479,1,0,0:0:0:0:
32,316,186583,1,0,0:0:0:0:
80,344,186686,2,0,L|131:334,4,34.1249984378815
184,376,187100,6,0,B|280:320|280:408|388:372,1,204.749990627289
464,316,187514,2,0,P|472:278|445:224,1,68.2499968757631
388,184,187721,1,0,0:0:0:0:
336,164,187825,1,0,0:0:0:0:
284,184,187928,5,0,0:0:0:0:
336,200,188032,1,0,0:0:0:0:
388,184,188135,1,0,0:0:0:0:
416,136,188239,1,0,0:0:0:0:
404,84,188342,1,0,0:0:0:0:
364,44,188446,1,0,0:0:0:0:
308,44,188549,1,0,0:0:0:0:
268,80,188653,1,0,0:0:0:0:
228,44,188756,6,0,P|168:24|64:88,1,136.499993751526
20,120,189170,1,0,0:0:0:0:
176,188,189377,1,0,0:0:0:0:
176,188,189481,1,0,0:0:0:0:
176,188,189584,2,0,L|158:89,1,68.2499968757631
100,264,189791,2,0,B|92:296|92:296|100:330,1,68.2499968757631
200,296,189998,1,0,0:0:0:0:
240,264,190102,1,0,0:0:0:0:
292,252,190205,1,0,0:0:0:0:
344,264,190309,1,0,0:0:0:0:
388,300,190412,6,0,L|358:130,1,136.499993751526
404,128,190723,1,0,0:0:0:0:
404,128,190826,1,0,0:0:0:0:
480,44,191033,1,0,0:0:0:0:
432,16,191137,1,0,0:0:0:0:
376,16,191240,5,0,0:0:0:0:
328,40,191344,1,0,0:0:0:0:
292,80,191447,1,0,0:0:0:0:
256,124,191551,1,0,0:0:0:0:
220,164,191654,1,0,0:0:0:0:
168,180,191758,1,0,0:0:0:0:
112,180,191861,1,0,0:0:0:0:
60,164,191965,1,0,0:0:0:0:
24,124,192068,5,0,0:0:0:0:
140,68,192275,1,0,0:0:0:0:
220,164,192482,2,0,L|203:258,1,68.2499968757631
92,344,192689,2,0,L|103:276,1,68.2499968757631
300,316,192896,1,0,0:0:0:0:
300,316,193000,1,0,0:0:0:0:
300,316,193104,2,0,L|286:390,1,68.2499968757631
208,232,193311,1,0,0:0:0:0:
248,196,193414,1,0,0:0:0:0:
300,184,193518,1,0,0:0:0:0:
352,200,193621,1,0,0:0:0:0:
388,236,193725,6,0,L|466:249,2,52.5
428,148,194035,2,0,P|443:89|401:20,1,105
288,88,194346,1,0,0:0:0:0:
288,88,194449,1,0,0:0:0:0:
288,88,194553,6,0,L|370:102,1,52.5
156,0,194760,2,0,L|238:14,1,52.5
184,112,194967,1,0,0:0:0:0:
156,144,195070,1,0,0:0:0:0:
116,160,195174,1,0,0:0:0:0:
76,160,195277,1,0,0:0:0:0:
40,140,195381,5,0,0:0:0:0:
100,72,195588,1,0,0:0:0:0:
207,9,195795,1,0,0:0:0:0:
246,24,195898,1,0,0:0:0:0:
275,55,196002,1,0,0:0:0:0:
289,94,196105,1,0,0:0:0:0:
281,133,196209,2,0,B|276:160|276:160|284:196,3,52.5
424,148,196623,2,0,L|358:159,1,52.5
272,276,196830,2,0,L|337:264,1,52.5
424,320,197037,5,0,0:0:0:0:
468,288,197140,1,0,0:0:0:0:
484,236,197244,1,0,0:0:0:0:
468,184,197347,1,0,0:0:0:0:
424,148,197451,5,0,0:0:0:0:
380,116,197554,1,0,0:0:0:0:
368,64,197658,1,0,0:0:0:0:
396,20,197761,1,0,0:0:0:0:
452,12,197865,5,0,0:0:0:0:
500,40,197968,1,0,0:0:0:0:
508,96,198072,1,0,0:0:0:0:
476,140,198175,1,0,0:0:0:0:
424,148,198279,5,0,0:0:0:0:
380,116,198382,1,0,0:0:0:0:
340,76,198486,1,0,0:0:0:0:
288,64,198589,1,0,0:0:0:0:
240,92,198693,5,0,0:0:0:0:
196,64,198796,1,0,0:0:0:0:
140,72,198900,1,0,0:0:0:0:
104,112,199003,1,0,0:0:0:0:
100,168,199107,5,0,0:0:0:0:
128,216,199210,1,0,0:0:0:0:
176,244,199314,1,0,0:0:0:0:
204,292,199417,1,0,0:0:0:0:
200,348,199521,5,0,0:0:0:0:
168,384,199624,1,0,0:0:0:0:
112,384,199728,1,0,0:0:0:0:
68,352,199831,1,0,0:0:0:0:
60,300,199935,2,0,L|162:318,1,68.2499968757631
300,232,200142,2,0,L|256:224,2,34.1249984378815
400,344,200349,1,0,0:0:0:0:
256,192,200556,12,0,203661,0:0:0:0:
