osu file format v14

[General]
AudioFilename: audio.mp3
AudioLeadIn: 0
PreviewTime: 68210
Countdown: 1
SampleSet: Soft
StackLeniency: 0.2
Mode: 0
LetterboxInBreaks: 0
WidescreenStoryboard: 0

[Editor]
Bookmarks: 147190,160440,200189,225032,226688
DistanceSpacing: 1
BeatDivisor: 4
GridSize: 8
TimelineZoom: 1

[Metadata]
Title:Rengetsu Ouka
TitleUnicode:Rengetsu Ouka
Artist:Kozato
ArtistUnicode:Kozato
Creator:_Antyla
Version:O
Source:
Tags:
BeatmapID:1714009
BeatmapSetID:817365

[Difficulty]
HPDrainRate:5
CircleSize:4
OverallDifficulty:8
ApproachRate:8
SliderMultiplier:1.4
SliderTickRate:1

[Events]
//Background and Video events
0,0,"yu.jpg",0,0
//Break Periods
2,41393,54314
//Storyboard Layer 0 (Background)
//Storyboard Layer 1 (Fail)
//Storyboard Layer 2 (Pass)
//Storyboard Layer 3 (Foreground)
//Storyboard Sound Samples

[TimingPoints]
1445,414.050100062108,4,2,1,70,1,0

[HitObjects]
256,88,1032,5,0,0:0:0:0:
256,120,1135,1,0,0:0:0:0:
256,152,1238,1,0,0:0:0:0:
256,184,1342,1,0,0:0:0:0:
256,216,1445,1,0,0:0:0:0:
88,200,2894,5,0,0:0:0:0:
120,208,2997,1,0,0:0:0:0:
152,216,3100,1,0,0:0:0:0:
158,76,3307,1,0,0:0:0:0:
158,83,3514,1,0,0:0:0:0:
158,90,3721,1,0,0:0:0:0:
272,170,3928,5,0,0:0:0:0:
374,149,4135,1,0,0:0:0:0:
268,149,4342,1,0,0:0:0:0:
370,172,4549,1,0,0:0:0:0:
112,312,4756,1,0,0:0:0:0:
288,312,4963,5,0,0:0:0:0:
252,312,5067,1,0,0:0:0:0:
140,156,5376,1,0,0:0:0:0:
183,125,5480,1,0,0:0:0:0:
229,149,5583,1,0,0:0:0:0:
380,52,5790,1,0,0:0:0:0:
359,118,5997,1,0,0:0:0:0:
339,185,6204,1,0,0:0:0:0:
316,251,6411,1,0,0:0:0:0:
254,218,6618,1,0,0:0:0:0:
192,184,6825,1,0,0:0:0:0:
130,149,7032,1,0,0:0:0:0:
130,149,7238,1,0,0:0:0:0:
130,149,7445,1,0,0:0:0:0:
359,58,7652,5,0,0:0:0:0:
391,90,7756,1,0,0:0:0:0:
357,120,7859,1,0,0:0:0:0:
389,152,7963,1,0,0:0:0:0:
359,185,8066,1,0,0:0:0:0:
357,291,8276,1,0,0:0:0:0:
389,323,8380,1,0,0:0:0:0:
135,224,8687,5,0,0:0:0:0:
135,189,8790,1,0,0:0:0:0:
135,153,8894,1,0,0:0:0:0:
135,83,9100,1,0,0:0:0:0:
135,83,9307,1,0,0:0:0:0:
194,120,9514,1,0,0:0:0:0:
250,161,9721,1,0,0:0:0:0:
402,22,9928,1,0,0:0:0:0:
381,284,10135,5,0,0:0:0:0:
336,291,10238,1,0,0:0:0:0:
291,298,10341,1,0,0:0:0:0:
246,306,10445,1,0,0:0:0:0:
201,313,10548,1,0,0:0:0:0:
53,260,10755,1,0,0:0:0:0:
53,189,10963,1,0,0:0:0:0:
122,189,11169,1,0,0:0:0:0:
122,119,11376,1,0,0:0:0:0:
345,126,11583,5,0,0:0:0:0:
311,138,11692,1,0,0:0:0:0:
311,316,12003,1,0,0:0:0:0:
395,281,12106,1,0,0:0:0:0:
353,298,12209,1,0,0:0:0:0:
311,208,12417,1,0,0:0:0:0:
311,138,12624,1,0,0:0:0:0:
311,68,12831,1,0,0:0:0:0:
99,132,13038,1,0,0:0:0:0:
30,132,13245,5,0,0:0:0:0:
64,161,13348,1,0,0:0:0:0:
99,132,13452,1,0,0:0:0:0:
30,132,13659,5,0,0:0:0:0:
64,161,13762,1,0,0:0:0:0:
99,132,13866,1,0,0:0:0:0:
133,161,13969,1,0,0:0:0:0:
168,132,14073,1,0,0:0:0:0:
202,161,14176,1,0,0:0:0:0:
237,132,14280,1,0,0:0:0:0:
271,161,14383,1,0,0:0:0:0:
306,132,14487,1,0,0:0:0:0:
340,161,14590,1,0,0:0:0:0:
375,132,14694,1,0,0:0:0:0:
401,0,16143,5,0,0:0:0:0:
400,35,16247,1,0,0:0:0:0:
401,69,16350,1,0,0:0:0:0:
400,139,16558,1,0,0:0:0:0:
401,207,16764,1,0,0:0:0:0:
401,276,16971,1,0,0:0:0:0:
401,345,17178,1,0,0:0:0:0:
332,345,17385,1,0,0:0:0:0:
332,275,17592,1,0,0:0:0:0:
332,205,17799,1,0,0:0:0:0:
332,134,18007,1,0,0:0:0:0:
193,134,18214,5,0,0:0:0:0:
228,134,18317,1,0,0:0:0:0:
228,270,18628,1,0,0:0:0:0:
228,225,18731,1,0,0:0:0:0:
246,267,18835,1,0,0:0:0:0:
328,225,19042,1,0,0:0:0:0:
407,270,19249,1,0,0:0:0:0:
487,225,19456,1,0,0:0:0:0:
487,63,19663,1,0,0:0:0:0:
487,63,19870,1,0,0:0:0:0:
487,63,20077,1,0,0:0:0:0:
487,63,20284,1,0,0:0:0:0:
487,63,20491,1,0,0:0:0:0:
487,63,20698,1,0,0:0:0:0:
397,252,20905,5,0,0:0:0:0:
370,215,21008,1,0,0:0:0:0:
342,178,21112,1,0,0:0:0:0:
309,210,21215,1,0,0:0:0:0:
275,241,21319,1,0,0:0:0:0:
86,70,21526,5,0,0:0:0:0:
120,70,21629,1,0,0:0:0:0:
101,288,21940,1,0,0:0:0:0:
131,254,22043,1,0,0:0:0:0:
162,220,22147,1,0,0:0:0:0:
224,153,22354,1,0,0:0:0:0:
286,86,22561,1,0,0:0:0:0:
347,18,22768,1,0,0:0:0:0:
347,18,22975,1,0,0:0:0:0:
347,18,23182,1,0,0:0:0:0:
385,100,23389,5,0,0:0:0:0:
355,135,23493,1,0,0:0:0:0:
375,175,23596,1,0,0:0:0:0:
405,140,23700,1,0,0:0:0:0:
385,100,23803,1,0,0:0:0:0:
315,159,24010,1,0,0:0:0:0:
245,217,24217,1,0,0:0:0:0:
177,273,24424,1,0,0:0:0:0:
107,332,24631,5,0,0:0:0:0:
107,297,24734,1,0,0:0:0:0:
107,262,24838,1,0,0:0:0:0:
107,227,24941,1,0,0:0:0:0:
107,192,25045,1,0,0:0:0:0:
107,157,25148,1,0,0:0:0:0:
107,122,25252,1,0,0:0:0:0:
107,87,25355,1,0,0:0:0:0:
107,52,25459,1,0,0:0:0:0:
142,52,25563,1,0,0:0:0:0:
176,52,25666,1,0,0:0:0:0:
211,52,25770,1,0,0:0:0:0:
245,59,25873,1,0,0:0:0:0:
278,69,25977,1,0,0:0:0:0:
310,80,26080,1,0,0:0:0:0:
341,95,26184,1,0,0:0:0:0:
368,116,26287,1,0,0:0:0:0:
387,145,26391,1,0,0:0:0:0:
396,178,26494,1,0,0:0:0:0:
398,213,26598,1,0,0:0:0:0:
392,247,26701,1,0,0:0:0:0:
379,280,26805,1,0,0:0:0:0:
360,309,26908,1,0,0:0:0:0:
333,332,27012,1,0,0:0:0:0:
301,346,27115,1,0,0:0:0:0:
266,354,27219,1,0,0:0:0:0:
231,354,27322,1,0,0:0:0:0:
196,353,27426,1,0,0:0:0:0:
161,349,27529,1,0,0:0:0:0:
180,319,27633,1,0,0:0:0:0:
155,280,27737,1,0,0:0:0:0:
180,242,27840,1,0,0:0:0:0:
155,217,27944,1,0,0:0:0:0:
371,81,28565,5,0,0:0:0:0:
341,100,28668,1,0,0:0:0:0:
371,133,28772,1,0,0:0:0:0:
341,152,28875,1,0,0:0:0:0:
300,130,28979,1,0,0:0:0:0:
270,149,29082,1,0,0:0:0:0:
300,182,29186,1,0,0:0:0:0:
270,201,29289,1,0,0:0:0:0:
228,182,29393,1,0,0:0:0:0:
198,201,29496,1,0,0:0:0:0:
228,234,29600,1,0,0:0:0:0:
103,68,29807,1,0,0:0:0:0:
103,68,30014,1,0,0:0:0:0:
75,318,30221,5,0,0:0:0:0:
75,272,30324,1,0,0:0:0:0:
75,226,30428,1,0,0:0:0:0:
116,215,30532,1,0,0:0:0:0:
116,261,30635,1,0,0:0:0:0:
116,307,30739,1,0,0:0:0:0:
159,318,30842,1,0,0:0:0:0:
159,272,30945,1,0,0:0:0:0:
159,226,31049,1,0,0:0:0:0:
203,215,31153,1,0,0:0:0:0:
203,261,31256,1,0,0:0:0:0:
203,307,31360,1,0,0:0:0:0:
246,318,31463,1,0,0:0:0:0:
246,272,31566,1,0,0:0:0:0:
246,226,31670,1,0,0:0:0:0:
397,74,31877,1,0,0:0:0:0:
74,67,32084,5,0,0:0:0:0:
97,105,32188,1,0,0:0:0:0:
137,101,32291,1,0,0:0:0:0:
114,63,32395,1,0,0:0:0:0:
72,80,32498,1,0,0:0:0:0:
95,118,32602,1,0,0:0:0:0:
135,114,32705,1,0,0:0:0:0:
112,76,32809,1,0,0:0:0:0:
68,87,32912,1,0,0:0:0:0:
300,263,33119,1,0,0:0:0:0:
337,74,33326,5,0,0:0:0:0:
308,109,33429,1,0,0:0:0:0:
280,72,33533,1,0,0:0:0:0:
256,110,33636,1,0,0:0:0:0:
224,142,33740,1,0,0:0:0:0:
191,173,33843,1,0,0:0:0:0:
146,163,33947,1,0,0:0:0:0:
164,204,34050,1,0,0:0:0:0:
185,244,34154,1,0,0:0:0:0:
385,237,34361,1,0,0:0:0:0:
245,42,34569,1,0,0:0:0:0:
265,158,34776,1,0,0:0:0:0:
360,85,34983,1,0,0:0:0:0:
98,305,35190,5,0,0:0:0:0:
133,305,35293,1,0,0:0:0:0:
168,305,35397,1,0,0:0:0:0:
203,305,35500,1,0,0:0:0:0:
238,305,35604,1,0,0:0:0:0:
273,305,35707,1,0,0:0:0:0:
308,305,35811,1,0,0:0:0:0:
343,305,35914,1,0,0:0:0:0:
378,305,36018,1,0,0:0:0:0:
413,305,36121,1,0,0:0:0:0:
448,305,36225,1,0,0:0:0:0:
448,119,36432,1,0,0:0:0:0:
448,119,36639,1,0,0:0:0:0:
112,254,36846,5,0,0:0:0:0:
94,212,36949,1,0,0:0:0:0:
133,189,37053,1,0,0:0:0:0:
173,169,37156,1,0,0:0:0:0:
142,134,37260,1,0,0:0:0:0:
103,157,37363,1,0,0:0:0:0:
74,121,37467,1,0,0:0:0:0:
43,87,37570,1,0,0:0:0:0:
76,55,37674,1,0,0:0:0:0:
113,30,37777,1,0,0:0:0:0:
152,6,37881,1,0,0:0:0:0:
144,50,37984,1,0,0:0:0:0:
186,66,38088,1,0,0:0:0:0:
154,98,38191,1,0,0:0:0:0:
186,130,38295,1,0,0:0:0:0:
453,43,38502,1,0,0:0:0:0:
337,275,38709,5,0,0:0:0:0:
291,278,38813,1,0,0:0:0:0:
246,283,38916,1,0,0:0:0:0:
257,238,39020,1,0,0:0:0:0:
275,196,39123,1,0,0:0:0:0:
314,219,39227,1,0,0:0:0:0:
347,249,39330,1,0,0:0:0:0:
307,271,39434,1,0,0:0:0:0:
266,290,39537,1,0,0:0:0:0:
124,101,39744,1,0,0:0:0:0:
371,50,39951,5,0,0:0:0:0:
371,64,40055,1,0,0:0:0:0:
371,77,40158,1,0,0:0:0:0:
371,91,40262,1,0,0:0:0:0:
371,104,40365,1,0,0:0:0:0:
371,118,40469,1,0,0:0:0:0:
371,130,40572,1,0,0:0:0:0:
371,144,40676,1,0,0:0:0:0:
371,157,40779,1,0,0:0:0:0:
371,171,40883,1,0,0:0:0:0:
336,171,40986,1,0,0:0:0:0:
301,171,41090,1,0,0:0:0:0:
266,171,41193,1,0,0:0:0:0:
196,190,55064,5,0,0:0:0:0:
265,190,55168,1,0,0:0:0:0:
229,190,55272,1,0,0:0:0:0:
229,190,55685,1,0,0:0:0:0:
393,58,56099,1,0,0:0:0:0:
393,58,56306,1,0,0:0:0:0:
393,58,56513,1,0,0:0:0:0:
393,58,56720,1,0,0:0:0:0:
393,58,56927,1,0,0:0:0:0:
335,140,57134,5,0,0:0:0:0:
375,161,57238,1,0,0:0:0:0:
414,183,57341,1,0,0:0:0:0:
376,209,57445,1,0,0:0:0:0:
338,234,57548,1,0,0:0:0:0:
376,259,57652,1,0,0:0:0:0:
413,284,57755,1,0,0:0:0:0:
116,297,58376,5,0,0:0:0:0:
108,251,58480,1,0,0:0:0:0:
98,206,58583,1,0,0:0:0:0:
76,117,58790,1,0,0:0:0:0:
76,117,58997,1,0,0:0:0:0:
76,117,59204,1,0,0:0:0:0:
329,113,59412,1,0,0:0:0:0:
233,253,59619,5,0,0:0:0:0:
259,289,59722,1,0,0:0:0:0:
287,253,59826,1,0,0:0:0:0:
287,253,60033,1,0,0:0:0:0:
287,253,60240,1,0,0:0:0:0:
256,176,61068,1,0,0:0:0:0:
447,78,61689,5,0,0:0:0:0:
360,49,61792,1,0,0:0:0:0:
401,65,61895,1,0,0:0:0:0:
401,65,62310,1,0,0:0:0:0:
370,244,62724,1,0,0:0:0:0:
319,195,62931,1,0,0:0:0:0:
269,244,63138,1,0,0:0:0:0:
218,195,63345,1,0,0:0:0:0:
168,244,63552,1,0,0:0:0:0:
117,195,63759,5,0,0:0:0:0:
139,234,63863,1,0,0:0:0:0:
162,195,63966,1,0,0:0:0:0:
185,234,64070,1,0,0:0:0:0:
218,195,64173,1,0,0:0:0:0:
241,234,64277,1,0,0:0:0:0:
264,195,64380,1,0,0:0:0:0:
154,70,65208,1,0,0:0:0:0:
422,70,66036,1,0,0:0:0:0:
148,237,66657,1,0,0:0:0:0:
148,254,66761,1,0,0:0:0:0:
148,271,66864,1,0,0:0:0:0:
415,137,67071,5,0,0:0:0:0:
369,137,67175,1,0,0:0:0:0:
323,137,67278,1,0,0:0:0:0:
323,137,67485,1,0,0:0:0:0:
323,137,67693,1,0,0:0:0:0:
117,113,68314,5,0,0:0:0:0:
163,144,68417,1,0,0:0:0:0:
130,98,68521,1,0,0:0:0:0:
404,62,68935,1,0,0:0:0:0:
404,315,69349,1,0,0:0:0:0:
351,268,69556,1,0,0:0:0:0:
298,221,69763,1,0,0:0:0:0:
244,175,69970,1,0,0:0:0:0:
191,129,70177,1,0,0:0:0:0:
281,129,70384,5,0,0:0:0:0:
302,156,70487,1,0,0:0:0:0:
276,180,70591,1,0,0:0:0:0:
254,207,70694,1,0,0:0:0:0:
277,233,70798,1,0,0:0:0:0:
303,255,70901,1,0,0:0:0:0:
267,257,71005,1,0,0:0:0:0:
81,56,71626,5,0,0:0:0:0:
81,101,71730,1,0,0:0:0:0:
81,146,71833,1,0,0:0:0:0:
81,146,72040,1,0,0:0:0:0:
81,146,72247,1,0,0:0:0:0:
81,146,72454,1,0,0:0:0:0:
246,222,72661,1,0,0:0:0:0:
409,302,72868,1,0,0:0:0:0:
409,256,72972,1,0,0:0:0:0:
409,210,73075,1,0,0:0:0:0:
409,210,73282,1,0,0:0:0:0:
409,210,73489,1,0,0:0:0:0:
254,174,74317,5,0,0:0:0:0:
427,296,74938,5,0,0:0:0:0:
381,296,75042,1,0,0:0:0:0:
335,296,75145,1,0,0:0:0:0:
265,296,75559,1,0,0:0:0:0:
195,296,75974,1,0,0:0:0:0:
125,296,76181,1,0,0:0:0:0:
54,296,76388,1,0,0:0:0:0:
54,296,76595,1,0,0:0:0:0:
54,296,76802,1,0,0:0:0:0:
213,205,77009,5,0,0:0:0:0:
232,176,77112,1,0,0:0:0:0:
221,142,77216,1,0,0:0:0:0:
255,136,77319,1,0,0:0:0:0:
224,118,77423,1,0,0:0:0:0:
200,92,77526,1,0,0:0:0:0:
235,92,77630,1,0,0:0:0:0:
235,92,78458,1,0,0:0:0:0:
235,92,79286,1,0,0:0:0:0:
235,92,79908,1,0,0:0:0:0:
268,80,80011,1,0,0:0:0:0:
266,114,80114,1,0,0:0:0:0:
81,237,80321,5,0,0:0:0:0:
81,251,80425,1,0,0:0:0:0:
81,264,80528,1,0,0:0:0:0:
81,264,80735,1,0,0:0:0:0:
81,264,80942,1,0,0:0:0:0:
395,243,81149,5,0,0:0:0:0:
356,217,81253,1,0,0:0:0:0:
356,171,81356,1,0,0:0:0:0:
446,172,81563,1,0,0:0:0:0:
446,172,81770,1,0,0:0:0:0:
389,100,81977,1,0,0:0:0:0:
331,29,82184,1,0,0:0:0:0:
331,29,82391,1,0,0:0:0:0:
153,283,82805,5,0,0:0:0:0:
216,218,83012,1,0,0:0:0:0:
280,154,83219,1,0,0:0:0:0:
309,333,83633,5,0,0:0:0:0:
233,282,83840,1,0,0:0:0:0:
155,234,84047,1,0,0:0:0:0:
74,190,84255,1,0,0:0:0:0:
146,135,84462,1,0,0:0:0:0:
223,86,84669,1,0,0:0:0:0:
305,46,84876,1,0,0:0:0:0:
299,136,85083,1,0,0:0:0:0:
290,226,85290,1,0,0:0:0:0:
280,316,85497,1,0,0:0:0:0:
280,316,85704,1,0,0:0:0:0:
71,244,85911,5,0,0:0:0:0:
71,168,86118,1,0,0:0:0:0:
71,122,86221,1,0,0:0:0:0:
71,76,86325,1,0,0:0:0:0:
71,76,86532,1,0,0:0:0:0:
152,116,86739,1,0,0:0:0:0:
231,159,86946,1,0,0:0:0:0:
312,200,87153,1,0,0:0:0:0:
391,244,87360,1,0,0:0:0:0:
380,86,87567,1,0,0:0:0:0:
188,263,87774,5,0,0:0:0:0:
212,301,87877,1,0,0:0:0:0:
241,265,87981,1,0,0:0:0:0:
241,265,88188,1,0,0:0:0:0:
241,265,88395,1,0,0:0:0:0:
241,265,88602,1,0,0:0:0:0:
241,265,88809,1,0,0:0:0:0:
241,265,89016,1,0,0:0:0:0:
389,70,89430,5,0,0:0:0:0:
319,70,89637,1,0,0:0:0:0:
249,70,89844,1,0,0:0:0:0:
249,209,90258,5,0,0:0:0:0:
319,209,90465,1,0,0:0:0:0:
389,209,90672,1,0,0:0:0:0:
389,209,90879,1,0,0:0:0:0:
319,209,91086,1,0,0:0:0:0:
249,209,91293,1,0,0:0:0:0:
179,209,91500,1,0,0:0:0:0:
213,148,91707,1,0,0:0:0:0:
213,217,91914,1,0,0:0:0:0:
213,286,92121,1,0,0:0:0:0:
213,355,92328,1,0,0:0:0:0:
373,98,92536,5,0,0:0:0:0:
77,110,92743,1,0,0:0:0:0:
105,129,92846,1,0,0:0:0:0:
72,143,92950,1,0,0:0:0:0:
72,143,93157,1,0,0:0:0:0:
498,286,93364,5,0,0:0:0:0:
497,250,93467,1,0,0:0:0:0:
495,214,93571,1,0,0:0:0:0:
494,179,93674,1,0,0:0:0:0:
462,145,93778,1,0,0:0:0:0:
427,115,93881,1,0,0:0:0:0:
400,152,93985,1,0,0:0:0:0:
359,133,94088,1,0,0:0:0:0:
316,151,94192,1,0,0:0:0:0:
18,311,94813,5,0,0:0:0:0:
30,267,94916,1,0,0:0:0:0:
41,222,95020,1,0,0:0:0:0:
85,232,95123,1,0,0:0:0:0:
102,274,95227,1,0,0:0:0:0:
146,283,95330,1,0,0:0:0:0:
140,237,95434,1,0,0:0:0:0:
132,192,95537,1,0,0:0:0:0:
125,146,95641,1,0,0:0:0:0:
167,161,95744,1,0,0:0:0:0:
128,185,95848,1,0,0:0:0:0:
88,206,95951,1,0,0:0:0:0:
65,246,96055,1,0,0:0:0:0:
59,290,96158,1,0,0:0:0:0:
84,327,96262,1,0,0:0:0:0:
128,336,96365,1,0,0:0:0:0:
129,290,96469,1,0,0:0:0:0:
124,244,96573,1,0,0:0:0:0:
168,236,96676,1,0,0:0:0:0:
213,229,96780,1,0,0:0:0:0:
193,269,96883,1,0,0:0:0:0:
238,263,96987,1,0,0:0:0:0:
202,235,97090,1,0,0:0:0:0:
157,225,97194,1,0,0:0:0:0:
112,216,97297,1,0,0:0:0:0:
140,180,97401,1,0,0:0:0:0:
172,148,97504,1,0,0:0:0:0:
172,148,97711,1,0,0:0:0:0:
172,148,97918,1,0,0:0:0:0:
172,148,98125,1,0,0:0:0:0:
172,148,98332,5,0,0:0:0:0:
197,186,98436,1,0,0:0:0:0:
225,220,98539,1,0,0:0:0:0:
188,247,98643,1,0,0:0:0:0:
151,274,98746,1,0,0:0:0:0:
194,287,98850,1,0,0:0:0:0:
160,317,98953,1,0,0:0:0:0:
204,325,99057,1,0,0:0:0:0:
248,334,99160,1,0,0:0:0:0:
248,334,99471,1,0,0:0:0:0:
248,334,99781,1,0,0:0:0:0:
248,334,100092,1,0,0:0:0:0:
74,104,100402,5,0,0:0:0:0:
117,89,100506,1,0,0:0:0:0:
159,72,100609,1,0,0:0:0:0:
384,118,100817,5,0,0:0:0:0:
363,158,100920,1,0,0:0:0:0:
339,196,101024,1,0,0:0:0:0:
383,205,101127,1,0,0:0:0:0:
352,170,101231,1,0,0:0:0:0:
318,139,101334,1,0,0:0:0:0:
342,100,101438,1,0,0:0:0:0:
376,71,101541,1,0,0:0:0:0:
419,85,101645,1,0,0:0:0:0:
442,123,101748,1,0,0:0:0:0:
449,168,101852,1,0,0:0:0:0:
443,212,101955,1,0,0:0:0:0:
406,239,102059,1,0,0:0:0:0:
362,225,102162,1,0,0:0:0:0:
343,183,102266,1,0,0:0:0:0:
312,216,102369,1,0,0:0:0:0:
279,247,102473,1,0,0:0:0:0:
279,247,102680,1,0,0:0:0:0:
136,151,102886,5,0,0:0:0:0:
179,164,102990,1,0,0:0:0:0:
224,174,103093,1,0,0:0:0:0:
259,89,103301,5,0,0:0:0:0:
215,75,103404,1,0,0:0:0:0:
253,50,103508,1,0,0:0:0:0:
296,63,103611,1,0,0:0:0:0:
336,85,103715,1,0,0:0:0:0:
375,106,103818,1,0,0:0:0:0:
338,133,103922,1,0,0:0:0:0:
310,169,104025,1,0,0:0:0:0:
327,211,104129,1,0,0:0:0:0:
327,211,104957,1,0,0:0:0:0:
72,324,105578,5,0,0:0:0:0:
72,279,105681,1,0,0:0:0:0:
72,233,105785,1,0,0:0:0:0:
72,233,105992,1,0,0:0:0:0:
72,233,106199,1,0,0:0:0:0:
72,233,106406,1,0,0:0:0:0:
320,180,106613,5,0,0:0:0:0:
285,149,106717,1,0,0:0:0:0:
322,124,106820,1,0,0:0:0:0:
286,39,107027,1,0,0:0:0:0:
325,61,107131,1,0,0:0:0:0:
289,88,107234,1,0,0:0:0:0:
245,73,107338,1,0,0:0:0:0:
202,57,107441,1,0,0:0:0:0:
380,159,108062,5,0,0:0:0:0:
346,190,108166,1,0,0:0:0:0:
310,218,108269,1,0,0:0:0:0:
353,232,108373,1,0,0:0:0:0:
391,208,108476,1,0,0:0:0:0:
430,184,108580,1,0,0:0:0:0:
432,229,108683,1,0,0:0:0:0:
400,261,108787,1,0,0:0:0:0:
365,290,108891,1,0,0:0:0:0:
346,248,108994,1,0,0:0:0:0:
330,205,109098,1,0,0:0:0:0:
317,161,109201,1,0,0:0:0:0:
285,193,109305,1,0,0:0:0:0:
330,194,109408,1,0,0:0:0:0:
374,182,109512,1,0,0:0:0:0:
396,142,109615,1,0,0:0:0:0:
368,105,109719,1,0,0:0:0:0:
404,78,109822,1,0,0:0:0:0:
376,41,109926,1,0,0:0:0:0:
335,61,110029,1,0,0:0:0:0:
315,102,110133,1,0,0:0:0:0:
286,137,110236,1,0,0:0:0:0:
240,142,110340,1,0,0:0:0:0:
216,103,110443,1,0,0:0:0:0:
180,74,110547,1,0,0:0:0:0:
142,98,110650,1,0,0:0:0:0:
103,123,110754,1,0,0:0:0:0:
103,123,110961,1,0,0:0:0:0:
103,123,111168,1,0,0:0:0:0:
103,123,111375,1,0,0:0:0:0:
321,251,111582,5,0,0:0:0:0:
329,295,111685,1,0,0:0:0:0:
358,259,111789,1,0,0:0:0:0:
409,69,111996,5,0,0:0:0:0:
364,78,112099,1,0,0:0:0:0:
319,87,112203,1,0,0:0:0:0:
274,96,112306,1,0,0:0:0:0:
229,105,112410,1,0,0:0:0:0:
229,105,112720,1,0,0:0:0:0:
229,105,113031,1,0,0:0:0:0:
229,105,113342,1,0,0:0:0:0:
422,179,113652,5,0,0:0:0:0:
386,207,113756,1,0,0:0:0:0:
400,249,113859,1,0,0:0:0:0:
78,62,114066,5,0,0:0:0:0:
78,62,114273,1,0,0:0:0:0:
90,53,114377,1,0,0:0:0:0:
66,67,114480,1,0,0:0:0:0:
91,78,114584,1,0,0:0:0:0:
63,76,114687,1,0,0:0:0:0:
88,64,114791,1,0,0:0:0:0:
64,49,114894,1,0,0:0:0:0:
76,74,114998,1,0,0:0:0:0:
88,53,115101,1,0,0:0:0:0:
61,63,115205,1,0,0:0:0:0:
88,77,115308,1,0,0:0:0:0:
68,62,115412,1,0,0:0:0:0:
69,80,115515,1,0,0:0:0:0:
87,63,115619,1,0,0:0:0:0:
72,62,115722,1,0,0:0:0:0:
249,147,115929,1,0,0:0:0:0:
446,138,116136,5,0,0:0:0:0:
414,201,116240,1,0,0:0:0:0:
380,261,116343,1,0,0:0:0:0:
149,262,116550,5,0,0:0:0:0:
124,223,116654,1,0,0:0:0:0:
94,189,116757,1,0,0:0:0:0:
134,168,116861,1,0,0:0:0:0:
175,150,116964,1,0,0:0:0:0:
165,194,117068,1,0,0:0:0:0:
151,237,117172,1,0,0:0:0:0:
137,280,117275,1,0,0:0:0:0:
122,323,117379,1,0,0:0:0:0:
254,166,118207,1,0,0:0:0:0:
254,166,118828,5,0,0:0:0:0:
254,179,118931,1,0,0:0:0:0:
254,193,119035,1,0,0:0:0:0:
254,193,119242,1,0,0:0:0:0:
254,193,119449,1,0,0:0:0:0:
254,193,119656,1,0,0:0:0:0:
377,74,119863,1,0,0:0:0:0:
294,36,119966,1,0,0:0:0:0:
334,56,120069,1,0,0:0:0:0:
88,341,120277,5,0,0:0:0:0:
80,297,120381,1,0,0:0:0:0:
73,253,120484,1,0,0:0:0:0:
65,209,120588,1,0,0:0:0:0:
56,165,120691,1,0,0:0:0:0:
448,41,121312,5,0,0:0:0:0:
429,83,121416,1,0,0:0:0:0:
463,112,121519,1,0,0:0:0:0:
423,135,121623,1,0,0:0:0:0:
383,156,121726,1,0,0:0:0:0:
392,111,121830,1,0,0:0:0:0:
420,146,121933,1,0,0:0:0:0:
451,178,122037,1,0,0:0:0:0:
427,216,122140,1,0,0:0:0:0:
512,247,122244,1,0,0:0:0:0:
468,232,122348,1,0,0:0:0:0:
468,232,122554,1,0,0:0:0:0:
468,232,122761,1,0,0:0:0:0:
468,232,122968,1,0,0:0:0:0:
163,91,123175,5,0,0:0:0:0:
163,91,123382,1,0,0:0:0:0:
163,91,123589,1,0,0:0:0:0:
163,91,123796,1,0,0:0:0:0:
54,283,124003,5,0,0:0:0:0:
326,269,124210,1,0,0:0:0:0:
306,227,124314,1,0,0:0:0:0:
453,36,124624,5,0,0:0:0:0:
363,54,124727,1,0,0:0:0:0:
407,45,124831,1,0,0:0:0:0:
407,45,125038,1,0,0:0:0:0:
407,45,125245,1,0,0:0:0:0:
407,45,125453,1,0,0:0:0:0:
26,112,125660,5,0,0:0:0:0:
53,176,125867,1,0,0:0:0:0:
83,239,126074,1,0,0:0:0:0:
83,239,126281,1,0,0:0:0:0:
457,67,126695,5,0,0:0:0:0:
497,148,126902,1,0,0:0:0:0:
408,144,127005,1,0,0:0:0:0:
450,146,127109,1,0,0:0:0:0:
137,48,127316,5,0,0:0:0:0:
199,198,127523,1,0,0:0:0:0:
155,211,127626,1,0,0:0:0:0:
430,301,127937,5,0,0:0:0:0:
430,287,128040,1,0,0:0:0:0:
430,272,128144,1,0,0:0:0:0:
430,202,128351,1,0,0:0:0:0:
430,132,128558,1,0,0:0:0:0:
430,62,128765,1,0,0:0:0:0:
171,284,128972,1,0,0:0:0:0:
171,284,129179,1,0,0:0:0:0:
171,284,129386,5,0,0:0:0:0:
130,263,129489,1,0,0:0:0:0:
148,221,129593,1,0,0:0:0:0:
102,213,129697,1,0,0:0:0:0:
79,173,129800,1,0,0:0:0:0:
165,110,130007,1,0,0:0:0:0:
212,32,130214,1,0,0:0:0:0:
270,101,130421,1,0,0:0:0:0:
346,51,130628,1,0,0:0:0:0:
450,281,130835,5,0,0:0:0:0:
421,316,130939,1,0,0:0:0:0:
37,183,131249,5,0,0:0:0:0:
70,244,131353,1,0,0:0:0:0:
104,305,131456,1,0,0:0:0:0:
104,305,131663,1,0,0:0:0:0:
104,305,131870,1,0,0:0:0:0:
104,305,132077,1,0,0:0:0:0:
367,116,132284,1,0,0:0:0:0:
405,198,132491,5,0,0:0:0:0:
365,221,132595,1,0,0:0:0:0:
322,205,132698,1,0,0:0:0:0:
405,198,132905,5,0,0:0:0:0:
365,221,133009,1,0,0:0:0:0:
322,205,133112,1,0,0:0:0:0:
282,228,133216,1,0,0:0:0:0:
238,214,133319,1,0,0:0:0:0:
200,240,133423,1,0,0:0:0:0:
163,213,133526,1,0,0:0:0:0:
189,175,133630,1,0,0:0:0:0:
221,142,133734,1,0,0:0:0:0:
251,108,133837,1,0,0:0:0:0:
209,89,133941,1,0,0:0:0:0:
495,341,134562,5,0,0:0:0:0:
462,309,134665,1,0,0:0:0:0:
425,336,134769,1,0,0:0:0:0:
389,363,134872,1,0,0:0:0:0:
369,321,134976,1,0,0:0:0:0:
410,303,135079,1,0,0:0:0:0:
366,289,135183,1,0,0:0:0:0:
323,272,135286,1,0,0:0:0:0:
279,256,135390,1,0,0:0:0:0:
236,239,135493,1,0,0:0:0:0:
193,222,135597,1,0,0:0:0:0:
193,222,135804,1,0,0:0:0:0:
193,222,136011,1,0,0:0:0:0:
193,222,136218,1,0,0:0:0:0:
512,38,136425,5,0,0:0:0:0:
442,38,136632,1,0,0:0:0:0:
372,38,136839,1,0,0:0:0:0:
302,38,137046,1,0,0:0:0:0:
436,296,137253,5,0,0:0:0:0:
143,341,137460,1,0,0:0:0:0:
121,300,137563,1,0,0:0:0:0:
21,45,137874,5,0,0:0:0:0:
56,16,137978,1,0,0:0:0:0:
90,45,138081,1,0,0:0:0:0:
90,45,138288,1,0,0:0:0:0:
90,45,138495,1,0,0:0:0:0:
90,45,138702,1,0,0:0:0:0:
195,273,138909,5,0,0:0:0:0:
266,216,139116,1,0,0:0:0:0:
338,161,139323,1,0,0:0:0:0:
338,161,139530,1,0,0:0:0:0:
111,43,139944,5,0,0:0:0:0:
111,271,140151,1,0,0:0:0:0:
147,243,140255,1,0,0:0:0:0:
176,277,140358,1,0,0:0:0:0:
442,306,140565,5,0,0:0:0:0:
442,43,140772,1,0,0:0:0:0:
396,43,140876,1,0,0:0:0:0:
99,136,141185,5,0,0:0:0:0:
168,147,141290,1,0,0:0:0:0:
237,158,141393,1,0,0:0:0:0:
237,158,141600,1,0,0:0:0:0:
237,158,141807,1,0,0:0:0:0:
237,158,142015,1,0,0:0:0:0:
88,312,142222,1,0,0:0:0:0:
88,312,142429,1,0,0:0:0:0:
88,312,142636,5,0,0:0:0:0:
98,267,142739,1,0,0:0:0:0:
142,278,142843,1,0,0:0:0:0:
128,321,142946,1,0,0:0:0:0:
173,327,143050,1,0,0:0:0:0:
173,327,143257,1,0,0:0:0:0:
173,327,143464,1,0,0:0:0:0:
173,327,143671,1,0,0:0:0:0:
391,76,143878,5,0,0:0:0:0:
47,102,144085,1,0,0:0:0:0:
65,143,144188,1,0,0:0:0:0:
315,181,144499,5,0,0:0:0:0:
224,183,144602,1,0,0:0:0:0:
269,185,144706,1,0,0:0:0:0:
269,185,144913,1,0,0:0:0:0:
269,185,145120,1,0,0:0:0:0:
269,185,145327,1,0,0:0:0:0:
288,41,145534,1,0,0:0:0:0:
145,93,145741,5,0,0:0:0:0:
171,129,145844,1,0,0:0:0:0:
147,167,145948,1,0,0:0:0:0:
101,245,146155,5,0,0:0:0:0:
128,281,146259,1,0,0:0:0:0:
96,313,146362,1,0,0:0:0:0:
132,340,146466,1,0,0:0:0:0:
162,306,146569,1,0,0:0:0:0:
199,331,146673,1,0,0:0:0:0:
233,301,146776,1,0,0:0:0:0:
212,260,146880,1,0,0:0:0:0:
257,260,146983,1,0,0:0:0:0:
302,261,147087,1,0,0:0:0:0:
305,215,147190,1,0,0:0:0:0:
