osu file format v14

[General]
AudioFilename: audio.mp3
AudioLeadIn: 0
PreviewTime: 85618
Countdown: 0
SampleSet: Soft
StackLeniency: 0.5
Mode: 0
LetterboxInBreaks: 0
WidescreenStoryboard: 1

[Editor]
Bookmarks: 1088,18029,34971,51912,68853,77324,85794,102735,119677,128147
DistanceSpacing: 1.2
BeatDivisor: 4
GridSize: 32
TimelineZoom: 2.5

[Metadata]
Title:45nen no Yukizakura
TitleUnicode:四十五年ノ雪桜
Artist:Kozato
ArtistUnicode:Kozato
Creator:Linada
Version:Real's Hyper
Source:BMS
Tags:sakura hata no kokoro instrumental
BeatmapID:1220925
BeatmapSetID:574617

[Difficulty]
HPDrainRate:7
CircleSize:3.3
OverallDifficulty:6
ApproachRate:7.5
SliderMultiplier:1.32
SliderTickRate:1

[Events]
//Background and Video events
0,0,"ok.png",0,0
//Break Periods
2,69053,76499
//Storyboard Layer 0 (Background)
//Storyboard Layer 1 (Fail)
//Storyboard Layer 2 (Pass)
//Storyboard Layer 3 (Foreground)
//Storyboard Sound Samples

[TimingPoints]
30,352.941176470588,3,2,1,70,1,0
51912,-100,3,2,1,70,0,1
68853,-133.333333333333,3,2,1,40,0,0
77324,-133.333333333333,3,2,1,40,0,0
84735,-100,3,2,1,40,0,0
101677,-100,3,2,1,30,0,0
102206,-100,3,2,1,60,0,0
102735,-100,3,2,1,65,0,1
118618,-200,3,2,1,65,0,1
119147,-100,3,2,1,25,0,0
119677,-100,3,2,1,65,0,1
128147,-100,3,2,1,55,0,0
135647,-100,3,2,1,5,0,0

[Colours]
Combo1 : 255,190,159
Combo2 : 255,128,128
Combo3 : 188,188,222
Combo4 : 255,183,219

[HitObjects]
143,81,1088,6,0,P|177:137|162:199,1,132
119,267,1618,1,0,0:0:0:0:
163,332,1794,2,0,L|228:328,1,66
306,319,2147,2,0,B|338:305|370:319|370:319|401:333|434:319,2,132
148,350,3206,6,0,P|116:357|84:352,1,66
113,278,3559,2,0,P|82:269|57:248,1,66
119,197,3912,2,0,P|96:173|86:143,1,66
164,130,4265,1,0,0:0:0:0:
153,51,4441,1,0,0:0:0:0:
214,1,4618,1,0,0:0:0:0:
303,117,4971,2,0,L|285:151,2,33
381,126,5324,6,0,P|415:179|408:244,1,132
367,312,5853,1,0,0:0:0:0:
287,323,6029,2,0,P|254:315|221:317,1,66
145,332,6382,1,0,0:0:0:0:
65,332,6559,1,0,0:0:0:0:
48,255,6735,1,0,0:0:0:0:
85,184,6912,1,0,0:0:0:0:
81,104,7088,2,0,P|111:94|144:94,1,66
226,98,7441,5,0,0:0:0:0:
248,93,7529,1,0,0:0:0:0:
270,88,7618,2,0,L|302:80,2,33
262,167,7971,1,0,0:0:0:0:
317,222,8147,1,0,0:0:0:0:
394,203,8324,1,0,0:0:0:0:
462,165,8500,2,0,P|470:196|467:229,1,66
415,290,8853,2,0,P|383:297|356:317,1,66
283,348,9206,1,0,0:0:0:0:
204,352,9382,1,0,0:0:0:0:
129,320,9559,6,0,P|82:278|83:214,1,132
119,142,10088,1,0,0:0:0:0:
188,102,10265,2,0,L|253:91,1,66
329,74,10618,2,0,P|391:93|424:149,2,132
174,106,11677,6,0,P|148:85|116:76,1,66
39,48,12029,2,0,P|34:81|41:113,1,66
56,193,12382,2,0,P|86:181|110:158,1,66
175,107,12735,1,0,0:0:0:0:
195,183,12912,1,0,0:0:0:0:
172,258,13088,1,0,0:0:0:0:
305,343,13441,1,0,0:0:0:0:
330,335,13529,1,0,0:0:0:0:
351,319,13618,1,0,0:0:0:0:
366,297,13706,1,0,0:0:0:0:
372,271,13794,5,0,0:0:0:0:
339,198,13971,2,0,L|341:165,2,33
280,251,14324,1,0,0:0:0:0:
204,276,14500,2,0,P|171:269|140:259,1,66
89,200,14853,1,0,0:0:0:0:
86,121,15029,1,0,0:0:0:0:
135,59,15206,1,0,0:0:0:0:
212,45,15382,1,0,0:0:0:0:
291,50,15559,2,0,L|302:114,1,66
310,194,15912,6,0,L|316:227,4,33
232,174,16441,1,0,0:0:0:0:
154,149,16618,2,0,P|121:149|89:158,1,66
57,232,16971,1,0,0:0:0:0:
35,309,17147,1,0,0:0:0:0:
102,351,17324,1,0,0:0:0:0:
164,301,17500,1,0,0:0:0:0:
135,227,17677,1,0,0:0:0:0:
277,290,18029,6,0,P|341:287|381:236,1,132
384,158,18559,1,0,0:0:0:0:
328,100,18735,2,0,P|297:87|264:84,1,66
189,108,19088,2,0,P|128:130|63:125,2,132
147,254,20147,6,0,P|197:295|224:355,1,132
305,364,20677,1,0,0:0:0:0:
380,341,20853,2,0,L|390:275,1,66
391,196,21206,1,0,0:0:0:0:
353,126,21382,1,0,0:0:0:0:
280,92,21559,2,0,B|216:71|153:103,1,132
84,145,22088,1,0,0:0:0:0:
26,200,22265,6,0,L|-6:192,4,33
102,221,22794,1,0,0:0:0:0:
177,242,22971,2,0,P|208:250|236:268,1,66
305,311,23324,1,0,0:0:0:0:
379,284,23500,1,0,0:0:0:0:
410,211,23677,1,0,0:0:0:0:
383,136,23853,1,0,0:0:0:0:
323,81,24029,2,0,P|292:68|259:67,1,66
184,89,24382,6,0,L|142:140,1,66
236,152,24735,2,0,L|225:217,1,66
313,180,25088,2,0,L|336:241,1,66
367,314,25441,1,0,0:0:0:0:
293,343,25618,1,0,0:0:0:0:
266,342,25706,1,0,0:0:0:0:
239,338,25794,2,0,L|206:331,4,33
257,260,26324,1,0,0:0:0:0:
213,192,26500,6,0,P|148:182|89:209,1,132
24,254,27029,1,0,0:0:0:0:
10,176,27206,2,0,L|23:111,1,66
62,42,27559,2,0,P|122:18|185:31,2,132
174,154,28618,6,0,P|234:177|298:164,1,132
362,117,29147,1,0,0:0:0:0:
440,108,29324,2,0,P|451:138|452:171,1,66
422,246,29677,1,0,0:0:0:0:
357,291,29853,1,0,0:0:0:0:
278,296,30029,2,0,P|214:281|149:293,1,132
92,349,30559,1,0,0:0:0:0:
69,274,30735,5,0,0:0:0:0:
79,249,30824,1,0,0:0:0:0:
83,223,30912,2,0,L|81:190,2,33
161,208,31265,1,0,0:0:0:0:
238,201,31441,2,0,P|269:193|299:178,1,66
371,145,31794,2,0,P|411:195|473:216,2,132
252,37,32853,6,0,P|220:36|187:40,1,66
116,77,33206,2,0,P|99:104|86:135,1,66
76,214,33559,2,0,P|92:242|112:268,1,66
181,308,33912,2,0,P|246:300|310:314,2,132
286,190,34971,6,0,P|351:195|405:159,2,132
262,33,36029,2,0,P|199:55|134:55,1,132
57,38,36559,1,0,0:0:0:0:
8,100,36735,2,0,L|10:165,1,66
15,244,37088,6,0,P|25:308|78:344,2,132
161,188,38147,2,0,P|193:183|223:171,1,66
282,118,38500,2,0,P|313:104|345:101,1,66
417,67,38853,1,0,0:0:0:0:
424,92,38941,1,0,0:0:0:0:
423,118,39029,1,0,0:0:0:0:
414,143,39118,1,0,0:0:0:0:
396,162,39206,6,0,P|384:226|406:287,2,132
238,178,40265,2,0,L|256:241,1,66
208,304,40618,2,0,L|144:287,1,66
113,215,40971,2,0,L|158:166,1,66
238,178,41324,5,0,0:0:0:0:
292,120,41500,1,0,0:0:0:0:
282,41,41677,1,0,0:0:0:0:
216,0,41853,1,0,0:0:0:0:
141,26,42029,1,0,0:0:0:0:
114,101,42206,1,0,0:0:0:0:
157,165,42382,2,0,P|113:214|50:231,2,132
307,114,43441,6,0,P|338:121|371:116,1,66
427,172,43794,2,0,P|419:203|424:235,1,66
369,292,44147,2,0,P|336:284|304:289,1,66
231,319,44500,1,0,0:0:0:0:
151,322,44677,1,0,0:0:0:0:
79,289,44853,1,0,0:0:0:0:
79,289,45206,1,0,0:0:0:0:
151,322,45382,1,0,0:0:0:0:
190,252,45559,6,0,P|208:225|215:193,1,66
246,118,45912,2,0,P|277:126|309:121,1,66
371,73,46265,1,0,0:0:0:0:
449,66,46441,1,0,0:0:0:0:
506,120,46618,1,0,0:0:0:0:
510,198,46794,1,0,0:0:0:0:
478,274,46971,2,0,P|453:294|423:307,1,66
346,325,47324,1,0,0:0:0:0:
319,325,47412,1,0,0:0:0:0:
292,321,47500,1,0,0:0:0:0:
267,310,47588,1,0,0:0:0:0:
247,291,47677,5,0,0:0:0:0:
226,214,47853,1,0,0:0:0:0:
252,139,48029,1,0,0:0:0:0:
309,83,48206,2,0,P|339:68|372:66,2,66
252,139,48735,1,0,0:0:0:0:
181,176,48911,1,0,0:0:0:0:
102,171,49087,1,0,0:0:0:0:
32,129,49265,2,0,P|11:105|0:74,2,66
102,171,49794,6,0,L|99:236,1,66
179,242,50147,2,0,L|181:176,1,66
221,107,50500,1,0,0:0:0:0:
292,72,50677,1,0,0:0:0:0:
370,61,50853,2,0,L|435:56,2,66
337,132,51382,2,0,P|352:195|406:231,1,132
486,229,51912,5,0,0:0:0:0:
449,298,52088,1,0,0:0:0:0:
373,320,52264,1,0,0:0:0:0:
294,305,52441,1,0,0:0:0:0:
213,312,52618,2,0,P|181:315|150:326,1,66
75,355,52971,5,0,0:0:0:0:
40,284,53147,1,0,0:0:0:0:
90,221,53324,2,0,P|89:189|75:159,1,66
6,118,53677,2,0,P|27:94|57:81,1,66
135,98,54029,5,0,0:0:0:0:
210,121,54206,1,0,0:0:0:0:
287,106,54382,1,0,0:0:0:0:
349,57,54559,1,0,0:0:0:0:
427,52,54736,2,0,P|439:83|441:116,1,66
452,195,55088,6,0,P|427:255|368:281,1,132
221,340,55794,1,0,0:0:0:0:
198,328,55882,1,0,0:0:0:0:
180,310,55970,1,0,0:0:0:0:
168,287,56058,1,0,0:0:0:0:
163,261,56146,5,0,0:0:0:0:
142,183,56324,1,0,0:0:0:0:
148,103,56500,1,0,0:0:0:0:
218,140,56677,1,0,0:0:0:0:
240,155,56765,1,0,0:0:0:0:
264,165,56853,2,0,L|296:171,2,33
283,87,57206,5,0,0:0:0:0:
357,113,57382,1,0,0:0:0:0:
398,179,57559,2,0,P|399:212|393:245,1,66
336,299,57912,1,0,0:0:0:0:
257,310,58088,1,0,0:0:0:0:
230,310,58177,1,0,0:0:0:0:
202,312,58265,6,0,P|139:299|97:249,2,132
221,151,59324,6,0,L|191:210,1,66
131,157,59677,2,0,L|161:98,1,66
136,23,60029,1,0,0:0:0:0:
84,84,60206,1,0,0:0:0:0:
7,105,60382,5,0,0:0:0:0:
11,185,60559,1,0,0:0:0:0:
49,253,60735,1,0,0:0:0:0:
114,297,60912,1,0,0:0:0:0:
187,324,61088,2,0,P|220:317|252:324,1,66
330,303,61441,5,0,0:0:0:0:
310,225,61618,1,0,0:0:0:0:
337,151,61794,2,0,L|402:144,1,66
415,65,62147,2,0,L|349:71,1,66
270,60,62500,5,0,0:0:0:0:
192,52,62677,1,0,0:0:0:0:
113,64,62853,1,0,0:0:0:0:
43,101,63029,1,0,0:0:0:0:
15,175,63206,2,0,L|45:233,1,66
122,212,63559,6,0,B|154:198|186:212|186:212|217:226|250:212,1,132
402,168,64265,1,0,0:0:0:0:
418,188,64353,1,0,0:0:0:0:
426,212,64441,1,0,0:0:0:0:
426,238,64529,1,0,0:0:0:0:
418,263,64618,6,0,P|397:288|371:307,1,66
294,324,64971,1,0,0:0:0:0:
215,312,65147,1,0,0:0:0:0:
190,303,65235,1,0,0:0:0:0:
163,303,65324,1,0,0:0:0:0:
138,313,65412,1,0,0:0:0:0:
121,333,65500,1,0,0:0:0:0:
41,317,65677,6,0,P|55:286|55:254,1,66
111,198,66029,2,0,P|98:169|96:136,1,66
153,80,66382,2,0,L|219:80,1,66
298,81,66735,6,0,L|357:109,1,66
304,168,67088,2,0,L|341:222,1,66
266,246,67441,2,0,L|270:311,1,66
194,294,67794,5,0,0:0:0:0:
194,294,68853,5,0,0:0:0:0:
368,49,77324,6,0,P|413:69|461:59,2,99.0000037765504
249,47,78382,2,0,P|205:65|157:57,2,99.0000037765504
307,152,79441,6,0,L|317:200,1,49.5000018882752
257,200,79794,2,0,L|241:247,1,49.5000018882752
190,217,80147,2,0,L|153:250,1,49.5000018882752
123,301,80500,1,0,0:0:0:0:
123,301,80677,1,0,0:0:0:0:
123,301,80853,1,0,0:0:0:0:
226,358,81206,2,0,L|275:359,1,49.5000018882752
334,366,81559,6,0,P|319:319|333:272,1,99.0000037765504
359,218,82088,1,0,0:0:0:0:
385,163,82265,2,0,P|397:142|400:118,1,49.5000018882752
395,59,82618,2,0,L|346:49,1,49.5000018882752
287,42,82971,1,0,0:0:0:0:
170,56,83324,2,0,L|151:101,1,49.5000018882752
141,160,83677,5,0,0:0:0:0:
143,219,83853,2,0,L|123:234,2,24.7500009441376
194,249,84206,1,0,0:0:0:0:
250,263,84382,2,0,P|274:266|297:276,1,49.5000018882752
368,314,84735,5,0,0:0:0:0:
365,234,84912,1,0,0:0:0:0:
386,158,85088,1,0,0:0:0:0:
435,95,85265,2,0,P|372:79|319:114,1,132
251,154,85794,5,0,0:0:0:0:
174,176,85971,1,0,0:0:0:0:
96,156,86147,2,0,L|96:90,1,66
18,109,86500,2,0,L|18:175,1,66
33,252,86853,5,0,0:0:0:0:
111,262,87029,1,0,0:0:0:0:
179,299,87206,2,0,P|208:316|231:340,1,66
310,339,87559,2,0,P|332:315|360:299,1,66
436,273,87912,5,0,0:0:0:0:
418,195,88088,1,0,0:0:0:0:
405,116,88265,2,0,L|339:116,1,66
274,70,88618,2,0,L|208:70,1,66
131,93,88971,6,0,P|142:158|120:219,1,132
211,350,89677,1,0,0:0:0:0:
235,340,89765,1,0,0:0:0:0:
261,339,89853,1,0,0:0:0:0:
286,345,89941,1,0,0:0:0:0:
308,358,90029,5,0,0:0:0:0:
386,348,90206,1,0,0:0:0:0:
434,285,90382,1,0,0:0:0:0:
417,207,90559,1,0,0:0:0:0:
417,180,90647,1,0,0:0:0:0:
427,155,90735,2,0,L|441:125,2,33
347,143,91088,6,0,P|314:149|281:146,1,66
204,135,91441,2,0,P|185:162|159:184,1,66
143,261,91794,2,0,P|145:294|139:327,1,66
211,360,92147,6,0,P|275:345|338:361,2,132
53,370,93206,6,0,L|35:306,1,66
55,231,93559,2,0,L|37:167,1,66
32,88,93912,2,0,P|65:93|92:111,1,66
155,160,94265,5,0,0:0:0:0:
232,177,94441,1,0,0:0:0:0:
310,179,94618,2,0,P|339:163|372:163,1,66
423,223,94971,2,0,P|394:238|362:239,1,66
284,253,95324,5,0,0:0:0:0:
209,280,95500,1,0,0:0:0:0:
139,318,95677,2,0,L|73:315,1,66
80,236,96029,2,0,L|14:233,1,66
25,154,96382,5,0,0:0:0:0:
104,161,96559,1,0,0:0:0:0:
177,134,96735,2,0,P|207:118|238:109,1,66
317,105,97088,2,0,P|350:103|383:108,1,66
458,135,97441,6,0,P|436:198|440:263,1,132
304,345,98147,1,0,0:0:0:0:
277,348,98235,1,0,0:0:0:0:
250,347,98324,1,0,0:0:0:0:
224,342,98412,1,0,0:0:0:0:
200,330,98500,5,0,0:0:0:0:
152,266,98677,1,0,0:0:0:0:
148,187,98853,1,0,0:0:0:0:
160,109,99029,1,0,0:0:0:0:
154,83,99117,1,0,0:0:0:0:
142,59,99205,2,0,L|123:31,2,33
220,45,99559,6,0,P|252:52|285:52,1,66
363,52,99912,2,0,P|396:53|429:60,1,66
492,108,100265,2,0,L|487:173,1,66
435,233,100618,5,0,0:0:0:0:
359,215,100794,1,0,0:0:0:0:
283,239,100971,1,0,0:0:0:0:
210,269,101147,1,0,0:0:0:0:
132,250,101324,1,0,0:0:0:0:
75,194,101500,1,0,0:0:0:0:
80,114,101677,5,0,0:0:0:0:
79,113,102206,2,0,P|145:119|204:92,1,132
272,51,102735,5,0,0:0:0:0:
350,39,102912,1,0,0:0:0:0:
424,65,103088,1,0,0:0:0:0:
476,124,103265,1,0,0:0:0:0:
491,200,103441,2,0,P|494:233|488:266,1,66
450,336,103794,5,0,0:0:0:0:
394,279,103971,1,0,0:0:0:0:
316,262,104147,2,0,L|251:260,1,66
216,332,104500,2,0,L|151:330,1,66
85,283,104853,5,0,0:0:0:0:
69,205,105029,1,0,0:0:0:0:
97,130,105206,1,0,0:0:0:0:
160,83,105382,1,0,0:0:0:0:
239,77,105559,2,0,P|271:81|303:90,1,66
377,116,105912,6,0,P|362:179|384:240,1,132
457,99,106618,1,0,0:0:0:0:
447,74,106706,1,0,0:0:0:0:
429,54,106794,1,0,0:0:0:0:
405,41,106882,1,0,0:0:0:0:
378,37,106971,5,0,0:0:0:0:
299,47,107147,1,0,0:0:0:0:
219,39,107324,1,0,0:0:0:0:
140,49,107500,1,0,0:0:0:0:
114,53,107588,1,0,0:0:0:0:
87,55,107677,2,0,L|54:55,2,33
107,131,108029,6,0,P|138:141|170:135,1,66
214,201,108382,2,0,P|190:222|178:252,1,66
101,258,108735,2,0,P|94:226|73:201,1,66
21,260,109088,6,0,P|48:318|109:338,1,132
268,340,109794,2,0,P|301:333|334:332,1,66
413,330,110147,5,0,0:0:0:0:
374,260,110324,1,0,0:0:0:0:
357,183,110500,2,0,L|360:117,1,66
284,93,110853,2,0,L|280:158,1,66
237,225,111206,5,0,0:0:0:0:
194,158,111382,1,0,0:0:0:0:
116,138,111559,1,0,0:0:0:0:
40,160,111735,1,0,0:0:0:0:
2,230,111912,2,0,L|3:295,1,66
60,352,112265,5,0,0:0:0:0:
115,295,112441,1,0,0:0:0:0:
130,216,112618,2,0,P|129:184|120:152,1,66
96,76,112971,2,0,P|127:65|159:62,1,66
239,58,113324,5,0,0:0:0:0:
317,64,113500,1,0,0:0:0:0:
385,104,113677,1,0,0:0:0:0:
398,181,113853,1,0,0:0:0:0:
394,259,114029,2,0,P|384:290|363:315,1,66
300,365,114382,6,0,P|251:323|187:321,1,132
28,343,115088,1,0,0:0:0:0:
28,316,115177,1,0,0:0:0:0:
28,289,115265,1,0,0:0:0:0:
28,262,115353,1,0,0:0:0:0:
28,235,115441,5,0,0:0:0:0:
59,162,115618,1,0,0:0:0:0:
114,106,115794,1,0,0:0:0:0:
190,86,115971,1,0,0:0:0:0:
216,82,116059,1,0,0:0:0:0:
240,72,116147,2,0,L|272:48,2,33
270,145,116500,6,0,P|308:152|331:167,1,66
277,225,116853,2,0,P|306:250|318:274,1,66
243,298,117206,2,0,P|255:334|254:361,1,66
176,342,117559,5,0,0:0:0:0:
127,281,117735,1,0,0:0:0:0:
109,203,117912,1,0,0:0:0:0:
127,126,118088,1,0,0:0:0:0:
176,64,118265,1,0,0:0:0:0:
248,30,118441,1,0,0:0:0:0:
327,30,118618,5,0,0:0:0:0:
327,30,119147,2,0,P|331:94|373:144,1,132
442,181,119677,5,0,0:0:0:0:
465,256,119853,1,0,0:0:0:0:
423,323,120029,2,0,L|351:339,1,66
279,341,120382,2,0,L|207:325,1,66
135,309,120735,6,0,P|72:297|11:321,2,132
219,174,121794,2,0,P|246:192|277:201,1,66
357,195,122147,2,0,P|386:180|410:157,1,66
458,94,122500,2,0,P|480:120|489:151,1,66
496,229,122853,5,0,0:0:0:0:
462,300,123029,1,0,0:0:0:0:
387,328,123206,1,0,0:0:0:0:
248,250,123559,1,0,0:0:0:0:
224,237,123647,1,0,0:0:0:0:
197,233,123735,1,0,0:0:0:0:
170,236,123824,1,0,0:0:0:0:
146,247,123912,5,0,0:0:0:0:
72,218,124088,2,0,L|42:235,2,33
82,139,124441,1,0,0:0:0:0:
152,101,124618,2,0,L|220:98,1,66
297,92,124971,5,0,0:0:0:0:
285,170,125147,1,0,0:0:0:0:
318,241,125324,2,0,P|347:254|380:260,1,66
380,340,125677,2,0,P|347:346|317:359,1,66
239,350,126029,5,0,0:0:0:0:
215,338,126118,1,0,0:0:0:0:
194,321,126206,2,0,L|171:291,2,33
253,267,126559,1,0,0:0:0:0:
285,194,126735,2,0,L|282:126,1,66
221,76,127088,6,0,P|195:55|163:46,1,66
86,18,127441,2,0,P|81:51|88:83,1,66
103,163,127794,2,0,P|133:151|157:128,1,66
221,76,128147,5,0,0:0:0:0:
221,76,128500,1,0,0:0:0:0:
221,76,128853,1,0,0:0:0:0:
282,126,129206,5,0,0:0:0:0:
282,126,129559,1,0,0:0:0:0:
282,126,129912,2,0,P|302:151|331:167,1,66
404,198,130265,6,0,L|402:263,1,66
323,249,130618,2,0,L|288:304,1,66
227,252,130971,2,0,L|169:282,1,66
89,286,131324,5,0,0:0:0:0:
38,225,131500,1,0,0:0:0:0:
45,145,131677,1,0,0:0:0:0:
176,56,132029,1,0,0:0:0:0:
201,62,132118,1,0,0:0:0:0:
226,68,132206,1,0,0:0:0:0:
251,75,132294,1,0,0:0:0:0:
276,82,132382,5,0,0:0:0:0:
353,100,132559,2,0,L|378:73,2,33
394,167,132912,1,0,0:0:0:0:
402,245,133088,2,0,P|393:276|374:302,1,66
299,329,133441,5,0,0:0:0:0:
222,345,133618,1,0,0:0:0:0:
160,295,133794,1,0,0:0:0:0:
183,219,133971,1,0,0:0:0:0:
173,140,134147,1,0,0:0:0:0:
131,72,134324,1,0,0:0:0:0:
107,59,134412,1,0,0:0:0:0:
81,52,134500,6,0,L|48:46,4,33
71,130,135029,1,0,0:0:0:0:
112,197,135206,1,0,0:0:0:0:
177,240,135382,1,0,0:0:0:0:
256,234,135559,1,0,0:0:0:0:
256,192,135647,12,0,136618,0:0:0:0:
