osu file format v14

[General]
AudioFilename: audio.mp3
AudioLeadIn: 0
PreviewTime: 85618
Countdown: 0
SampleSet: Soft
StackLeniency: 0.7
Mode: 0
LetterboxInBreaks: 0
WidescreenStoryboard: 1

[Editor]
Bookmarks: 13441,15735,19794,22265,24382,25618,27206,30382,38853
DistanceSpacing: 1.4
BeatDivisor: 4
GridSize: 4
TimelineZoom: 2.5

[Metadata]
Title:45nen no Yukizakura
TitleUnicode:四十五年ノ雪桜
Artist:Kozato
ArtistUnicode:Kozato
Creator:Linada
Version:Pachiru's Insane
Source:BMS
Tags:sakura hata no kokoro instrumental realazy pachiru
BeatmapID:1219066
BeatmapSetID:574617

[Difficulty]
HPDrainRate:6
CircleSize:3.2
OverallDifficulty:7
ApproachRate:9
SliderMultiplier:1.55
SliderTickRate:1

[Events]
//Background and Video events
0,0,"pachi.PNG",0,0
//Break Periods
//Storyboard Layer 0 (Background)
//Storyboard Layer 1 (Fail)
//Storyboard Layer 2 (Pass)
//Storyboard Layer 3 (Foreground)
//Storyboard Sound Samples

[TimingPoints]
30,352.941176470588,3,2,1,70,1,0
21206,-200,3,2,1,70,0,0
21912,-100,3,2,1,70,0,0
29677,-200,3,2,1,70,0,0
30382,-100,3,2,1,70,0,0
51912,-100,3,2,1,70,0,1
68853,-100,3,2,1,40,0,0
102735,-100,3,2,1,65,0,1
119147,-100,3,2,1,25,0,0
119677,-100,3,2,1,65,0,1
128147,-100,3,2,1,55,0,0

[Colours]
Combo1 : 187,187,221
Combo2 : 85,85,170
Combo3 : 153,153,221
Combo4 : 238,238,238

[HitObjects]
133,300,735,6,0,P|81:308|45:304,1,77.5
197,368,1088,6,0,P|225:312|181:220,1,155
120,153,1618,1,0,0:0:0:0:
192,84,1794,2,0,L|269:87,1,77.5
400,200,2147,2,0,L|322:203,1,77.5
460,280,2500,2,0,P|496:236|464:120,1,155
320,84,3206,5,0,0:0:0:0:
192,296,3382,1,0,0:0:0:0:
192,84,3559,1,0,0:0:0:0:
320,296,3735,1,0,0:0:0:0:
376,180,3912,2,0,L|468:172,1,77.5
136,180,4265,2,0,L|44:172,1,77.5
256,260,4618,6,0,B|268:216|252:180|252:180|236:144|256:104,1,155
268,84,5059,1,0,0:0:0:0:
292,64,5147,1,0,0:0:0:0:
320,56,5235,1,0,0:0:0:0:
352,52,5324,1,0,0:0:0:0:
384,56,5412,1,0,0:0:0:0:
412,72,5500,1,0,0:0:0:0:
432,92,5588,1,0,0:0:0:0:
448,120,5677,2,0,L|448:208,1,77.5
348,303,6029,6,0,L|348:148,1,155
256,52,6559,1,0,0:0:0:0:
148,116,6735,2,0,L|64:112,1,77.5
164,252,7088,2,0,L|248:248,1,77.5
272,247,7353,1,0,0:0:0:0:
302,246,7441,1,0,0:0:0:0:
332,243,7529,1,0,0:0:0:0:
363,242,7618,1,0,0:0:0:0:
393,240,7706,1,0,0:0:0:0:
423,238,7794,2,0,L|418:155,1,77.5
434,336,8147,6,0,L|272:342,1,155
164,252,8677,1,0,0:0:0:0:
248,164,8853,1,0,0:0:0:0:
156,72,9029,1,0,0:0:0:0:
289,242,9206,2,0,P|320:217|335:173,1,77.5
303,325,9559,6,0,P|356:299|408:219,1,155
397,116,10088,1,0,0:0:0:0:
306,54,10265,2,0,L|220:52,1,77.5
134,161,10618,2,0,L|49:158,1,77.5
172,312,10971,2,0,B|228:316|228:316|284:304|284:304|332:308,1,155
436,228,11500,1,0,0:0:0:0:
360,124,11677,6,0,L|368:40,1,77.5
152,124,12029,2,0,L|144:40,1,77.5
256,192,12382,2,0,L|256:280,1,77.5
256,32,12735,1,0,0:0:0:0:
423,193,12912,1,0,0:0:0:0:
256,352,13088,1,0,0:0:0:0:
188,148,13441,5,2,0:0:0:0:
216,121,13529,1,0,0:0:0:0:
253,111,13617,1,0,0:0:0:0:
290,120,13705,1,0,0:0:0:0:
324,148,13794,2,0,L|368:144,1,38.75
436,232,13971,2,0,L|384:236,1,38.75
352,336,14147,6,0,L|432:328,1,77.5
288,252,14500,2,0,B|244:252|244:252|184:264,1,77.5
104,184,14853,1,0,0:0:0:0:
152,16,15029,1,0,0:0:0:0:
264,152,15206,1,0,0:0:0:0:
72,92,15382,1,0,0:0:0:0:
272,60,15559,1,0,0:0:0:0:
394,116,15735,5,0,0:0:0:0:
392,146,15823,1,0,0:0:0:0:
390,177,15911,1,0,0:0:0:0:
389,208,15999,1,0,0:0:0:0:
387,239,16087,1,0,0:0:0:0:
386,270,16176,1,0,0:0:0:0:
386,301,16265,2,0,L|466:305,1,77.5
310,373,16618,6,0,B|255:368|255:368|205:373|205:373|144:367,1,155
78,286,17147,1,0,0:0:0:0:
165,192,17324,2,0,L|155:116,1,77.5
300,239,17677,1,0,0:0:0:0:
300,257,18029,6,0,P|339:264|379:259,1,77.5
212,127,18382,2,0,P|173:120|133:125,1,77.5
333,165,18735,2,0,P|340:126|335:86,1,77.5
179,219,19088,2,0,P|172:258|177:298,1,77.5
336,363,19441,6,0,L|428:360,1,77.5
176,295,19794,2,0,L|98:292,1,77.5
336,228,20147,2,0,L|414:225,1,77.5
176,140,20500,2,0,L|98:137,1,77.5
336,76,20853,2,0,L|414:73,1,77.5
336,228,21206,6,0,P|328:248|328:208,1,155
424,252,22088,5,0,0:0:0:0:
410,288,22176,1,0,0:0:0:0:
386,318,22264,1,0,0:0:0:0:
353,338,22352,1,0,0:0:0:0:
316,347,22440,1,0,0:0:0:0:
277,344,22529,1,0,0:0:0:0:
242,329,22618,6,0,L|152:332,1,77.5
128,192,22971,2,0,L|218:195,1,77.5
240,56,23324,2,0,L|162:53,1,77.5
306,194,23677,2,0,L|384:192,1,77.5
347,331,24029,6,0,L|270:329,1,77.5
152,244,24382,1,0,0:0:0:0:
240,136,24559,1,0,0:0:0:0:
244,328,24735,1,0,0:0:0:0:
152,220,24912,1,0,0:0:0:0:
240,112,25088,1,0,0:0:0:0:
244,304,25265,1,0,0:0:0:0:
152,196,25441,1,0,0:0:0:0:
240,84,25618,5,0,0:0:0:0:
269,74,25706,1,0,0:0:0:0:
298,66,25794,1,0,0:0:0:0:
327,57,25882,1,0,0:0:0:0:
356,48,25970,1,0,0:0:0:0:
386,39,26059,1,0,0:0:0:0:
415,31,26147,6,0,L|494:31,1,77.5
384,188,26500,1,0,0:0:0:0:
232,108,26677,1,0,0:0:0:0:
192,252,26853,6,0,L|200:340,1,77.5
320,132,27206,2,0,L|312:44,1,77.5
152,252,27559,2,0,L|160:340,1,77.5
360,132,27912,2,0,L|352:44,1,77.5
280,224,28265,6,0,P|328:252|428:236,1,155
460,124,28794,1,0,0:0:0:0:
352,54,28971,2,0,L|264:46,1,77.5
128,168,29324,2,0,L|216:160,1,77.5
380,220,29677,6,0,B|368:348|368:348|344:324,1,155
276,264,30559,1,0,0:0:0:0:
245,240,30647,1,0,0:0:0:0:
209,225,30735,1,0,0:0:0:0:
171,219,30823,1,0,0:0:0:0:
133,223,30911,1,0,0:0:0:0:
96,237,31000,1,0,0:0:0:0:
65,259,31088,6,0,L|59:347,1,77.5
144,136,31441,2,0,L|139:58,1,77.5
256,264,31794,2,0,L|256:352,1,77.5
368,136,32147,2,0,L|372:58,1,77.5
447,259,32500,2,0,L|451:336,1,77.5
320,208,32853,5,0,0:0:0:0:
200,264,33029,1,0,0:0:0:0:
224,140,33206,1,0,0:0:0:0:
320,332,33382,1,0,0:0:0:0:
424,140,33559,1,0,0:0:0:0:
256,40,33735,1,0,0:0:0:0:
80,112,33912,6,0,L|56:112,4,19.375
168,208,34265,2,0,L|192:208,4,19.375
76,312,34618,2,0,L|52:312,4,19.375
224,360,34971,6,0,P|248:324|256:284,1,77.5
172,160,35324,2,0,L|84:148,1,77.5
340,160,35677,2,0,L|428:148,1,77.5
256,36,36029,2,0,L|256:200,1,155
179,305,36559,1,0,0:0:0:0:
38,192,36735,5,0,0:0:0:0:
137,87,36912,1,0,0:0:0:0:
256,192,37088,6,0,P|296:200|336:192,1,77.5
296,40,37441,2,0,P|256:32|216:40,1,77.5
404,252,37794,2,0,P|424:216|424:176,1,77.5
256,316,38147,2,0,L|256:344,16,19.375
108,228,39029,6,0,L|56:232,1,38.75
176,284,39206,2,0,P|196:240|184:184,1,77.5
296,96,39559,1,0,0:0:0:0:
352,224,39735,1,0,0:0:0:0:
376,32,39912,2,0,P|412:20|460:24,1,77.5
352,208,40265,5,0,0:0:0:0:
444,352,40441,1,0,0:0:0:0:
276,352,40618,1,0,0:0:0:0:
352,192,40794,1,0,0:0:0:0:
464,352,40971,1,0,0:0:0:0:
256,352,41147,1,0,0:0:0:0:
308,120,41324,6,0,P|348:108|396:120,1,77.5
276,216,41677,1,0,0:0:0:0:
192,116,41853,1,0,0:0:0:0:
276,24,42029,1,0,0:0:0:0:
192,200,42206,1,0,0:0:0:0:
84,116,42382,6,0,L|60:116,4,19.375
188,288,42735,2,0,L|188:312,4,19.375
296,120,43088,2,0,L|320:120,4,19.375
384,220,43441,6,0,B|424:232|424:232|460:220,1,77.5
296,120,43794,2,0,B|256:108|256:108|220:120,1,77.5
128,220,44147,2,0,L|136:324,1,77.5
244,224,44500,1,0,0:0:0:0:
84,120,44677,1,0,0:0:0:0:
256,28,44853,2,0,L|336:24,1,77.5
464,160,45206,6,0,L|460:252,1,77.5
467,82,45559,2,0,L|463:174,1,77.5
396,280,45912,1,0,0:0:0:0:
240,176,46088,1,0,0:0:0:0:
100,312,46265,6,0,L|8:304,1,77.5
177,318,46618,2,0,L|85:310,1,77.5
252,264,46971,2,0,P|268:304|264:352,2,77.5
316,140,47500,2,0,L|368:136,1,38.75
392,132,47677,1,0,0:0:0:0:
288,40,47853,1,0,0:0:0:0:
208,128,48029,1,0,0:0:0:0:
104,80,48206,1,0,0:0:0:0:
160,304,48382,6,0,P|200:312|236:304,1,77.5
84,303,48735,2,0,P|124:311|160:303,1,77.5
159,80,49088,2,0,P|121:72|84:81,1,77.5
244,236,49441,2,0,P|252:198|244:160,1,77.5
8,160,49794,2,0,P|0:197|8:235,1,77.5
108,332,50147,1,0,0:0:0:0:
176,196,50324,1,0,0:0:0:0:
216,308,50500,1,0,0:0:0:0:
84,236,50677,1,0,0:0:0:0:
140,104,50853,2,0,P|180:96|224:108,1,77.5
344,144,51206,1,0,0:0:0:0:
436,48,51382,2,0,L|436:28,8,19.375
344,144,51912,6,0,P|324:196|360:308,1,155
448,220,52441,1,0,0:0:0:0:
344,144,52618,2,0,L|260:152,1,77.5
168,240,52971,2,0,L|90:232,1,77.5
16,124,53324,1,0,0:0:0:0:
120,20,53500,1,0,0:0:0:0:
172,156,53677,1,0,0:0:0:0:
28,32,53853,1,0,0:0:0:0:
84,180,54029,1,0,0:0:0:0:
204,64,54206,1,0,0:0:0:0:
244,200,54382,2,0,P|208:236|160:244,1,77.5
284,124,54735,2,0,P|320:88|368:80,1,77.5
472,192,55088,1,0,0:0:0:0:
256,348,55441,1,0,0:0:0:0:
40,192,55794,5,0,0:0:0:0:
54,156,55882,1,0,0:0:0:0:
81,129,55970,1,0,0:0:0:0:
116,111,56058,1,0,0:0:0:0:
154,105,56146,1,0,0:0:0:0:
192,110,56234,1,0,0:0:0:0:
227,127,56323,1,0,0:0:0:0:
255,154,56411,1,0,0:0:0:0:
272,188,56500,2,0,L|331:186,1,38.75
274,231,56677,1,0,0:0:0:0:
275,269,56765,5,0,0:0:0:0:
291,304,56853,1,0,0:0:0:0:
317,333,56941,1,0,0:0:0:0:
350,353,57029,1,0,0:0:0:0:
388,362,57117,1,0,0:0:0:0:
425,354,57205,1,0,0:0:0:0:
467,177,57382,1,0,0:0:0:0:
383,261,57559,1,0,0:0:0:0:
341,84,57736,1,0,0:0:0:0:
272,188,57912,1,0,0:0:0:0:
230,11,58089,1,0,0:0:0:0:
135,111,58265,2,0,P|122:149|132:188,1,77.5
7,256,58618,2,0,P|44:263|80:251,1,77.5
168,345,58971,2,0,P|175:307|163:271,1,77.5
257,136,59324,1,0,0:0:0:0:
354,226,59500,1,0,0:0:0:0:
375,99,59677,1,0,0:0:0:0:
230,129,59853,1,0,0:0:0:0:
363,252,60029,1,0,0:0:0:0:
392,78,60206,1,0,0:0:0:0:
168,71,60382,2,0,P|149:106|148:151,1,77.5
194,254,60735,1,0,0:0:0:0:
