osu file format v14

[General]
AudioFilename: audio.mp3
AudioLeadIn: 0
PreviewTime: 53851
Countdown: 0
SampleSet: Normal
StackLeniency: 0
Mode: 1
LetterboxInBreaks: 0
WidescreenStoryboard: 0

[Editor]
DistanceSpacing: 0.3
BeatDivisor: 4
GridSize: 32
TimelineZoom: 2.38

[Metadata]
Title:Hyper Bass (feat. Yunomi)
TitleUnicode:Hyper Bass (feat. Yunomi)
Artist:Kozakai Yurie, Oomori Nichika, Hasegawa Rena
ArtistUnicode:小坂井祐莉絵、大森日雅、長谷川玲奈
Creator:Genjuro
Version:Muzukashii
Source:
Tags:electronic japanese denonbu 電音部 harajuku music club bandai namco asmr 桜乃美々兎 Sakurano Mimito 水上 雛 Minakami Hina 犬吠埼紫杏 Inubousaki Shian
BeatmapID:2975223
BeatmapSetID:1446332

[Difficulty]
HPDrainRate:5
CircleSize:2
OverallDifficulty:5
ApproachRate:10
SliderMultiplier:1.4
SliderTickRate:1

[Events]
//Background and Video events
0,0,"bg.jpg",0,40
//Break Periods
//Storyboard Layer 0 (Background)
//Storyboard Layer 1 (Fail)
//Storyboard Layer 2 (Pass)
//Storyboard Layer 3 (Foreground)
//Storyboard Layer 4 (Overlay)
//Storyboard Sound Samples

[TimingPoints]
560,333.333333333333,4,1,0,70,1,0
55559,-100,4,1,0,70,0,1
74893,-100,4,1,0,70,0,0
108226,-100,4,1,0,70,0,1
112226,-100,4,1,0,70,0,0
112559,-100,4,1,0,70,0,1
127226,-100,4,1,0,70,0,0

[HitObjects]
256,192,11059,5,0,0:0:0:0:
256,192,11226,1,8,0:0:0:0:
256,192,11559,1,0,0:0:0:0:
256,192,11893,1,8,0:0:0:0:
256,192,12059,1,8,0:0:0:0:
256,192,12226,1,0,0:0:0:0:
256,192,12559,1,0,0:0:0:0:
256,192,12726,1,0,0:0:0:0:
256,192,12893,1,8,0:0:0:0:
256,192,13059,1,0,0:0:0:0:
256,192,13226,1,8,0:0:0:0:
256,192,13726,1,8,0:0:0:0:
256,192,13893,1,0,0:0:0:0:
256,192,14226,1,8,0:0:0:0:
256,192,14559,1,0,0:0:0:0:
256,192,14726,1,0,0:0:0:0:
256,192,14893,1,8,0:0:0:0:
256,192,15226,1,8,0:0:0:0:
256,192,15393,1,8,0:0:0:0:
256,192,15559,1,0,0:0:0:0:
256,192,15726,1,8,0:0:0:0:
256,192,15893,1,0,0:0:0:0:
256,192,16393,1,0,0:0:0:0:
256,192,16559,1,8,0:0:0:0:
256,192,16893,1,8,0:0:0:0:
256,192,17059,1,0,0:0:0:0:
256,192,17226,1,8,0:0:0:0:
256,192,17393,1,8,0:0:0:0:
256,192,17559,1,0,0:0:0:0:
256,192,17893,1,8,0:0:0:0:
256,192,18059,1,0,0:0:0:0:
256,192,18226,1,0,0:0:0:0:
256,192,18393,1,0,0:0:0:0:
256,192,18559,1,8,0:0:0:0:
256,192,19059,1,8,0:0:0:0:
256,192,19226,1,0,0:0:0:0:
256,192,19559,1,0,0:0:0:0:
256,192,19726,1,0,0:0:0:0:
256,192,19893,1,8,0:0:0:0:
256,192,20226,1,8,0:0:0:0:
256,192,20393,1,8,0:0:0:0:
256,192,20559,1,0,0:0:0:0:
256,192,20726,1,8,0:0:0:0:
256,192,20893,1,0,0:0:0:0:
256,192,21059,1,0,0:0:0:0:
256,192,21226,1,8,0:0:0:0:
256,192,21726,1,8,0:0:0:0:
256,192,21809,1,8,0:0:0:0:
256,192,21893,1,8,0:0:0:0:
256,192,22059,1,0,0:0:0:0:
256,192,22226,1,8,0:0:0:0:
256,192,22559,1,0,0:0:0:0:
256,192,22726,1,0,0:0:0:0:
256,192,22893,1,8,0:0:0:0:
256,192,23226,1,8,0:0:0:0:
256,192,23393,1,0,0:0:0:0:
256,192,23559,1,8,0:0:0:0:
256,192,23726,1,8,0:0:0:0:
256,192,23893,1,0,0:0:0:0:
256,192,24559,1,0,0:0:0:0:
256,192,24726,1,0,0:0:0:0:
256,192,24893,1,8,0:0:0:0:
256,192,25226,1,0,0:0:0:0:
256,192,25393,1,8,0:0:0:0:
256,192,25559,1,0,0:0:0:0:
256,192,25893,1,8,0:0:0:0:
256,192,26059,1,8,0:0:0:0:
256,192,26226,1,0,0:0:0:0:
256,192,26393,1,0,0:0:0:0:
256,192,26559,1,8,0:0:0:0:
256,192,26893,1,0,0:0:0:0:
256,192,26976,1,0,0:0:0:0:
256,192,27059,1,0,0:0:0:0:
256,192,27226,1,8,0:0:0:0:
256,192,27726,1,8,0:0:0:0:
256,192,28059,1,0,0:0:0:0:
256,192,28226,1,8,0:0:0:0:
256,192,28559,1,0,0:0:0:0:
256,192,28726,1,8,0:0:0:0:
256,192,28893,1,0,0:0:0:0:
256,192,29059,1,8,0:0:0:0:
256,192,29143,1,8,0:0:0:0:
256,192,29226,1,8,0:0:0:0:
256,192,29559,1,8,0:0:0:0:
256,192,29643,1,8,0:0:0:0:
256,192,29726,1,8,0:0:0:0:
256,192,29893,1,0,0:0:0:0:
256,192,30226,1,8,0:0:0:0:
256,192,30393,1,0,0:0:0:0:
256,192,30559,1,0,0:0:0:0:
256,192,30726,1,8,0:0:0:0:
256,192,31059,1,0,0:0:0:0:
256,192,31226,1,8,0:0:0:0:
256,192,31393,1,0,0:0:0:0:
256,192,31559,1,0,0:0:0:0:
256,192,31726,1,8,0:0:0:0:
256,192,31893,1,0,0:0:0:0:
256,192,32226,1,8,0:0:0:0:
256,192,32559,1,0,0:0:0:0:
256,192,32782,1,8,0:0:0:0:
256,192,32893,1,8,0:0:0:0:
256,192,33115,1,0,0:0:0:0:
256,192,33226,1,0,0:0:0:0:
256,192,33559,1,8,0:0:0:0:
256,192,33893,1,0,0:0:0:0:
256,192,34059,1,8,0:0:0:0:
256,192,34226,1,0,0:0:0:0:
256,192,34393,1,0,0:0:0:0:
256,192,34559,1,8,0:0:0:0:
256,192,35226,1,0,0:0:0:0:
256,192,35448,1,8,0:0:0:0:
256,192,35559,1,8,0:0:0:0:
256,192,35782,1,8,0:0:0:0:
256,192,35893,1,8,0:0:0:0:
256,192,36226,1,0,0:0:0:0:
256,192,36559,1,8,0:0:0:0:
256,192,36726,1,8,0:0:0:0:
256,192,36893,1,0,0:0:0:0:
256,192,37059,1,0,0:0:0:0:
256,192,37226,1,8,0:0:0:0:
256,192,37893,1,0,0:0:0:0:
256,192,38115,1,8,0:0:0:0:
256,192,38226,1,8,0:0:0:0:
256,192,38448,1,0,0:0:0:0:
256,192,38559,1,0,0:0:0:0:
256,192,38893,1,8,0:0:0:0:
256,192,39226,1,0,0:0:0:0:
256,192,39393,1,8,0:0:0:0:
256,192,39559,1,8,0:0:0:0:
256,192,39726,1,0,0:0:0:0:
256,192,39893,1,8,0:0:0:0:
256,192,40226,1,8,0:0:0:0:
256,192,40559,1,0,0:0:0:0:
256,192,40782,1,8,0:0:0:0:
256,192,40893,1,8,0:0:0:0:
256,192,41115,1,8,0:0:0:0:
256,192,41226,1,8,0:0:0:0:
256,192,41559,1,0,0:0:0:0:
256,192,41893,1,8,0:0:0:0:
256,192,42059,1,8,0:0:0:0:
256,192,42226,1,0,0:0:0:0:
256,192,42393,1,8,0:0:0:0:
256,192,42559,1,8,0:0:0:0:
256,192,43226,1,0,0:0:0:0:
256,192,43393,1,0,0:0:0:0:
256,192,43559,1,8,0:0:0:0:
256,192,43893,1,8,0:0:0:0:
256,192,44059,1,8,0:0:0:0:
256,192,44226,1,0,0:0:0:0:
256,192,44559,1,0,0:0:0:0:
256,192,44726,1,8,0:0:0:0:
256,192,44893,1,0,0:0:0:0:
256,192,45059,1,0,0:0:0:0:
256,192,45226,1,8,0:0:0:0:
256,192,45726,1,0,0:0:0:0:
256,192,45893,1,8,0:0:0:0:
256,192,46059,1,8,0:0:0:0:
256,192,46226,1,0,0:0:0:0:
256,192,46559,1,0,0:0:0:0:
256,192,46726,1,0,0:0:0:0:
256,192,46893,1,8,0:0:0:0:
256,192,47226,1,8,0:0:0:0:
256,192,47393,1,0,0:0:0:0:
256,192,47559,1,8,0:0:0:0:
256,192,47726,1,8,0:0:0:0:
256,192,47893,1,0,0:0:0:0:
256,192,48393,1,0,0:0:0:0:
256,192,48559,1,8,0:0:0:0:
256,192,48726,1,0,0:0:0:0:
256,192,48893,1,8,0:0:0:0:
256,192,49226,1,0,0:0:0:0:
256,192,49393,1,8,0:0:0:0:
256,192,49559,1,0,0:0:0:0:
256,192,49893,1,8,0:0:0:0:
256,192,50059,1,8,0:0:0:0:
256,192,50226,1,0,0:0:0:0:
256,192,50393,1,0,0:0:0:0:
256,192,50559,1,8,0:0:0:0:
256,192,51059,1,8,0:0:0:0:
256,192,51226,1,0,0:0:0:0:
256,192,51393,1,8,0:0:0:0:
256,192,51559,1,0,0:0:0:0:
256,192,51893,1,0,0:0:0:0:
256,192,52059,1,8,0:0:0:0:
256,192,52226,1,0,0:0:0:0:
256,192,52393,1,8,0:0:0:0:
256,192,53559,1,8,0:0:0:0:
256,192,53893,1,0,0:0:0:0:
256,192,54559,1,0,0:0:0:0:
256,192,55226,1,8,0:0:0:0:
256,192,55559,1,4,0:0:0:0:
256,192,55893,1,8,0:0:0:0:
256,192,56226,1,0,0:0:0:0:
256,192,56559,1,8,0:0:0:0:
256,192,57226,1,8,0:0:0:0:
256,192,57559,1,0,0:0:0:0:
256,192,57893,1,8,0:0:0:0:
256,192,58226,1,0,0:0:0:0:
256,192,58393,1,0,0:0:0:0:
256,192,58559,1,8,0:0:0:0:
256,192,58893,1,0,0:0:0:0:
256,192,59226,1,8,0:0:0:0:
256,192,59393,1,8,0:0:0:0:
256,192,59559,1,0,0:0:0:0:
256,192,59893,1,8,0:0:0:0:
256,192,60059,1,8,0:0:0:0:
256,192,60226,1,0,0:0:0:0:
256,192,60559,1,0,0:0:0:0:
256,192,60893,1,0,0:0:0:0:
256,192,61059,1,0,0:0:0:0:
256,192,61226,1,8,0:0:0:0:
256,192,61559,1,0,0:0:0:0:
256,192,61893,1,8,0:0:0:0:
256,192,62226,1,0,0:0:0:0:
256,192,62393,1,0,0:0:0:0:
256,192,62559,1,8,0:0:0:0:
256,192,62893,1,0,0:0:0:0:
256,192,63059,1,8,0:0:0:0:
256,192,63226,1,0,0:0:0:0:
256,192,63726,1,0,0:0:0:0:
256,192,63893,1,8,0:0:0:0:
256,192,64226,1,0,0:0:0:0:
256,192,64393,1,8,0:0:0:0:
256,192,64559,1,0,0:0:0:0:
256,192,64893,1,8,0:0:0:0:
256,192,65059,1,8,0:0:0:0:
256,192,65226,1,0,0:0:0:0:
256,192,65309,1,0,0:0:0:0:
256,192,65393,1,0,0:0:0:0:
256,192,65559,1,8,0:0:0:0:
256,192,65893,1,0,0:0:0:0:
256,192,66059,1,0,0:0:0:0:
256,192,66226,1,8,0:0:0:0:
256,192,66393,1,0,0:0:0:0:
256,192,66559,1,8,0:0:0:0:
256,192,66643,1,8,0:0:0:0:
256,192,66726,1,8,0:0:0:0:
256,192,66893,1,0,0:0:0:0:
256,192,67226,1,8,0:0:0:0:
256,192,67559,1,0,0:0:0:0:
256,192,67726,1,8,0:0:0:0:
256,192,67893,1,0,0:0:0:0:
256,192,67976,1,0,0:0:0:0:
256,192,68059,1,0,0:0:0:0:
256,192,68226,1,8,0:0:0:0:
256,192,68559,1,0,0:0:0:0:
256,192,68893,1,0,0:0:0:0:
256,192,69226,1,8,0:0:0:0:
256,192,69893,1,0,0:0:0:0:
256,192,70226,1,8,0:0:0:0:
256,192,70393,1,8,0:0:0:0:
256,192,70559,1,0,0:0:0:0:
256,192,70643,1,0,0:0:0:0:
256,192,70726,1,0,0:0:0:0:
256,192,70893,1,8,0:0:0:0:
256,192,71226,1,0,0:0:0:0:
256,192,71393,1,0,0:0:0:0:
256,192,71559,1,8,0:0:0:0:
256,192,71726,1,0,0:0:0:0:
256,192,71893,1,8,0:0:0:0:
256,192,71976,1,8,0:0:0:0:
256,192,72059,1,8,0:0:0:0:
256,192,72226,1,0,0:0:0:0:
256,192,72559,1,8,0:0:0:0:
256,192,72893,1,0,0:0:0:0:
256,192,73059,1,8,0:0:0:0:
256,192,73226,1,0,0:0:0:0:
256,192,73309,1,0,0:0:0:0:
256,192,73393,1,0,0:0:0:0:
256,192,73559,1,8,0:0:0:0:
256,192,73893,1,0,0:0:0:0:
256,192,74226,1,0,0:0:0:0:
256,192,74559,1,8,0:0:0:0:
256,192,74893,1,0,0:0:0:0:
256,192,75559,1,8,0:0:0:0:
256,192,75643,1,8,0:0:0:0:
256,192,75726,1,8,0:0:0:0:
256,192,75893,1,0,0:0:0:0:
256,192,76226,1,4,0:0:0:0:
256,192,76559,1,8,0:0:0:0:
256,192,76726,1,8,0:0:0:0:
256,192,76893,1,0,0:0:0:0:
256,192,77226,1,8,0:0:0:0:
256,192,77559,1,0,0:0:0:0:
256,192,77726,1,0,0:0:0:0:
256,192,77893,1,8,0:0:0:0:
256,192,78059,1,0,0:0:0:0:
256,192,78226,1,8,0:0:0:0:
256,192,78559,1,0,0:0:0:0:
256,192,78893,1,8,0:0:0:0:
256,192,79059,1,8,0:0:0:0:
256,192,79226,1,0,0:0:0:0:
256,192,79559,1,0,0:0:0:0:
256,192,79726,1,0,0:0:0:0:
256,192,79893,1,8,0:0:0:0:
256,192,80226,1,8,0:0:0:0:
256,192,80559,1,0,0:0:0:0:
256,192,80809,1,0,0:0:0:0:
256,192,81059,1,0,0:0:0:0:
256,192,81559,1,8,0:0:0:0:
256,192,81893,1,0,0:0:0:0:
256,192,82059,1,8,0:0:0:0:
256,192,82226,1,0,0:0:0:0:
256,192,82559,1,8,0:0:0:0:
256,192,82893,1,8,0:0:0:0:
256,192,83059,1,8,0:0:0:0:
256,192,83226,1,8,0:0:0:0:
256,192,83393,1,0,0:0:0:0:
256,192,83559,1,0,0:0:0:0:
256,192,83726,1,0,0:0:0:0:
256,192,83893,1,8,0:0:0:0:
256,192,84226,1,0,0:0:0:0:
256,192,84393,1,8,0:0:0:0:
256,192,84559,1,0,0:0:0:0:
256,192,84893,1,8,0:0:0:0:
256,192,85059,1,0,0:0:0:0:
256,192,85226,1,8,0:0:0:0:
256,192,85559,1,8,0:0:0:0:
256,192,85893,1,0,0:0:0:0:
256,192,86226,1,8,0:0:0:0:
256,192,86893,1,8,0:0:0:0:
256,192,87559,1,8,0:0:0:0:
256,192,87726,1,8,0:0:0:0:
256,192,88226,1,8,0:0:0:0:
256,192,88893,1,8,0:0:0:0:
256,192,89559,1,8,0:0:0:0:
256,192,90226,1,8,0:0:0:0:
256,192,90393,1,8,0:0:0:0:
256,192,90893,1,8,0:0:0:0:
256,192,91559,1,8,0:0:0:0:
256,192,92226,1,8,0:0:0:0:
256,192,92893,1,8,0:0:0:0:
256,192,93059,1,8,0:0:0:0:
256,192,93559,1,8,0:0:0:0:
256,192,94226,1,8,0:0:0:0:
256,192,94893,1,8,0:0:0:0:
256,192,95559,1,8,0:0:0:0:
256,192,95726,1,8,0:0:0:0:
256,192,96226,1,8,0:0:0:0:
256,192,96559,1,0,0:0:0:0:
256,192,96893,1,8,0:0:0:0:
256,192,97059,1,0,0:0:0:0:
256,192,97226,1,8,0:0:0:0:
256,192,97393,1,8,0:0:0:0:
256,192,97559,1,0,0:0:0:0:
256,192,97893,1,8,0:0:0:0:
256,192,98226,1,0,0:0:0:0:
256,192,98393,1,8,0:0:0:0:
256,192,98559,1,0,0:0:0:0:
256,192,99059,1,8,0:0:0:0:
256,192,99226,1,0,0:0:0:0:
256,192,99559,1,8,0:0:0:0:
256,192,99726,1,8,0:0:0:0:
256,192,99893,1,0,0:0:0:0:
256,192,100059,1,0,0:0:0:0:
256,192,100226,1,8,0:0:0:0:
256,192,100559,1,0,0:0:0:0:
256,192,100726,1,8,0:0:0:0:
256,192,100893,1,8,0:0:0:0:
256,192,101059,1,8,0:0:0:0:
256,192,101226,1,0,0:0:0:0:
256,192,101726,1,8,0:0:0:0:
256,192,101893,1,0,0:0:0:0:
256,192,102226,1,8,0:0:0:0:
256,192,102393,1,0,0:0:0:0:
256,192,102559,1,8,0:0:0:0:
256,192,102726,1,8,0:0:0:0:
256,192,102893,1,0,0:0:0:0:
256,192,103226,1,8,0:0:0:0:
256,192,103559,1,0,0:0:0:0:
256,192,103726,1,8,0:0:0:0:
256,192,103893,1,0,0:0:0:0:
256,192,104393,1,8,0:0:0:0:
256,192,104559,1,0,0:0:0:0:
256,192,104893,1,8,0:0:0:0:
256,192,105059,1,8,0:0:0:0:
256,192,105226,1,0,0:0:0:0:
256,192,105393,1,8,0:0:0:0:
256,192,105559,1,8,0:0:0:0:
256,192,105726,1,8,0:0:0:0:
256,192,105893,1,0,0:0:0:0:
256,192,106226,1,0,0:0:0:0:
256,192,106559,1,8,0:0:0:0:
256,192,106893,1,8,0:0:0:0:
256,192,107226,1,0,0:0:0:0:
256,192,107893,1,8,0:0:0:0:
256,192,108226,1,4,0:0:0:0:
256,192,108559,1,8,0:0:0:0:
256,192,108643,1,8,0:0:0:0:
256,192,108809,1,8,0:0:0:0:
256,192,108893,1,8,0:0:0:0:
256,192,109059,1,0,0:0:0:0:
256,192,109226,1,8,0:0:0:0:
256,192,109559,1,0,0:0:0:0:
256,192,109726,1,8,0:0:0:0:
256,192,109893,1,0,0:0:0:0:
256,192,109976,1,0,0:0:0:0:
256,192,110059,1,0,0:0:0:0:
256,192,110226,1,8,0:0:0:0:
256,192,110393,1,8,0:0:0:0:
256,192,110559,1,0,0:0:0:0:
256,192,110893,1,8,0:0:0:0:
256,192,111059,1,0,0:0:0:0:
256,192,111226,1,8,0:0:0:0:
256,192,111309,1,8,0:0:0:0:
256,192,111393,1,8,0:0:0:0:
256,192,111559,1,0,0:0:0:0:
256,192,111726,1,0,0:0:0:0:
256,192,111893,1,8,0:0:0:0:
256,192,112559,1,0,0:0:0:0:
256,192,112893,1,8,0:0:0:0:
256,192,113059,1,0,0:0:0:0:
256,192,113226,1,8,0:0:0:0:
256,192,113559,1,8,0:0:0:0:
256,192,113726,1,0,0:0:0:0:
256,192,113893,1,8,0:0:0:0:
256,192,113976,1,8,0:0:0:0:
256,192,114143,1,8,0:0:0:0:
256,192,114226,1,8,0:0:0:0:
256,192,114393,1,0,0:0:0:0:
256,192,114559,1,8,0:0:0:0:
256,192,114893,1,0,0:0:0:0:
256,192,115059,1,8,0:0:0:0:
256,192,115226,1,0,0:0:0:0:
256,192,115309,1,0,0:0:0:0:
256,192,115393,1,0,0:0:0:0:
256,192,115559,1,8,0:0:0:0:
256,192,115726,1,8,0:0:0:0:
256,192,115893,1,0,0:0:0:0:
256,192,116226,1,8,0:0:0:0:
256,192,116393,1,0,0:0:0:0:
256,192,116559,1,8,0:0:0:0:
256,192,116643,1,8,0:0:0:0:
256,192,116726,1,8,0:0:0:0:
256,192,116893,1,8,0:0:0:0:
256,192,117059,1,0,0:0:0:0:
256,192,117226,1,8,0:0:0:0:
256,192,117893,1,0,0:0:0:0:
256,192,118226,1,8,0:0:0:0:
256,192,118393,1,0,0:0:0:0:
256,192,118559,1,8,0:0:0:0:
256,192,118893,1,8,0:0:0:0:
256,192,119059,1,8,0:0:0:0:
256,192,119226,1,0,0:0:0:0:
256,192,119559,1,0,0:0:0:0:
256,192,119726,1,0,0:0:0:0:
256,192,119893,1,8,0:0:0:0:
256,192,120226,1,8,0:0:0:0:
256,192,120559,1,0,0:0:0:0:
256,192,120726,1,8,0:0:0:0:
256,192,120893,1,0,0:0:0:0:
256,192,120976,1,0,0:0:0:0:
256,192,121059,1,0,0:0:0:0:
256,192,121226,1,8,0:0:0:0:
256,192,121559,1,8,0:0:0:0:
256,192,121726,1,0,0:0:0:0:
256,192,121893,1,8,0:0:0:0:
256,192,121976,1,8,0:0:0:0:
256,192,122059,1,8,0:0:0:0:
256,192,122226,1,0,0:0:0:0:
256,192,122309,1,0,0:0:0:0:
256,192,122393,1,0,0:0:0:0:
256,192,122559,1,8,0:0:0:0:
256,192,123226,1,0,0:0:0:0:
256,192,123559,1,8,0:0:0:0:
256,192,123726,1,0,0:0:0:0:
256,192,123893,1,8,0:0:0:0:
256,192,124226,1,8,0:0:0:0:
256,192,124393,1,0,0:0:0:0:
256,192,124559,1,8,0:0:0:0:
256,192,124643,1,8,0:0:0:0:
256,192,124809,1,8,0:0:0:0:
256,192,124893,1,8,0:0:0:0:
256,192,125059,1,0,0:0:0:0:
256,192,125226,1,8,0:0:0:0:
256,192,125559,1,0,0:0:0:0:
256,192,125726,1,8,0:0:0:0:
256,192,125893,1,0,0:0:0:0:
256,192,125976,1,0,0:0:0:0:
256,192,126059,1,0,0:0:0:0:
256,192,126226,1,8,0:0:0:0:
256,192,126393,1,8,0:0:0:0:
256,192,126559,1,0,0:0:0:0:
256,192,126893,1,8,0:0:0:0:
256,192,127059,1,0,0:0:0:0:
256,192,127226,1,8,0:0:0:0:
256,192,127559,1,8,0:0:0:0:
256,192,127893,1,0,0:0:0:0:
256,192,128559,1,0,0:0:0:0:
256,192,128893,1,8,0:0:0:0:
256,192,129059,1,0,0:0:0:0:
256,192,129226,1,8,0:0:0:0:
256,192,129393,1,8,0:0:0:0:
256,192,129559,1,0,0:0:0:0:
256,192,129893,1,8,0:0:0:0:
256,192,130226,1,0,0:0:0:0:
256,192,130393,1,0,0:0:0:0:
256,192,130559,1,8,0:0:0:0:
256,192,131059,1,8,0:0:0:0:
256,192,131226,1,0,0:0:0:0:
256,192,131559,1,8,0:0:0:0:
256,192,131726,1,8,0:0:0:0:
256,192,131893,1,0,0:0:0:0:
256,192,132059,1,0,0:0:0:0:
256,192,132226,1,8,0:0:0:0:
256,192,132559,1,0,0:0:0:0:
256,192,132893,1,8,0:0:0:0:
256,192,133059,1,0,0:0:0:0:
256,192,133226,1,8,0:0:0:0:
256,192,133726,1,8,0:0:0:0:
256,192,133809,1,8,0:0:0:0:
256,192,133893,1,8,0:0:0:0:
256,192,134393,1,0,0:0:0:0:
256,192,134559,1,8,0:0:0:0:
256,192,134726,1,8,0:0:0:0:
256,192,134893,1,0,0:0:0:0:
256,192,135226,1,8,0:0:0:0:
256,192,135559,1,0,0:0:0:0:
256,192,135726,1,0,0:0:0:0:
256,192,135893,1,8,0:0:0:0:
256,192,136393,1,8,0:0:0:0:
256,192,136559,1,0,0:0:0:0:
256,192,136893,1,8,0:0:0:0:
256,192,137059,1,8,0:0:0:0:
256,192,137226,1,0,0:0:0:0:
256,192,137393,1,8,0:0:0:0:
256,192,137559,1,8,0:0:0:0:
256,192,137893,1,0,0:0:0:0:
256,192,138059,1,8,0:0:0:0:
256,192,138143,1,8,0:0:0:0:
256,192,138226,1,8,0:0:0:0:
256,192,138393,1,0,0:0:0:0:
256,192,138559,1,8,0:0:0:0:
256,192,138893,1,8,0:0:0:0:
256,192,139226,1,0,0:0:0:0:
