osu file format v14

[General]
AudioFilename: audio.mp3
AudioLeadIn: 0
PreviewTime: 53851
Countdown: 0
SampleSet: Normal
StackLeniency: 0
Mode: 1
LetterboxInBreaks: 0
WidescreenStoryboard: 0

[Editor]
DistanceSpacing: 0.3
BeatDivisor: 1
GridSize: 32
TimelineZoom: 2.38

[Metadata]
Title:Hyper Bass (feat. Yunomi)
TitleUnicode:Hyper Bass (feat. Yunomi)
Artist:Kozakai Yurie, Oomori Nichika, Hasegawa Rena
ArtistUnicode:小坂井祐莉絵、大森日雅、長谷川玲奈
Creator:Genjuro
Version:Kantan
Source:
Tags:electronic japanese denonbu 電音部 harajuku music club bandai namco asmr 桜乃美々兎 Sakurano Mimito 水上 雛 Minakami Hina 犬吠埼紫杏 Inubousaki Shian
BeatmapID:2975305
BeatmapSetID:1446332

[Difficulty]
HPDrainRate:7
CircleSize:2
OverallDifficulty:3
ApproachRate:10
SliderMultiplier:1.4
SliderTickRate:1

[Events]
//Background and Video events
0,0,"bg.jpg",0,40
//Break Periods
//Storyboard Layer 0 (Background)
//Storyboard Layer 1 (Fail)
//Storyboard Layer 2 (Pass)
//Storyboard Layer 3 (Foreground)
//Storyboard Layer 4 (Overlay)
//Storyboard Sound Samples

[TimingPoints]
560,333.333333333333,4,1,0,70,1,0
55559,-100,4,1,0,70,0,1
74893,-100,4,1,0,70,0,0
108226,-100,4,1,0,70,0,1
112226,-100,4,1,0,70,0,0
112559,-100,4,1,0,70,0,1
127226,-100,4,1,0,70,0,0

[HitObjects]
256,192,11226,5,0,0:0:0:0:
256,192,11559,1,0,0:0:0:0:
256,192,11893,1,8,0:0:0:0:
256,192,12559,1,0,0:0:0:0:
256,192,13226,1,8,0:0:0:0:
256,192,13893,1,0,0:0:0:0:
256,192,14226,1,8,0:0:0:0:
256,192,14559,1,8,0:0:0:0:
256,192,15226,1,0,0:0:0:0:
256,192,16559,1,8,0:0:0:0:
256,192,16893,1,8,0:0:0:0:
256,192,17226,1,0,0:0:0:0:
256,192,17893,1,8,0:0:0:0:
256,192,18559,1,0,0:0:0:0:
256,192,19226,1,8,0:0:0:0:
256,192,19559,1,0,0:0:0:0:
256,192,19893,1,0,0:0:0:0:
256,192,20559,1,8,0:0:0:0:
256,192,21893,1,0,0:0:0:0:
256,192,22559,1,8,0:0:0:0:
256,192,23226,1,0,0:0:0:0:
256,192,23559,1,8,0:0:0:0:
256,192,23893,1,0,0:0:0:0:
256,192,24559,1,8,0:0:0:0:
256,192,25226,1,0,0:0:0:0:
256,192,25559,1,0,0:0:0:0:
256,192,25893,1,8,0:0:0:0:
256,192,27226,1,0,0:0:0:0:
256,192,28226,1,8,0:0:0:0:
256,192,28559,1,0,0:0:0:0:
256,192,29226,1,8,0:0:0:0:
256,192,29893,1,8,0:0:0:0:
256,192,30226,1,8,0:0:0:0:
256,192,30559,1,0,0:0:0:0:
256,192,31226,1,8,0:0:0:0:
256,192,32559,1,0,0:0:0:0:
256,192,32893,1,0,0:0:0:0:
256,192,33226,1,0,0:0:0:0:
256,192,33893,1,8,0:0:0:0:
256,192,35226,1,8,0:0:0:0:
256,192,35559,1,8,0:0:0:0:
256,192,35893,1,8,0:0:0:0:
256,192,36559,1,0,0:0:0:0:
256,192,37893,1,0,0:0:0:0:
256,192,38226,1,0,0:0:0:0:
256,192,38559,1,8,0:0:0:0:
256,192,39226,1,0,0:0:0:0:
256,192,39893,1,0,0:0:0:0:
256,192,40559,1,8,0:0:0:0:
256,192,40893,1,8,0:0:0:0:
256,192,41226,1,0,0:0:0:0:
256,192,41893,1,8,0:0:0:0:
256,192,43226,1,0,0:0:0:0:
256,192,43893,1,8,0:0:0:0:
256,192,44559,1,0,0:0:0:0:
256,192,44893,1,8,0:0:0:0:
256,192,45226,1,8,0:0:0:0:
256,192,45893,1,8,0:0:0:0:
256,192,46559,1,0,0:0:0:0:
256,192,47226,1,8,0:0:0:0:
256,192,48559,1,0,0:0:0:0:
256,192,49226,1,8,0:0:0:0:
256,192,49893,1,0,0:0:0:0:
256,192,50226,1,0,0:0:0:0:
256,192,50559,1,8,0:0:0:0:
256,192,51226,1,8,0:0:0:0:
256,192,51893,1,0,0:0:0:0:
256,192,53559,1,8,0:0:0:0:
256,192,53893,1,0,0:0:0:0:
256,192,54559,1,0,0:0:0:0:
256,192,55226,1,8,0:0:0:0:
256,192,55559,1,0,0:0:0:0:
256,192,55893,1,8,0:0:0:0:
256,192,56559,1,0,0:0:0:0:
256,192,57226,1,8,0:0:0:0:
256,192,57559,1,8,0:0:0:0:
256,192,57893,1,0,0:0:0:0:
256,192,59226,1,0,0:0:0:0:
256,192,59893,1,0,0:0:0:0:
256,192,60559,1,8,0:0:0:0:
256,192,61226,1,0,0:0:0:0:
256,192,61559,1,0,0:0:0:0:
256,192,61893,1,8,0:0:0:0:
256,192,62559,1,0,0:0:0:0:
256,192,62893,1,8,0:0:0:0:
256,192,63226,1,0,0:0:0:0:
256,192,64559,1,8,0:0:0:0:
256,192,64893,1,8,0:0:0:0:
256,192,65226,1,0,0:0:0:0:
256,192,65893,1,8,0:0:0:0:
256,192,66226,1,0,0:0:0:0:
256,192,66559,1,8,0:0:0:0:
256,192,66893,1,8,0:0:0:0:
256,192,67226,1,0,0:0:0:0:
256,192,67893,1,8,0:0:0:0:
256,192,68559,1,8,0:0:0:0:
256,192,69893,1,0,0:0:0:0:
256,192,70226,1,0,0:0:0:0:
256,192,70559,1,8,0:0:0:0:
256,192,71226,1,0,0:0:0:0:
256,192,71559,1,8,0:0:0:0:
256,192,71893,1,0,0:0:0:0:
256,192,72226,1,0,0:0:0:0:
256,192,72559,1,8,0:0:0:0:
256,192,73226,1,0,0:0:0:0:
256,192,73893,1,8,0:0:0:0:
256,192,74226,1,8,0:0:0:0:
256,192,74559,1,8,0:0:0:0:
256,192,74893,1,0,0:0:0:0:
256,192,75893,1,8,0:0:0:0:
256,192,76226,1,0,0:0:0:0:
256,192,76893,1,0,0:0:0:0:
256,192,77226,1,8,0:0:0:0:
256,192,77893,1,0,0:0:0:0:
256,192,78559,1,8,0:0:0:0:
256,192,78893,1,8,0:0:0:0:
256,192,79226,1,0,0:0:0:0:
256,192,79893,1,8,0:0:0:0:
256,192,80559,1,0,0:0:0:0:
256,192,81559,1,8,0:0:0:0:
256,192,81893,1,0,0:0:0:0:
256,192,82559,1,8,0:0:0:0:
256,192,83226,1,0,0:0:0:0:
256,192,83559,1,0,0:0:0:0:
256,192,83893,1,8,0:0:0:0:
256,192,84559,1,8,0:0:0:0:
256,192,85893,1,0,0:0:0:0:
256,192,86226,1,8,0:0:0:0:
256,192,86893,1,8,0:0:0:0:
256,192,87559,1,8,0:0:0:0:
256,192,88893,1,8,0:0:0:0:
256,192,89559,1,8,0:0:0:0:
256,192,90226,1,8,0:0:0:0:
256,192,91559,1,8,0:0:0:0:
256,192,92226,1,8,0:0:0:0:
256,192,92893,1,8,0:0:0:0:
256,192,94226,1,8,0:0:0:0:
256,192,94893,1,8,0:0:0:0:
256,192,95559,1,8,0:0:0:0:
256,192,96559,1,0,0:0:0:0:
256,192,97226,1,8,0:0:0:0:
256,192,97893,1,8,0:0:0:0:
256,192,98226,1,8,0:0:0:0:
256,192,98559,1,0,0:0:0:0:
256,192,99226,1,8,0:0:0:0:
256,192,99893,1,0,0:0:0:0:
256,192,100226,1,0,0:0:0:0:
256,192,100559,1,8,0:0:0:0:
256,192,101893,1,0,0:0:0:0:
256,192,102559,1,8,0:0:0:0:
256,192,103226,1,8,0:0:0:0:
256,192,103559,1,0,0:0:0:0:
256,192,103893,1,0,0:0:0:0:
256,192,104559,1,8,0:0:0:0:
256,192,104893,1,8,0:0:0:0:
256,192,105226,1,8,0:0:0:0:
256,192,105559,1,8,0:0:0:0:
256,192,105893,1,0,0:0:0:0:
256,192,107226,1,0,0:0:0:0:
256,192,107893,1,8,0:0:0:0:
256,192,108226,1,0,0:0:0:0:
256,192,109226,1,8,0:0:0:0:
256,192,109893,1,0,0:0:0:0:
256,192,110226,1,0,0:0:0:0:
256,192,110559,1,8,0:0:0:0:
256,192,111226,1,0,0:0:0:0:
256,192,112559,1,0,0:0:0:0:
256,192,112893,1,8,0:0:0:0:
256,192,113226,1,0,0:0:0:0:
256,192,113893,1,8,0:0:0:0:
256,192,114226,1,8,0:0:0:0:
256,192,114559,1,0,0:0:0:0:
256,192,115226,1,8,0:0:0:0:
256,192,115893,1,8,0:0:0:0:
256,192,116559,1,8,0:0:0:0:
256,192,117893,1,0,0:0:0:0:
256,192,118559,1,8,0:0:0:0:
256,192,119226,1,0,0:0:0:0:
256,192,119559,1,0,0:0:0:0:
256,192,119893,1,8,0:0:0:0:
256,192,120559,1,0,0:0:0:0:
256,192,121226,1,8,0:0:0:0:
256,192,121559,1,8,0:0:0:0:
256,192,121893,1,0,0:0:0:0:
256,192,123226,1,0,0:0:0:0:
256,192,123893,1,8,0:0:0:0:
256,192,124226,1,0,0:0:0:0:
256,192,124559,1,8,0:0:0:0:
256,192,125226,1,0,0:0:0:0:
256,192,125893,1,8,0:0:0:0:
256,192,126226,1,8,0:0:0:0:
256,192,126559,1,0,0:0:0:0:
256,192,126893,1,0,0:0:0:0:
256,192,127226,1,8,0:0:0:0:
256,192,128559,1,0,0:0:0:0:
256,192,129226,1,8,0:0:0:0:
256,192,129893,1,0,0:0:0:0:
256,192,130226,1,8,0:0:0:0:
256,192,130559,1,8,0:0:0:0:
256,192,131226,1,0,0:0:0:0:
256,192,131893,1,8,0:0:0:0:
256,192,132559,1,8,0:0:0:0:
256,192,133893,1,0,0:0:0:0:
256,192,134559,1,8,0:0:0:0:
256,192,135226,1,0,0:0:0:0:
256,192,135559,1,0,0:0:0:0:
256,192,135893,1,8,0:0:0:0:
256,192,136559,1,0,0:0:0:0:
256,192,137226,1,8,0:0:0:0:
256,192,137893,1,8,0:0:0:0:
256,192,139226,1,0,0:0:0:0:
