osu file format v14

[General]
AudioFilename: audio.mp3
AudioLeadIn: 0
PreviewTime: 53851
Countdown: 0
SampleSet: Normal
StackLeniency: 0
Mode: 1
LetterboxInBreaks: 0
WidescreenStoryboard: 0

[Editor]
DistanceSpacing: 0.3
BeatDivisor: 6
GridSize: 32
TimelineZoom: 2.38

[Metadata]
Title:Hyper Bass (feat. Yunomi)
TitleUnicode:Hyper Bass (feat. Yunomi)
Artist:Kozakai Yurie, Oomori Nichika, Hasegawa Rena
ArtistUnicode:小坂井祐莉絵、大森日雅、長谷川玲奈
Creator:Genjuro
Version:Inner Oni
Source:
Tags:electronic japanese denonbu 電音部 harajuku music club bandai namco asmr 桜乃美々兎 Sakurano Mimito 水上 雛 Minakami Hina 犬吠埼紫杏 Inubousaki Shian
BeatmapID:2974710
BeatmapSetID:1446332

[Difficulty]
HPDrainRate:6
CircleSize:2
OverallDifficulty:6
ApproachRate:10
SliderMultiplier:1.4
SliderTickRate:1

[Events]
//Background and Video events
0,0,"bg.jpg",0,40
//Break Periods
//Storyboard Layer 0 (Background)
//Storyboard Layer 1 (Fail)
//Storyboard Layer 2 (Pass)
//Storyboard Layer 3 (Foreground)
//Storyboard Layer 4 (Overlay)
//Storyboard Sound Samples

[TimingPoints]
560,333.333333333333,4,1,0,70,1,0
43226,-83.3333333333333,4,1,0,70,0,0
43393,-84.6525731419395,4,1,0,70,0,0
43559,-86.0143282668027,4,1,0,70,0,0
43726,-87.4205347339269,4,1,0,70,0,0
43893,-88.873484151636,4,1,0,70,0,0
44059,-90.3755465461177,4,1,0,70,0,0
44226,-91.9293394325386,4,1,0,70,0,0
44393,-93.5374070121253,4,1,0,70,0,0
44559,-95.2027342225269,4,1,0,70,0,0
44726,-96.9285287800188,4,1,0,70,0,0
44893,-98.7179499835635,4,1,0,70,0,0
45059,-100.574683742907,4,1,0,70,0,0
45226,-102.50270607144,4,1,0,70,0,0
45726,-108.757005310605,4,1,0,70,0,0
45893,-90.9090909090909,4,1,0,70,0,0
46059,-92.485549132948,4,1,0,70,0,0
46226,-94.1176470588235,4,1,0,70,0,0
46393,-95.8083832335329,4,1,0,70,0,0
46559,-97.5609756097561,4,1,0,70,0,0
46726,-99.3788819875776,4,1,0,70,0,0
46893,-101.26582278481,4,1,0,70,0,0
47059,-103.225806451613,4,1,0,70,0,0
47226,-105.263157894737,4,1,0,70,0,0
47393,-107.38255033557,4,1,0,70,0,0
47559,-109.58904109589,4,1,0,70,0,0
47726,-111.888111888112,4,1,0,70,0,0
47893,-114.285714285714,4,1,0,70,0,0
48393,-122.137404580153,4,1,0,70,0,0
48559,-100,4,1,0,70,0,0
48726,-101.905739229328,4,1,0,70,0,0
48893,-103.885634382821,4,1,0,70,0,0
49059,-105.943875172689,4,1,0,70,0,0
49226,-108.085322553624,4,1,0,70,0,0
49393,-110.315126189473,4,1,0,70,0,0
49559,-112.638996521708,4,1,0,70,0,0
49726,-115.062749470424,4,1,0,70,0,0
49893,-117.593104340361,4,1,0,70,0,0
50059,-120.237396716076,4,1,0,70,0,0
50226,-123.003196853086,4,1,0,70,0,0
50393,-125.899235288045,4,1,0,70,0,0
50559,-128.935099228452,4,1,0,70,0,0
51059,-138.98907684845,4,1,0,70,0,0
51226,-111.111111111111,4,1,0,70,0,0
51393,-113.468868114,4,1,0,70,0,0
51559,-115.928991174326,4,1,0,70,0,0
51726,-118.498013973286,4,1,0,70,0,0
51893,-121.183477844631,4,1,0,70,0,0
52059,-123.993482902539,4,1,0,70,0,0
52226,-126.937059528403,4,1,0,70,0,0
52393,-130.023625292716,4,1,0,70,0,0
52559,-133.333333333333,4,1,0,70,0,0
53559,-177.471107703666,4,1,0,70,0,0
53893,-200,4,1,0,70,0,0
55559,-200,4,1,0,70,0,1
69976,-196.72569749096,4,1,0,70,0,1
70059,-193.556878624353,4,1,0,70,0,1
70143,-190.488889735506,4,1,0,70,0,1
70226,-187.516290477735,4,1,0,70,0,1
70309,-184.635041145919,4,1,0,70,0,1
70393,-181.840994597504,4,1,0,70,0,1
70476,-179.130571856438,4,1,0,70,0,1
70559,-176.499451086707,4,1,0,70,0,1
70643,-173.944504745206,4,1,0,70,0,1
70726,-171.462472008751,4,1,0,70,0,1
70809,-169.050275551949,4,1,0,70,0,1
70893,-166.705286724758,4,1,0,70,0,1
70976,-164.4241946914,4,1,0,70,0,1
71059,-162.204686093381,4,1,0,70,0,1
71143,-160.044300262313,4,1,0,70,0,1
71226,-157.940955353251,4,1,0,70,0,1
71309,-155.891935710166,4,1,0,70,0,1
71393,-153.895400374274,4,1,0,70,0,1
71476,-151.94935831786,4,1,0,70,0,1
71559,-150.051917963615,4,1,0,70,0,1
71643,-148.201500688396,4,1,0,70,0,1
71726,-146.395951273572,4,1,0,70,0,1
71809,-144.633866598399,4,1,0,70,0,1
71893,-142.913695848214,4,1,0,70,0,1
71976,-141.23416058889,4,1,0,70,0,1
72059,-139.593448041923,4,1,0,70,0,1
72143,-137.990417945378,4,1,0,70,0,1
72226,-136.423786851475,4,1,0,70,0,1
72309,-134.892510902687,4,1,0,70,0,1
72393,-133.395050776826,4,1,0,70,0,1
72476,-131.930472640918,4,1,0,70,0,1
72559,-130.497705197854,4,1,0,70,0,1
72643,-129.095723187787,4,1,0,70,0,1
72726,-127.723708074693,4,1,0,70,0,1
72809,-126.380389807674,4,1,0,70,0,1
72893,-125.065033817585,4,1,0,70,0,1
72976,-123.776776011071,4,1,0,70,0,1
73059,-122.514937633771,4,1,0,70,0,1
73143,-121.278420081766,4,1,0,70,0,1
73226,-120.066612956868,4,1,0,70,0,1
73309,-118.878782871469,4,1,0,70,0,1
73393,-117.714225175541,4,1,0,70,0,1
73476,-116.572398453784,4,1,0,70,0,1
73559,-115.452377048991,4,1,0,70,0,1
73643,-114.353673039978,4,1,0,70,0,1
73726,-113.275683562112,4,1,0,70,0,1
73809,-112.217954199364,4,1,0,70,0,1
73893,-111.179671908788,4,1,0,70,0,1
74004,-109.824818432119,4,1,0,70,0,1
74115,-108.502588329245,4,1,0,70,0,1
74226,-107.211932259213,4,1,0,70,0,1
74337,-105.951508113766,4,1,0,70,0,1
74448,-104.720375652932,4,1,0,70,0,1
74559,-103.517632675962,4,1,0,70,0,1
74893,-100.069348058204,4,1,0,70,0,0
80809,-106.569361734779,4,1,0,70,0,0
81059,-114.062542773454,4,1,0,70,0,0
81559,-100,4,1,0,70,0,0
86143,-103.214299721941,4,1,0,70,0,0
86226,-104.332076479585,4,1,0,70,0,0
86559,-109.056605831257,4,1,0,70,0,0
86893,-114.229187156527,4,1,0,70,0,0
87115,-117.959164896296,4,1,0,70,0,0
87226,-119.917017423943,4,1,0,70,0,0
87559,-126.200800617879,4,1,0,70,0,0
87893,-133.179732708276,4,1,0,70,0,0
96559,-100,4,1,0,70,0,0
104643,-96.9849324208991,4,1,0,70,0,0
104726,-94.1463561594312,4,1,0,70,0,0
104809,-91.4692151209589,4,1,0,70,0,0
104893,-88.9401183970856,4,1,0,70,0,0
104976,-86.5471162500865,4,1,0,70,0,0
105059,-84.2795113136816,4,1,0,70,0,0
105143,-82.1276312666462,4,1,0,70,0,0
105226,-80.082965952727,4,1,0,70,0,0
105309,-78.1376363208738,4,1,0,70,0,0
105393,-76.2845750300752,4,1,0,70,0,0
105476,-74.517369626273,4,1,0,70,0,0
105559,-72.8301884044144,4,1,0,70,0,0
105643,-71.2177161190618,4,1,0,70,0,0
105726,-69.6750980502817,4,1,0,70,0,0
105809,-68.1978911848088,4,1,0,70,0,0
105893,-66.6666666666667,4,1,0,70,0,0
106226,-72.7272727272727,4,1,0,70,0,0
106559,-80,4,1,0,70,0,0
106893,-88.8888888888889,4,1,0,70,0,0
107226,-100,4,1,0,70,0,0
108226,-83.3333333333333,4,1,0,70,0,1
112226,-83.3333333333333,4,1,0,70,0,0
112559,-83.3333333333333,4,1,0,70,0,1
127226,-83.3333333333333,4,1,0,70,0,0
127282,-83.91606044306,4,1,0,70,0,0
127337,-84.5070660583285,4,1,0,70,0,0
127393,-85.1063829787234,4,1,0,70,0,0
127559,-86.9565217391304,4,1,0,70,0,0
127615,-87.591215301835,4,1,0,70,0,0
127671,-88.2353200692118,4,1,0,70,0,0
127726,-88.8888888888889,4,1,0,70,0,0
127893,-90.9090909090909,4,1,0,70,0,0
127948,-91.6030254647251,4,1,0,70,0,0
128004,-92.3077207100679,4,1,0,70,0,0
128059,-93.0232558139535,4,1,0,70,0,0
128143,-94.1176470588235,4,1,0,70,0,0
128226,-95.2380952380952,4,1,0,70,0,0
128559,-100,4,1,0,70,0,0

[HitObjects]
256,192,11059,5,0,0:0:0:0:
256,192,11226,1,8,0:0:0:0:
256,192,11393,1,0,0:0:0:0:
256,192,11559,1,8,0:0:0:0:
256,192,11726,1,8,0:0:0:0:
256,192,11893,1,0,0:0:0:0:
256,192,12059,1,8,0:0:0:0:
256,192,12226,1,0,0:0:0:0:
256,192,12393,1,0,0:0:0:0:
256,192,12559,1,8,0:0:0:0:
256,192,12726,1,0,0:0:0:0:
256,192,12893,1,8,0:0:0:0:
256,192,13059,1,8,0:0:0:0:
256,192,13226,1,0,0:0:0:0:
256,192,13393,1,8,0:0:0:0:
256,192,13726,1,8,0:0:0:0:
256,192,13893,1,0,0:0:0:0:
256,192,14059,1,8,0:0:0:0:
256,192,14226,1,0,0:0:0:0:
256,192,14393,1,0,0:0:0:0:
256,192,14559,1,8,0:0:0:0:
256,192,14726,1,0,0:0:0:0:
256,192,14893,1,8,0:0:0:0:
256,192,15059,1,8,0:0:0:0:
256,192,15226,1,0,0:0:0:0:
256,192,15393,1,8,0:0:0:0:
256,192,15559,1,0,0:0:0:0:
256,192,15726,1,0,0:0:0:0:
256,192,15893,1,8,0:0:0:0:
256,192,16059,1,0,0:0:0:0:
256,192,16393,1,0,0:0:0:0:
256,192,16559,1,8,0:0:0:0:
256,192,16893,1,8,0:0:0:0:
256,192,17059,1,0,0:0:0:0:
256,192,17226,1,8,0:0:0:0:
256,192,17393,1,8,0:0:0:0:
256,192,17559,1,0,0:0:0:0:
256,192,17726,1,8,0:0:0:0:
256,192,17893,1,0,0:0:0:0:
256,192,18059,1,0,0:0:0:0:
256,192,18226,1,8,0:0:0:0:
256,192,18393,1,0,0:0:0:0:
256,192,18559,1,8,0:0:0:0:
256,192,18726,1,8,0:0:0:0:
256,192,19059,1,8,0:0:0:0:
256,192,19226,1,0,0:0:0:0:
256,192,19559,1,0,0:0:0:0:
256,192,19726,1,0,0:0:0:0:
256,192,19893,1,8,0:0:0:0:
256,192,20226,1,8,0:0:0:0:
256,192,20393,1,0,0:0:0:0:
256,192,20559,1,8,0:0:0:0:
256,192,20726,1,8,0:0:0:0:
256,192,20893,1,0,0:0:0:0:
256,192,21059,1,8,0:0:0:0:
256,192,21226,1,8,0:0:0:0:
256,192,21393,1,0,0:0:0:0:
256,192,21726,1,8,0:0:0:0:
256,192,21782,1,8,0:0:0:0:
256,192,21837,1,8,0:0:0:0:
256,192,21893,1,0,0:0:0:0:
256,192,22059,1,8,0:0:0:0:
256,192,22226,1,0,0:0:0:0:
256,192,22393,1,8,0:0:0:0:
256,192,22476,1,8,0:0:0:0:
256,192,22559,1,0,0:0:0:0:
256,192,22726,1,0,0:0:0:0:
256,192,22893,1,8,0:0:0:0:
256,192,23059,1,0,0:0:0:0:
256,192,23143,1,0,0:0:0:0:
256,192,23226,1,8,0:0:0:0:
256,192,23393,1,8,0:0:0:0:
256,192,23559,1,0,0:0:0:0:
256,192,23726,1,8,0:0:0:0:
256,192,23893,1,0,0:0:0:0:
256,192,24059,1,0,0:0:0:0:
256,192,24226,1,8,0:0:0:0:
256,192,24559,1,8,0:0:0:0:
256,192,24726,1,0,0:0:0:0:
256,192,24893,1,8,0:0:0:0:
256,192,25059,1,8,0:0:0:0:
256,192,25226,1,0,0:0:0:0:
256,192,25393,1,8,0:0:0:0:
256,192,25559,1,0,0:0:0:0:
256,192,25726,1,0,0:0:0:0:
256,192,25809,1,0,0:0:0:0:
256,192,25893,1,8,0:0:0:0:
256,192,26059,1,0,0:0:0:0:
256,192,26226,1,8,0:0:0:0:
256,192,26393,1,8,0:0:0:0:
256,192,26559,1,0,0:0:0:0:
256,192,26726,1,8,0:0:0:0:
256,192,26893,1,0,0:0:0:0:
256,192,27004,1,8,0:0:0:0:
256,192,27059,1,8,0:0:0:0:
256,192,27115,1,8,0:0:0:0:
256,192,27171,1,8,0:0:0:0:
256,192,27226,1,0,0:0:0:0:
256,192,27726,1,8,0:0:0:0:
256,192,27893,1,0,0:0:0:0:
256,192,28059,1,0,0:0:0:0:
256,192,28226,1,8,0:0:0:0:
256,192,28393,1,0,0:0:0:0:
256,192,28476,1,0,0:0:0:0:
256,192,28559,1,0,0:0:0:0:
256,192,28726,1,8,0:0:0:0:
256,192,28893,1,8,0:0:0:0:
256,192,29059,1,0,0:0:0:0:
256,192,29115,1,0,0:0:0:0:
256,192,29171,1,0,0:0:0:0:
256,192,29226,1,8,0:0:0:0:
256,192,29393,1,0,0:0:0:0:
256,192,29559,1,8,0:0:0:0:
256,192,29615,1,0,0:0:0:0:
256,192,29671,1,0,0:0:0:0:
256,192,29726,1,8,0:0:0:0:
256,192,29893,1,0,0:0:0:0:
256,192,30059,1,0,0:0:0:0:
256,192,30226,1,8,0:0:0:0:
256,192,30393,1,0,0:0:0:0:
256,192,30476,1,8,0:0:0:0:
256,192,30559,1,0,0:0:0:0:
256,192,30726,1,8,0:0:0:0:
256,192,30893,1,0,0:0:0:0:
256,192,31059,1,0,0:0:0:0:
256,192,31226,1,8,0:0:0:0:
256,192,31393,1,0,0:0:0:0:
256,192,31559,1,0,0:0:0:0:
256,192,31726,1,8,0:0:0:0:
256,192,31893,1,0,0:0:0:0:
256,192,32004,1,8,0:0:0:0:
256,192,32115,1,8,0:0:0:0:
256,192,32226,1,0,0:0:0:0:
256,192,32337,1,8,0:0:0:0:
256,192,32448,1,8,0:0:0:0:
256,192,32559,1,0,0:0:0:0:
256,192,32671,1,0,0:0:0:0:
256,192,32782,1,0,0:0:0:0:
256,192,32893,1,8,0:0:0:0:
256,192,33115,1,8,0:0:0:0:
256,192,33226,1,0,0:0:0:0:
256,192,33337,1,0,0:0:0:0:
256,192,33448,1,0,0:0:0:0:
256,192,33559,1,8,0:0:0:0:
256,192,33671,1,8,0:0:0:0:
256,192,33782,1,8,0:0:0:0:
256,192,33893,1,0,0:0:0:0:
256,192,34059,1,8,0:0:0:0:
256,192,34226,1,0,0:0:0:0:
256,192,34393,1,0,0:0:0:0:
256,192,34559,1,8,0:0:0:0:
256,192,35226,1,8,0:0:0:0:
256,192,35337,1,0,0:0:0:0:
256,192,35448,1,0,0:0:0:0:
256,192,35559,1,8,0:0:0:0:
256,192,35671,1,0,0:0:0:0:
256,192,35782,1,0,0:0:0:0:
256,192,35893,1,8,0:0:0:0:
256,192,36004,1,8,0:0:0:0:
256,192,36115,1,8,0:0:0:0:
256,192,36226,1,0,0:0:0:0:
256,192,36393,1,8,0:0:0:0:
256,192,36476,1,8,0:0:0:0:
256,192,36559,1,0,0:0:0:0:
256,192,36726,1,8,0:0:0:0:
256,192,36893,1,8,0:0:0:0:
256,192,37059,1,0,0:0:0:0:
256,192,37226,1,8,0:0:0:0:
256,192,37782,1,8,0:0:0:0:
256,192,37893,1,0,0:0:0:0:
256,192,38004,1,0,0:0:0:0:
256,192,38115,1,0,0:0:0:0:
256,192,38226,1,8,0:0:0:0:
256,192,38337,1,8,0:0:0:0:
256,192,38448,1,8,0:0:0:0:
256,192,38559,1,0,0:0:0:0:
256,192,38671,1,8,0:0:0:0:
256,192,38782,1,8,0:0:0:0:
256,192,38893,1,0,0:0:0:0:
256,192,39115,1,0,0:0:0:0:
256,192,39226,1,8,0:0:0:0:
256,192,39337,1,0,0:0:0:0:
256,192,39448,1,0,0:0:0:0:
256,192,39559,1,8,0:0:0:0:
256,192,39726,1,0,0:0:0:0:
256,192,39893,1,8,0:0:0:0:
256,192,40226,1,8,0:0:0:0:
256,192,40337,1,8,0:0:0:0:
256,192,40448,1,8,0:0:0:0:
256,192,40559,1,0,0:0:0:0:
256,192,40671,1,8,0:0:0:0:
256,192,40782,1,8,0:0:0:0:
256,192,40893,1,0,0:0:0:0:
256,192,41004,1,8,0:0:0:0:
256,192,41115,1,8,0:0:0:0:
256,192,41226,1,0,0:0:0:0:
256,192,41337,1,0,0:0:0:0:
256,192,41448,1,0,0:0:0:0:
256,192,41559,1,8,0:0:0:0:
256,192,41671,1,8,0:0:0:0:
256,192,41782,1,8,0:0:0:0:
256,192,41893,1,0,0:0:0:0:
256,192,42059,1,8,0:0:0:0:
256,192,42226,1,0,0:0:0:0:
256,192,42309,1,8,0:0:0:0:
256,192,42476,1,0,0:0:0:0:
256,192,42643,1,8,0:0:0:0:
256,192,42726,1,8,0:0:0:0:
256,192,42893,1,0,0:0:0:0:
256,192,42976,1,0,0:0:0:0:
256,192,43059,1,8,0:0:0:0:
256,192,43143,1,8,0:0:0:0:
256,192,43226,1,0,0:0:0:0:
256,192,43393,1,8,0:0:0:0:
256,192,43559,1,0,0:0:0:0:
256,192,43726,1,0,0:0:0:0:
256,192,43893,1,8,0:0:0:0:
256,192,44059,1,0,0:0:0:0:
256,192,44226,1,8,0:0:0:0:
256,192,44393,1,8,0:0:0:0:
256,192,44559,1,0,0:0:0:0:
256,192,44726,1,8,0:0:0:0:
256,192,44893,1,8,0:0:0:0:
256,192,45059,1,8,0:0:0:0:
256,192,45226,1,0,0:0:0:0:
256,192,45726,1,0,0:0:0:0:
256,192,45893,1,8,0:0:0:0:
256,192,46059,1,0,0:0:0:0:
256,192,46226,1,8,0:0:0:0:
256,192,46393,1,8,0:0:0:0:
256,192,46559,1,0,0:0:0:0:
256,192,46726,1,8,0:0:0:0:
256,192,46893,1,0,0:0:0:0:
256,192,47059,1,0,0:0:0:0:
256,192,47226,1,8,0:0:0:0:
256,192,47393,1,0,0:0:0:0:
256,192,47559,1,0,0:0:0:0:
256,192,47726,1,0,0:0:0:0:
256,192,47893,1,8,0:0:0:0:
256,192,48393,1,8,0:0:0:0:
256,192,48559,1,0,0:0:0:0:
256,192,48726,1,0,0:0:0:0:
256,192,48893,1,8,0:0:0:0:
256,192,49059,1,0,0:0:0:0:
256,192,49226,1,8,0:0:0:0:
256,192,49393,1,8,0:0:0:0:
256,192,49559,1,0,0:0:0:0:
256,192,49726,1,8,0:0:0:0:
256,192,49893,1,0,0:0:0:0:
256,192,50059,1,8,0:0:0:0:
256,192,50226,1,8,0:0:0:0:
256,192,50393,1,8,0:0:0:0:
256,192,50559,1,0,0:0:0:0:
256,192,51059,1,0,0:0:0:0:
256,192,51226,1,8,0:0:0:0:
256,192,51393,1,8,0:0:0:0:
256,192,51559,1,0,0:0:0:0:
256,192,51726,1,8,0:0:0:0:
256,192,51893,1,0,0:0:0:0:
256,192,52059,1,0,0:0:0:0:
256,192,52226,1,8,0:0:0:0:
256,192,52393,1,0,0:0:0:0:
256,192,53559,1,8,0:0:0:0:
256,192,53893,1,0,0:0:0:0:
256,192,54559,1,0,0:0:0:0:
256,192,55226,1,8,0:0:0:0:
256,192,55559,1,4,0:0:0:0:
256,192,55893,1,8,0:0:0:0:
256,192,56226,1,0,0:0:0:0:
256,192,56559,1,0,0:0:0:0:
256,192,56893,1,8,0:0:0:0:
256,192,57226,1,0,0:0:0:0:
256,192,57559,1,0,0:0:0:0:
256,192,57893,1,8,0:0:0:0:
256,192,58226,1,0,0:0:0:0:
256,192,58393,1,0,0:0:0:0:
256,192,58559,1,8,0:0:0:0:
256,192,58726,1,0,0:0:0:0:
256,192,58893,1,0,0:0:0:0:
256,192,59226,1,8,0:0:0:0:
256,192,59393,1,8,0:0:0:0:
256,192,59559,1,0,0:0:0:0:
256,192,59726,1,8,0:0:0:0:
256,192,59893,1,0,0:0:0:0:
256,192,60059,1,0,0:0:0:0:
256,192,60226,1,8,0:0:0:0:
256,192,60393,1,0,0:0:0:0:
256,192,60559,1,8,0:0:0:0:
256,192,60726,1,8,0:0:0:0:
256,192,60893,1,0,0:0:0:0:
256,192,61059,1,0,0:0:0:0:
256,192,61226,1,8,0:0:0:0:
256,192,61393,1,0,0:0:0:0:
256,192,61559,1,0,0:0:0:0:
256,192,61726,1,0,0:0:0:0:
256,192,61893,1,8,0:0:0:0:
256,192,62059,1,8,0:0:0:0:
256,192,62226,1,0,0:0:0:0:
256,192,62393,1,0,0:0:0:0:
256,192,62559,1,8,0:0:0:0:
256,192,62726,1,0,0:0:0:0:
256,192,62893,1,0,0:0:0:0:
256,192,63059,1,8,0:0:0:0:
256,192,63226,1,0,0:0:0:0:
256,192,63309,1,0,0:0:0:0:
256,192,63393,1,0,0:0:0:0:
256,192,63476,1,0,0:0:0:0:
256,192,63559,1,8,0:0:0:0:
256,192,63643,1,8,0:0:0:0:
256,192,63726,1,0,0:0:0:0:
256,192,63809,1,0,0:0:0:0:
256,192,63893,1,8,0:0:0:0:
256,192,63976,1,8,0:0:0:0:
256,192,64059,1,8,0:0:0:0:
256,192,64143,1,8,0:0:0:0:
256,192,64226,1,0,0:0:0:0:
256,192,64309,1,0,0:0:0:0:
256,192,64393,1,8,0:0:0:0:
256,192,64559,1,8,0:0:0:0:
256,192,64643,1,0,0:0:0:0:
256,192,64726,1,0,0:0:0:0:
256,192,64809,1,0,0:0:0:0:
256,192,64893,1,8,0:0:0:0:
256,192,64976,1,8,0:0:0:0:
256,192,65059,1,0,0:0:0:0:
256,192,65143,1,0,0:0:0:0:
256,192,65226,1,8,0:0:0:0:
256,192,65309,1,0,0:0:0:0:
256,192,65393,1,0,0:0:0:0:
256,192,65476,1,0,0:0:0:0:
256,192,65559,1,8,0:0:0:0:
256,192,65643,1,0,0:0:0:0:
256,192,65726,1,8,0:0:0:0:
256,192,65809,1,0,0:0:0:0:
256,192,65893,1,8,0:0:0:0:
256,192,65976,1,0,0:0:0:0:
256,192,66059,1,0,0:0:0:0:
256,192,66143,1,0,0:0:0:0:
256,192,66226,1,8,0:0:0:0:
256,192,66309,1,8,0:0:0:0:
256,192,66393,1,0,0:0:0:0:
256,192,66476,1,0,0:0:0:0:
256,192,66559,1,8,0:0:0:0:
256,192,66643,1,0,0:0:0:0:
256,192,66726,1,0,0:0:0:0:
256,192,66809,1,0,0:0:0:0:
256,192,66893,1,8,0:0:0:0:
256,192,66976,1,8,0:0:0:0:
256,192,67059,1,8,0:0:0:0:
256,192,67143,1,0,0:0:0:0:
256,192,67226,1,8,0:0:0:0:
256,192,67309,1,0,0:0:0:0:
256,192,67393,1,0,0:0:0:0:
256,192,67476,1,0,0:0:0:0:
256,192,67559,1,8,0:0:0:0:
256,192,67643,1,8,0:0:0:0:
256,192,67726,1,0,0:0:0:0:
256,192,67809,1,0,0:0:0:0:
256,192,67893,1,8,0:0:0:0:
256,192,67976,1,0,0:0:0:0:
256,192,68059,1,0,0:0:0:0:
256,192,68143,1,0,0:0:0:0:
256,192,68226,1,8,0:0:0:0:
256,192,68309,1,0,0:0:0:0:
256,192,68393,1,8,0:0:0:0:
256,192,68559,1,8,0:0:0:0:
256,192,68643,1,8,0:0:0:0:
256,192,68726,1,0,0:0:0:0:
256,192,68893,1,8,0:0:0:0:
256,192,68976,1,8,0:0:0:0:
256,192,69059,1,0,0:0:0:0:
256,192,69226,1,8,0:0:0:0:
256,192,69309,1,8,0:0:0:0:
256,192,69393,1,8,0:0:0:0:
256,192,69559,1,8,0:0:0:0:
256,192,69643,1,8,0:0:0:0:
256,192,69726,1,8,0:0:0:0:
256,192,69893,1,8,0:0:0:0:
256,192,69976,1,8,0:0:0:0:
256,192,70059,1,0,0:0:0:0:
256,192,70143,1,0,0:0:0:0:
256,192,70226,1,8,0:0:0:0:
256,192,70309,1,0,0:0:0:0:
256,192,70393,1,8,0:0:0:0:
256,192,70476,1,0,0:0:0:0:
256,192,70559,1,8,0:0:0:0:
256,192,70643,1,8,0:0:0:0:
256,192,70726,1,0,0:0:0:0:
256,192,70809,1,0,0:0:0:0:
256,192,70893,1,8,0:0:0:0:
256,192,70976,1,8,0:0:0:0:
256,192,71059,1,8,0:0:0:0:
256,192,71143,1,0,0:0:0:0:
256,192,71226,1,8,0:0:0:0:
256,192,71309,1,8,0:0:0:0:
256,192,71393,1,0,0:0:0:0:
256,192,71476,1,0,0:0:0:0:
256,192,71559,1,8,0:0:0:0:
256,192,71643,1,0,0:0:0:0:
256,192,71726,1,8,0:0:0:0:
256,192,71809,1,0,0:0:0:0:
256,192,71893,1,8,0:0:0:0:
256,192,71976,1,8,0:0:0:0:
256,192,72059,1,0,0:0:0:0:
256,192,72143,1,0,0:0:0:0:
256,192,72226,1,8,0:0:0:0:
256,192,72309,1,0,0:0:0:0:
256,192,72393,1,0,0:0:0:0:
256,192,72476,1,0,0:0:0:0:
256,192,72559,1,8,0:0:0:0:
256,192,72643,1,8,0:0:0:0:
256,192,72726,1,0,0:0:0:0:
256,192,72809,1,0,0:0:0:0:
256,192,72893,1,8,0:0:0:0:
256,192,72976,1,0,0:0:0:0:
256,192,73059,1,8,0:0:0:0:
256,192,73143,1,0,0:0:0:0:
256,192,73226,1,8,0:0:0:0:
256,192,73309,1,8,0:0:0:0:
256,192,73393,1,0,0:0:0:0:
256,192,73476,1,0,0:0:0:0:
256,192,73559,1,8,0:0:0:0:
256,192,73643,1,8,0:0:0:0:
256,192,73726,1,8,0:0:0:0:
256,192,73809,1,0,0:0:0:0:
256,192,73893,1,8,0:0:0:0:
256,192,74004,1,0,0:0:0:0:
256,192,74115,1,0,0:0:0:0:
256,192,74226,1,8,0:0:0:0:
256,192,74337,1,0,0:0:0:0:
256,192,74448,1,0,0:0:0:0:
256,192,74559,1,8,0:0:0:0:
256,192,74893,1,0,0:0:0:0:
256,192,75615,1,8,0:0:0:0:
256,192,75671,1,8,0:0:0:0:
256,192,75726,1,0,0:0:0:0:
256,192,75782,1,0,0:0:0:0:
256,192,75837,1,0,0:0:0:0:
256,192,75893,1,8,0:0:0:0:
256,192,76226,1,4,0:0:0:0:
256,192,76393,1,8,0:0:0:0:
256,192,76559,1,8,0:0:0:0:
256,192,76643,1,8,0:0:0:0:
256,192,76726,1,0,0:0:0:0:
256,192,76893,1,8,0:0:0:0:
256,192,77059,1,0,0:0:0:0:
256,192,77143,1,0,0:0:0:0:
256,192,77226,1,8,0:0:0:0:
256,192,77309,1,8,0:0:0:0:
256,192,77393,1,0,0:0:0:0:
256,192,77559,1,8,0:0:0:0:
256,192,77726,1,0,0:0:0:0:
256,192,77893,1,0,0:0:0:0:
256,192,77976,1,0,0:0:0:0:
256,192,78059,1,8,0:0:0:0:
256,192,78226,1,0,0:0:0:0:
256,192,78393,1,8,0:0:0:0:
256,192,78559,1,8,0:0:0:0:
256,192,78643,1,8,0:0:0:0:
256,192,78726,1,0,0:0:0:0:
256,192,78893,1,8,0:0:0:0:
256,192,79059,1,0,0:0:0:0:
256,192,79143,1,8,0:0:0:0:
256,192,79226,1,0,0:0:0:0:
256,192,79309,1,0,0:0:0:0:
256,192,79393,1,8,0:0:0:0:
256,192,79559,1,0,0:0:0:0:
256,192,79726,1,8,0:0:0:0:
256,192,79893,1,8,0:0:0:0:
256,192,80004,1,0,0:0:0:0:
256,192,80115,1,0,0:0:0:0:
256,192,80226,1,8,0:0:0:0:
256,192,80309,1,8,0:0:0:0:
256,192,80393,1,8,0:0:0:0:
256,192,80476,1,8,0:0:0:0:
256,192,80559,1,0,0:0:0:0:
256,192,80809,1,0,0:0:0:0:
256,192,81059,1,0,0:0:0:0:
256,192,81559,1,8,0:0:0:0:
256,192,81726,1,0,0:0:0:0:
256,192,81809,1,8,0:0:0:0:
256,192,81893,1,8,0:0:0:0:
256,192,81976,1,8,0:0:0:0:
256,192,82059,1,0,0:0:0:0:
256,192,82226,1,8,0:0:0:0:
256,192,82393,1,0,0:0:0:0:
256,192,82476,1,0,0:0:0:0:
256,192,82559,1,8,0:0:0:0:
256,192,82643,1,0,0:0:0:0:
256,192,82726,1,8,0:0:0:0:
256,192,82809,1,8,0:0:0:0:
256,192,82893,1,0,0:0:0:0:
256,192,83059,1,8,0:0:0:0:
256,192,83226,1,0,0:0:0:0:
256,192,83309,1,0,0:0:0:0:
256,192,83393,1,8,0:0:0:0:
256,192,83476,1,8,0:0:0:0:
256,192,83559,1,0,0:0:0:0:
256,192,83726,1,0,0:0:0:0:
256,192,83893,1,8,0:0:0:0:
256,192,84059,1,0,0:0:0:0:
256,192,84143,1,8,0:0:0:0:
256,192,84226,1,0,0:0:0:0:
256,192,84393,1,8,0:0:0:0:
256,192,84559,1,0,0:0:0:0:
256,192,84643,1,8,0:0:0:0:
256,192,84726,1,0,0:0:0:0:
256,192,84809,1,0,0:0:0:0:
256,192,84893,1,8,0:0:0:0:
256,192,85059,1,0,0:0:0:0:
256,192,85143,1,0,0:0:0:0:
256,192,85226,1,8,0:0:0:0:
256,192,85393,1,0,0:0:0:0:
256,192,85559,1,8,0:0:0:0:
256,192,85671,1,8,0:0:0:0:
256,192,85782,1,8,0:0:0:0:
256,192,85893,1,0,0:0:0:0:
256,192,86143,1,0,0:0:0:0:
256,192,86226,1,8,0:0:0:0:
256,192,86559,1,0,0:0:0:0:
256,192,86893,1,8,0:0:0:0:
256,192,87115,1,8,0:0:0:0:
256,192,87226,1,0,0:0:0:0:
256,192,87559,1,8,0:0:0:0:
256,192,87893,1,0,0:0:0:0:
256,192,88448,1,0,0:0:0:0:
256,192,88559,1,8,0:0:0:0:
256,192,88782,1,8,0:0:0:0:
256,192,88893,1,0,0:0:0:0:
256,192,89115,1,8,0:0:0:0:
256,192,89226,1,8,0:0:0:0:
256,192,89448,1,0,0:0:0:0:
256,192,89559,1,8,0:0:0:0:
256,192,89893,1,8,0:0:0:0:
256,192,90059,1,0,0:0:0:0:
256,192,90226,1,8,0:0:0:0:
256,192,90393,1,8,0:0:0:0:
256,192,90559,1,0,0:0:0:0:
256,192,91059,1,0,0:0:0:0:
256,192,91226,1,8,0:0:0:0:
256,192,91393,1,0,0:0:0:0:
256,192,91559,1,8,0:0:0:0:
256,192,91726,1,8,0:0:0:0:
256,192,91893,1,0,0:0:0:0:
256,192,92059,1,8,0:0:0:0:
256,192,92226,1,0,0:0:0:0:
256,192,92559,1,0,0:0:0:0:
256,192,92726,1,0,0:0:0:0:
256,192,92893,1,8,0:0:0:0:
256,192,93059,1,0,0:0:0:0:
256,192,93226,1,8,0:0:0:0:
256,192,93393,1,8,0:0:0:0:
256,192,93559,1,0,0:0:0:0:
256,192,93726,1,8,0:0:0:0:
256,192,93893,1,0,0:0:0:0:
256,192,94059,1,0,0:0:0:0:
256,192,94226,1,8,0:0:0:0:
256,192,94393,1,8,0:0:0:0:
256,192,94559,1,0,0:0:0:0:
256,192,94726,1,8,0:0:0:0:
256,192,94893,1,8,0:0:0:0:
256,192,95059,1,8,0:0:0:0:
256,192,95226,1,0,0:0:0:0:
256,192,95393,1,0,0:0:0:0:
256,192,95559,1,8,0:0:0:0:
256,192,95726,1,8,0:0:0:0:
256,192,95893,1,0,0:0:0:0:
256,192,96559,1,0,0:0:0:0:
256,192,96726,1,8,0:0:0:0:
256,192,96809,1,8,0:0:0:0:
256,192,96893,1,0,0:0:0:0:
256,192,96976,1,0,0:0:0:0:
256,192,97059,1,8,0:0:0:0:
256,192,97226,1,0,0:0:0:0:
256,192,97393,1,8,0:0:0:0:
256,192,97476,1,8,0:0:0:0:
256,192,97559,1,0,0:0:0:0:
256,192,97726,1,8,0:0:0:0:
256,192,97893,1,0,0:0:0:0:
256,192,98059,1,8,0:0:0:0:
256,192,98143,1,8,0:0:0:0:
256,192,98226,1,0,0:0:0:0:
256,192,98309,1,8,0:0:0:0:
256,192,98393,1,8,0:0:0:0:
256,192,98559,1,0,0:0:0:0:
256,192,98643,1,8,0:0:0:0:
256,192,98809,1,8,0:0:0:0:
256,192,98893,1,0,0:0:0:0:
256,192,99059,1,8,0:0:0:0:
256,192,99226,1,0,0:0:0:0:
256,192,99393,1,8,0:0:0:0:
256,192,99476,1,8,0:0:0:0:
256,192,99559,1,0,0:0:0:0:
256,192,99643,1,0,0:0:0:0:
256,192,99726,1,8,0:0:0:0:
256,192,99893,1,0,0:0:0:0:
256,192,100059,1,8,0:0:0:0:
256,192,100143,1,8,0:0:0:0:
256,192,100226,1,0,0:0:0:0:
256,192,100393,1,8,0:0:0:0:
256,192,100559,1,0,0:0:0:0:
256,192,100726,1,8,0:0:0:0:
256,192,100809,1,8,0:0:0:0:
256,192,100893,1,0,0:0:0:0:
256,192,100976,1,8,0:0:0:0:
256,192,101059,1,8,0:0:0:0:
256,192,101226,1,0,0:0:0:0:
256,192,101309,1,8,0:0:0:0:
256,192,101476,1,8,0:0:0:0:
256,192,101559,1,0,0:0:0:0:
256,192,101643,1,0,0:0:0:0:
256,192,101726,1,8,0:0:0:0:
256,192,101893,1,0,0:0:0:0:
256,192,102059,1,8,0:0:0:0:
256,192,102143,1,0,0:0:0:0:
256,192,102226,1,8,0:0:0:0:
256,192,102309,1,8,0:0:0:0:
256,192,102393,1,0,0:0:0:0:
256,192,102559,1,0,0:0:0:0:
256,192,102643,1,8,0:0:0:0:
256,192,102726,1,0,0:0:0:0:
256,192,102809,1,0,0:0:0:0:
256,192,102893,1,8,0:0:0:0:
256,192,103059,1,8,0:0:0:0:
256,192,103226,1,0,0:0:0:0:
256,192,103393,1,8,0:0:0:0:
256,192,103476,1,0,0:0:0:0:
256,192,103559,1,8,0:0:0:0:
256,192,103726,1,0,0:0:0:0:
256,192,103893,1,8,0:0:0:0:
256,192,103976,1,8,0:0:0:0:
256,192,104059,1,0,0:0:0:0:
256,192,104143,1,8,0:0:0:0:
256,192,104226,1,8,0:0:0:0:
256,192,104309,1,8,0:0:0:0:
256,192,104393,1,0,0:0:0:0:
256,192,104559,1,0,0:0:0:0:
256,192,104643,1,0,0:0:0:0:
256,192,104726,1,8,0:0:0:0:
256,192,104809,1,0,0:0:0:0:
256,192,104893,1,8,0:0:0:0:
256,192,104976,1,8,0:0:0:0:
256,192,105059,1,0,0:0:0:0:
256,192,105143,1,8,0:0:0:0:
256,192,105226,1,0,0:0:0:0:
256,192,105309,1,0,0:0:0:0:
256,192,105393,1,8,0:0:0:0:
256,192,105476,1,8,0:0:0:0:
256,192,105559,1,0,0:0:0:0:
256,192,105643,1,8,0:0:0:0:
256,192,105726,1,8,0:0:0:0:
256,192,105809,1,8,0:0:0:0:
256,192,105893,1,0,0:0:0:0:
256,192,106226,1,0,0:0:0:0:
256,192,106559,1,8,0:0:0:0:
256,192,106893,1,8,0:0:0:0:
256,192,107226,1,0,0:0:0:0:
256,192,107559,1,8,0:0:0:0:
256,192,107726,1,0,0:0:0:0:
256,192,107893,1,8,0:0:0:0:
256,192,108226,1,4,0:0:0:0:
256,192,108393,1,8,0:0:0:0:
256,192,108559,1,0,0:0:0:0:
256,192,108643,1,8,0:0:0:0:
256,192,108809,1,8,0:0:0:0:
256,192,108893,1,0,0:0:0:0:
256,192,109059,1,8,0:0:0:0:
256,192,109226,1,0,0:0:0:0:
256,192,109309,1,0,0:0:0:0:
256,192,109393,1,8,0:0:0:0:
256,192,109476,1,8,0:0:0:0:
256,192,109559,1,0,0:0:0:0:
256,192,109726,1,8,0:0:0:0:
256,192,109893,1,0,0:0:0:0:
256,192,109976,1,8,0:0:0:0:
256,192,110143,1,8,0:0:0:0:
256,192,110226,1,0,0:0:0:0:
256,192,110309,1,0,0:0:0:0:
256,192,110393,1,8,0:0:0:0:
256,192,110559,1,0,0:0:0:0:
256,192,110643,1,8,0:0:0:0:
256,192,110726,1,8,0:0:0:0:
256,192,110809,1,0,0:0:0:0:
256,192,110893,1,8,0:0:0:0:
256,192,110976,1,8,0:0:0:0:
256,192,111059,1,0,0:0:0:0:
256,192,111226,1,0,0:0:0:0:
256,192,111309,1,8,0:0:0:0:
256,192,111476,1,8,0:0:0:0:
256,192,111559,1,0,0:0:0:0:
256,192,111726,1,8,0:0:0:0:
256,192,111893,1,0,0:0:0:0:
256,192,111976,1,0,0:0:0:0:
256,192,112059,1,8,0:0:0:0:
256,192,112226,1,0,0:0:0:0:
256,192,112559,1,0,0:0:0:0:
256,192,112643,1,8,0:0:0:0:
256,192,112809,1,8,0:0:0:0:
256,192,112893,1,8,0:0:0:0:
256,192,112976,1,0,0:0:0:0:
256,192,113059,1,8,0:0:0:0:
256,192,113226,1,0,0:0:0:0:
256,192,113309,1,0,0:0:0:0:
256,192,113393,1,8,0:0:0:0:
256,192,113559,1,8,0:0:0:0:
256,192,113643,1,8,0:0:0:0:
256,192,113726,1,0,0:0:0:0:
256,192,113893,1,0,0:0:0:0:
256,192,113976,1,8,0:0:0:0:
256,192,114143,1,8,0:0:0:0:
256,192,114226,1,0,0:0:0:0:
256,192,114309,1,0,0:0:0:0:
256,192,114393,1,8,0:0:0:0:
256,192,114476,1,8,0:0:0:0:
256,192,114559,1,0,0:0:0:0:
256,192,114726,1,0,0:0:0:0:
256,192,114809,1,8,0:0:0:0:
256,192,114893,1,8,0:0:0:0:
256,192,114976,1,8,0:0:0:0:
256,192,115059,1,0,0:0:0:0:
256,192,115226,1,0,0:0:0:0:
256,192,115309,1,8,0:0:0:0:
256,192,115476,1,8,0:0:0:0:
256,192,115559,1,8,0:0:0:0:
256,192,115643,1,0,0:0:0:0:
256,192,115726,1,8,0:0:0:0:
256,192,115893,1,0,0:0:0:0:
256,192,115976,1,0,0:0:0:0:
256,192,116059,1,8,0:0:0:0:
256,192,116143,1,0,0:0:0:0:
256,192,116226,1,8,0:0:0:0:
256,192,116309,1,8,0:0:0:0:
256,192,116393,1,0,0:0:0:0:
256,192,116559,1,0,0:0:0:0:
256,192,116643,1,8,0:0:0:0:
256,192,116726,1,0,0:0:0:0:
256,192,116809,1,0,0:0:0:0:
256,192,116893,1,8,0:0:0:0:
256,192,116976,1,0,0:0:0:0:
256,192,117059,1,8,0:0:0:0:
256,192,117143,1,8,0:0:0:0:
256,192,117226,1,0,0:0:0:0:
256,192,117393,1,8,0:0:0:0:
256,192,117476,1,8,0:0:0:0:
256,192,117559,1,0,0:0:0:0:
256,192,117643,1,8,0:0:0:0:
256,192,117726,1,8,0:0:0:0:
256,192,117893,1,0,0:0:0:0:
256,192,118059,1,8,0:0:0:0:
256,192,118143,1,8,0:0:0:0:
256,192,118226,1,0,0:0:0:0:
256,192,118393,1,8,0:0:0:0:
256,192,118559,1,0,0:0:0:0:
256,192,118643,1,8,0:0:0:0:
256,192,118726,1,0,0:0:0:0:
256,192,118809,1,0,0:0:0:0:
256,192,118893,1,8,0:0:0:0:
256,192,119059,1,8,0:0:0:0:
256,192,119226,1,0,0:0:0:0:
256,192,119393,1,8,0:0:0:0:
256,192,119476,1,8,0:0:0:0:
256,192,119559,1,0,0:0:0:0:
256,192,119726,1,0,0:0:0:0:
256,192,119893,1,8,0:0:0:0:
256,192,119976,1,0,0:0:0:0:
256,192,120059,1,8,0:0:0:0:
256,192,120143,1,8,0:0:0:0:
256,192,120226,1,0,0:0:0:0:
256,192,120309,1,0,0:0:0:0:
256,192,120393,1,8,0:0:0:0:
256,192,120559,1,0,0:0:0:0:
256,192,120643,1,8,0:0:0:0:
256,192,120809,1,8,0:0:0:0:
256,192,120893,1,0,0:0:0:0:
256,192,120976,1,8,0:0:0:0:
256,192,121143,1,0,0:0:0:0:
256,192,121226,1,8,0:0:0:0:
256,192,121309,1,8,0:0:0:0:
256,192,121393,1,0,0:0:0:0:
256,192,121559,1,0,0:0:0:0:
256,192,121643,1,0,0:0:0:0:
256,192,121726,1,8,0:0:0:0:
256,192,121809,1,8,0:0:0:0:
256,192,121893,1,0,0:0:0:0:
256,192,122059,1,8,0:0:0:0:
256,192,122143,1,8,0:0:0:0:
256,192,122226,1,0,0:0:0:0:
256,192,122393,1,0,0:0:0:0:
256,192,122476,1,0,0:0:0:0:
256,192,122559,1,8,0:0:0:0:
256,192,122726,1,0,0:0:0:0:
256,192,122809,1,8,0:0:0:0:
256,192,122893,1,8,0:0:0:0:
256,192,122976,1,8,0:0:0:0:
256,192,123059,1,0,0:0:0:0:
256,192,123226,1,8,0:0:0:0:
256,192,123309,1,8,0:0:0:0:
256,192,123476,1,0,0:0:0:0:
256,192,123559,1,8,0:0:0:0:
256,192,123726,1,0,0:0:0:0:
256,192,123893,1,8,0:0:0:0:
256,192,123976,1,8,0:0:0:0:
256,192,124059,1,0,0:0:0:0:
256,192,124143,1,8,0:0:0:0:
256,192,124226,1,0,0:0:0:0:
256,192,124309,1,0,0:0:0:0:
256,192,124393,1,8,0:0:0:0:
256,192,124559,1,0,0:0:0:0:
256,192,124643,1,8,0:0:0:0:
256,192,124726,1,0,0:0:0:0:
256,192,124809,1,0,0:0:0:0:
256,192,124893,1,8,0:0:0:0:
256,192,124976,1,0,0:0:0:0:
256,192,125059,1,8,0:0:0:0:
256,192,125143,1,8,0:0:0:0:
256,192,125226,1,0,0:0:0:0:
256,192,125309,1,8,0:0:0:0:
256,192,125393,1,8,0:0:0:0:
256,192,125476,1,8,0:0:0:0:
256,192,125559,1,0,0:0:0:0:
256,192,125643,1,8,0:0:0:0:
256,192,125726,1,0,0:0:0:0:
256,192,125893,1,0,0:0:0:0:
256,192,125976,1,0,0:0:0:0:
256,192,126059,1,8,0:0:0:0:
256,192,126143,1,0,0:0:0:0:
256,192,126226,1,8,0:0:0:0:
256,192,126309,1,8,0:0:0:0:
256,192,126393,1,0,0:0:0:0:
256,192,126476,1,8,0:0:0:0:
256,192,126559,1,0,0:0:0:0:
256,192,126643,1,0,0:0:0:0:
256,192,126726,1,8,0:0:0:0:
256,192,126809,1,8,0:0:0:0:
256,192,126893,1,0,0:0:0:0:
256,192,127004,1,0,0:0:0:0:
256,192,127115,1,0,0:0:0:0:
256,192,127226,1,8,0:0:0:0:
256,192,127282,1,8,0:0:0:0:
256,192,127337,1,8,0:0:0:0:
256,192,127393,1,0,0:0:0:0:
256,192,127559,1,8,0:0:0:0:
256,192,127615,1,8,0:0:0:0:
256,192,127671,1,8,0:0:0:0:
256,192,127726,1,0,0:0:0:0:
256,192,127893,1,8,0:0:0:0:
256,192,127948,1,8,0:0:0:0:
256,192,128004,1,8,0:0:0:0:
256,192,128059,1,0,0:0:0:0:
256,192,128143,1,0,0:0:0:0:
256,192,128226,1,8,0:0:0:0:
256,192,128559,1,0,0:0:0:0:
256,192,128643,1,0,0:0:0:0:
256,192,128726,1,8,0:0:0:0:
256,192,128893,1,8,0:0:0:0:
256,192,128976,1,8,0:0:0:0:
256,192,129059,1,0,0:0:0:0:
256,192,129226,1,0,0:0:0:0:
256,192,129309,1,8,0:0:0:0:
256,192,129393,1,8,0:0:0:0:
256,192,129559,1,8,0:0:0:0:
256,192,129643,1,0,0:0:0:0:
256,192,129726,1,0,0:0:0:0:
256,192,129893,1,8,0:0:0:0:
256,192,129976,1,0,0:0:0:0:
256,192,130059,1,8,0:0:0:0:
256,192,130226,1,0,0:0:0:0:
256,192,130309,1,8,0:0:0:0:
256,192,130393,1,0,0:0:0:0:
256,192,130559,1,8,0:0:0:0:
256,192,130726,1,8,0:0:0:0:
256,192,130893,1,0,0:0:0:0:
256,192,131059,1,0,0:0:0:0:
256,192,131226,1,8,0:0:0:0:
256,192,131309,1,8,0:0:0:0:
256,192,131393,1,0,0:0:0:0:
256,192,131559,1,0,0:0:0:0:
256,192,131643,1,0,0:0:0:0:
256,192,131726,1,8,0:0:0:0:
256,192,131893,1,8,0:0:0:0:
256,192,131976,1,0,0:0:0:0:
256,192,132059,1,0,0:0:0:0:
256,192,132226,1,0,0:0:0:0:
256,192,132309,1,8,0:0:0:0:
256,192,132393,1,8,0:0:0:0:
256,192,132559,1,0,0:0:0:0:
256,192,132726,1,0,0:0:0:0:
256,192,132893,1,8,0:0:0:0:
256,192,133059,1,8,0:0:0:0:
256,192,133226,1,0,0:0:0:0:
256,192,133559,1,0,0:0:0:0:
256,192,133726,1,8,0:0:0:0:
256,192,133809,1,8,0:0:0:0:
256,192,133893,1,0,0:0:0:0:
256,192,134059,1,8,0:0:0:0:
256,192,134226,1,0,0:0:0:0:
256,192,134393,1,0,0:0:0:0:
256,192,134559,1,8,0:0:0:0:
256,192,134726,1,0,0:0:0:0:
256,192,134893,1,8,0:0:0:0:
256,192,135059,1,8,0:0:0:0:
256,192,135226,1,0,0:0:0:0:
256,192,135393,1,8,0:0:0:0:
256,192,135559,1,0,0:0:0:0:
256,192,135726,1,0,0:0:0:0:
256,192,135893,1,8,0:0:0:0:
256,192,136393,1,8,0:0:0:0:
256,192,136559,1,0,0:0:0:0:
256,192,136726,1,8,0:0:0:0:
256,192,136893,1,8,0:0:0:0:
256,192,137059,1,0,0:0:0:0:
256,192,137226,1,8,0:0:0:0:
256,192,137393,1,0,0:0:0:0:
256,192,137559,1,0,0:0:0:0:
256,192,137726,1,8,0:0:0:0:
256,192,137893,1,0,0:0:0:0:
256,192,138059,1,8,0:0:0:0:
256,192,138143,1,8,0:0:0:0:
256,192,138226,1,0,0:0:0:0:
256,192,138393,1,8,0:0:0:0:
256,192,138559,1,0,0:0:0:0:
256,192,138893,1,8,0:0:0:0:
256,192,139226,1,0,0:0:0:0:
