osu file format v14

[General]
AudioFilename: audio.mp3
AudioLeadIn: 0
PreviewTime: 66535
Countdown: 0
SampleSet: Soft
StackLeniency: 0.7
Mode: 0
LetterboxInBreaks: 0
EpilepsyWarning: 1
WidescreenStoryboard: 1

[Editor]
DistanceSpacing: 1.1
BeatDivisor: 4
GridSize: 32
TimelineZoom: 1.3

[Metadata]
Title:Love Wins Again
TitleUnicode:Love Wins Again
Artist:Koven
ArtistUnicode:Koven
Creator:Strategas
Version:Hard
Source:
Tags:dnb drum and bass d&b liquicity electronic edm english -ady
BeatmapID:3046707
BeatmapSetID:1485184

[Difficulty]
HPDrainRate:4.5
CircleSize:4
OverallDifficulty:6
ApproachRate:8
SliderMultiplier:1.5
SliderTickRate:1

[Events]
//Background and Video events
0,0,"L16.jpg",0,0
//Break Periods
2,111907,127681
//Storyboard Layer 0 (Background)
Sprite,Background,Centre,"L16.jpg",320,240 F,0,0,,0
//Storyboard Layer 1 (Fail)
//Storyboard Layer 2 (Pass)
//Storyboard Layer 3 (Foreground)
//Storyboard Layer 4 (Overlay)
//Storyboard Sound Samples

[TimingPoints]
1363,344.827586206897,4,2,25,65,1,0
45500,-125,4,2,25,60,0,0
45759,-125,4,2,25,5,0,0
45845,-125,4,2,25,60,0,0
56535,-125,4,2,25,65,0,0
62052,-111.111111111111,4,2,25,68,0,0
63431,-111.111111111111,4,2,25,71,0,0
64811,-111.111111111111,4,2,25,75,0,0
67483,-111.111111111111,4,2,25,5,0,0
67569,-100,4,2,26,85,0,1
76104,-100,4,2,26,5,0,1
76190,-100,4,2,26,85,0,1
86880,-133.333333333333,4,2,25,70,0,0
89294,-133.333333333333,4,2,25,70,0,0
89552,-133.333333333333,4,2,25,5,0,0
89638,-100,4,2,26,85,0,1
89897,-100,4,2,26,5,0,1
89983,-100,4,2,26,85,0,1
92656,-100,4,2,26,5,0,1
92742,-100,4,2,26,85,0,1
95069,-100,4,2,26,5,0,1
95156,-100,4,2,26,85,0,1
95500,-100,4,2,26,85,0,1
97569,-100,4,2,26,85,0,1
97828,-100,4,2,26,5,0,1
97914,-100,4,2,26,85,0,1
98173,-100,4,2,26,5,0,1
98259,-100,4,2,26,85,0,1
100931,-100,4,2,26,5,0,1
101018,-100,4,2,26,85,0,1
103087,-100,4,2,26,85,0,1
103345,-100,4,2,26,5,0,1
103431,-100,4,2,26,85,0,1
103690,-100,4,2,26,5,0,1
103776,-100,4,2,26,85,0,1
106104,-100,4,2,26,5,0,1
106190,-100,4,2,26,85,0,1
106449,-100,4,2,26,5,0,1
106535,-100,4,2,26,85,0,1
108604,-100,4,2,26,85,0,1
108863,-100,4,2,26,5,0,1
108949,-100,4,2,26,85,0,1
109207,-100,4,2,26,5,0,1
109294,-100,4,2,26,85,0,1
110328,-100,4,2,25,70,0,0
110931,-100,4,2,25,5,0,0
111018,-100,4,2,25,70,0,0
111276,-100,4,2,25,5,0,0
111363,-125,4,2,25,70,0,0
133776,-166.666666666667,4,2,25,50,0,0
144121,-166.666666666667,4,2,25,60,0,0
144811,-125,4,2,25,65,0,0
146190,-125,4,2,25,65,0,0
148949,-125,4,2,25,65,0,0
150328,-111.111111111111,4,2,25,68,0,0
151707,-111.111111111111,4,2,25,71,0,0
153087,-111.111111111111,4,2,25,75,0,0
155759,-111.111111111111,4,2,25,5,0,0
155845,-100,4,2,26,85,0,1
164380,-100,4,2,26,5,0,1
164466,-100,4,2,26,85,0,1
175156,-133.333333333333,4,2,25,70,0,0
177569,-133.333333333333,4,2,25,70,0,0
177828,-133.333333333333,4,2,25,5,0,0
177914,-100,4,2,26,85,0,1
178259,-100,4,2,26,85,0,1
179983,-100,4,2,26,85,0,1
180931,-100,4,2,26,5,0,1
181018,-100,4,2,26,85,0,1
182052,-100,4,2,26,85,0,1
183345,-100,4,2,26,5,0,1
183431,-100,4,2,26,85,0,1
183690,-100,4,2,26,5,0,1
183776,-100,4,2,26,85,0,1
185845,-100,4,2,26,85,0,1
186104,-100,4,2,26,5,0,1
186190,-100,4,2,26,85,0,1
186449,-100,4,2,26,5,0,1
186535,-100,4,2,26,85,0,1
189207,-100,4,2,26,5,0,1
189294,-100,4,2,26,85,0,1
191363,-100,4,2,26,85,0,1
191621,-100,4,2,26,5,0,1
191707,-105.263157894737,4,2,26,77,0,0
193087,-111.111111111111,4,2,26,74,0,0
194811,-117.647058823529,4,2,26,71,0,0
197569,-125,4,2,26,65,0,0

[Colours]
Combo1 : 235,232,90
Combo2 : 173,182,220
Combo3 : 217,143,77
Combo4 : 108,135,189

[HitObjects]
146,146,45500,5,0,1:0:0:0:
146,146,45845,2,0,P|200:125|265:141,1,120,2|2,0:0|0:0,0:0:0:0:
328,203,46535,2,0,P|382:224|447:208,1,120,2|2,0:0|0:0,0:0:0:0:
504,139,47225,1,2,0:0:0:0:
448,61,47569,2,0,B|306:34|332:106|191:71,1,240,2|0,0:0|0:0,0:0:0:0:
121,42,48604,5,2,0:0:0:0:
110,137,48949,1,2,0:0:0:0:
99,232,49294,1,2,0:0:0:0:
88,327,49638,2,0,B|229:353|203:281|344:316,1,240,2|0,0:0|0:0,0:0:0:0:
415,342,50673,1,0,0:0:0:0:
415,342,51018,1,0,0:0:0:0:
466,260,51363,6,0,L|470:138,1,120,2|2,0:0|0:0,0:0:0:0:
405,69,52052,2,0,L|283:65,1,120,2|2,0:0|0:0,0:0:0:0:
209,124,52742,2,0,L|205:246,1,120,2|2,0:0|0:0,0:0:0:0:
263,326,53431,1,2,0:0:0:0:
263,326,53776,1,0,0:0:0:0:
359,326,54121,5,2,0:0:0:0:
370,231,54466,1,2,0:0:0:0:
381,136,54811,1,2,0:0:0:0:
392,41,55156,2,0,B|294:23|312:72|215:48,1,180,2|0,0:0|0:0,0:0:0:0:
205,43,55845,2,0,B|181:140|230:122|212:219,1,180,2|0,0:0|0:0,0:0:0:0:
216,232,56535,6,0,B|279:236|279:236|318:217|318:217|391:222,2,180,0|2|2,1:0|0:0|0:0,0:0:0:0:
248,141,57914,2,0,L|128:136,1,120,2|0,0:0|0:0,0:0:0:0:
120,144,58431,2,0,L|115:263,1,120,2|0,0:0|0:0,0:0:0:0:
120,274,58949,1,2,0:0:0:0:
215,287,59294,6,0,B|152:283|152:283|113:302|113:302|40:297,2,180,2|2|2,1:2|0:0|0:0,0:0:0:0:
183,378,60673,2,0,L|302:382,1,120,2|0,0:0|0:0,0:0:0:0:
311,375,61190,2,0,L|315:255,1,120,2|0,0:0|0:0,0:0:0:0:
311,245,61707,1,2,0:0:0:0:
249,156,62052,6,0,B|240:123|240:123|250:88,2,67.4999979400635,8|0|0,0:0|1:0|1:0,0:0:0:0:
199,218,62569,2,0,B|208:251|208:251|198:283,2,67.4999979400635,8|0|0,0:0|1:0|1:0,0:0:0:0:
149,158,63087,2,0,B|116:149|116:149|81:159,1,67.4999979400635,8|0,0:0|1:0,0:0:0:0:
39,222,63431,5,8,0:0:0:0:
38,264,63604,1,0,1:0:0:0:
37,306,63776,1,0,1:0:0:0:
95,359,63949,2,0,B|128:368|128:368|160:358,2,67.4999979400635,8|0|0,0:0|1:0|1:0,0:0:0:0:
128,288,64466,2,0,B|160:278|160:278|193:287,1,67.4999979400635,8|0,0:0|1:0,0:0:0:0:
258,327,64811,5,8,0:0:0:0:
261,248,64983,1,0,1:0:0:0:
264,169,65156,1,0,1:0:0:0:
321,115,65328,2,0,B|354:106|354:106|389:116,2,67.4999979400635,8|0|0,0:0|1:0|1:0,0:0:0:0:
258,67,65845,1,8,0:0:0:0:
200,121,66018,2,0,B|167:130|167:130|134:121,1,67.4999979400635,0|0,1:0|0:0,0:0:0:0:
1,88,66535,5,2,0:0:0:0:
1,88,66880,1,2,0:0:0:0:
1,88,67225,1,2,0:0:0:0:
29,221,67569,6,0,P|89:177|165:196,1,150,4|8,1:2|0:0,0:0:0:0:
216,251,68087,2,0,P|251:261|288:254,1,75,0|2,0:0|0:0,0:0:0:0:
355,206,68431,1,0,1:0:0:0:
425,249,68604,2,0,P|431:285|421:321,1,75,8|0,0:0|0:0,0:0:0:0:
354,370,68949,6,0,P|294:326|218:345,1,150,0|8,1:0|0:0,0:0:0:0:
147,372,69466,2,0,P|74:374|23:322,1,150,2|0,0:0|1:0,0:0:0:0:
73,256,69983,2,0,P|79:219|69:183,1,75,8|0,0:0|0:0,0:0:0:0:
33,86,70328,6,0,L|110:82,1,75,0|0,1:0|0:0,0:0:0:0:
182,118,70673,2,0,L|259:122,1,75,8|0,0:0|0:0,0:0:0:0:
333,90,71018,1,2,0:0:0:0:
407,123,71190,1,0,1:0:0:0:
483,90,71363,2,0,L|487:13,1,75,8|0,0:0|0:0,0:0:0:0:
404,6,71707,6,0,L|249:-2,1,150,0|8,1:0|0:0,0:0:0:0:
184,43,72225,2,0,L|29:34,1,150,2|0,0:0|1:0,0:0:0:0:
3,112,72742,2,0,L|-1:189,1,75,8|0,0:0|0:0,0:0:0:0:
82,269,73087,6,0,P|117:259|154:266,1,75,0|0,1:0|0:0,0:0:0:0:
229,300,73431,1,8,0:0:0:0:
296,252,73604,2,0,P|331:242|368:249,1,75,0|2,0:0|0:0,0:0:0:0:
440,289,73949,1,0,1:0:0:0:
498,230,74121,2,0,P|508:195|501:158,1,75,8|0,0:0|0:0,0:0:0:0:
508,75,74466,6,0,P|448:31|372:50,1,150,0|8,1:0|0:0,0:0:0:0:
325,108,74983,2,0,P|253:121|195:78,1,150,2|0,0:0|1:0,0:0:0:0:
134,21,75500,2,0,P|99:11|62:18,1,75,8|0,0:0|0:0,0:0:0:0:
0,117,75845,5,0,1:0:0:0:
0,117,76018,1,0,0:0:0:0:
58,175,76190,2,0,B|94:187|94:187|130:178,1,75,8|0,0:0|0:0,0:0:0:0:
267,124,76535,2,0,B|231:136|231:136|195:127,1,75,2|0,0:0|1:0,0:0:0:0:
65,65,76880,2,0,B|101:77|101:77|137:68,1,75,8|0,0:0|0:0,0:0:0:0:
195,9,77225,6,0,B|247:5|247:5|280:21|280:21|342:17,1,150,0|8,1:0|0:0,0:0:0:0:
423,13,77742,1,2,0:0:0:0:
505,9,77914,1,2,0:0:0:0:
475,90,78087,1,0,1:0:0:0:
475,90,78173,1,0,1:0:0:0:
475,90,78259,1,8,0:0:0:0:
505,166,78431,1,0,1:0:0:0:
484,272,78604,6,0,P|412:285|354:242,1,150,4|8,1:2|0:0,0:0:0:0:
294,184,79121,2,0,P|259:174|222:181,1,75,0|2,0:0|0:0,0:0:0:0:
144,210,79466,1,0,1:0:0:0:
80,156,79638,2,0,P|74:120|84:84,1,75,8|0,0:0|0:0,0:0:0:0:
147,29,79983,6,0,P|207:73|283:54,1,150,0|8,1:0|0:0,0:0:0:0:
344,10,80500,2,0,P|417:8|468:60,1,150,2|0,0:0|1:0,0:0:0:0:
438,137,81018,2,0,P|432:174|442:210,1,75,8|0,0:0|0:0,0:0:0:0:
457,327,81363,6,0,L|380:331,1,75,0|0,1:0|0:0,0:0:0:0:
330,266,81707,2,0,L|253:262,1,75,8|0,0:0|0:0,0:0:0:0:
179,229,82052,1,2,0:0:0:0:
105,261,82225,1,0,1:0:0:0:
34,217,82397,2,0,L|38:140,1,75,8|0,0:0|0:0,0:0:0:0:
97,85,82742,6,0,L|252:93,1,150,0|8,1:0|0:0,0:0:0:0:
304,32,83259,2,0,L|459:41,1,150,2|0,0:0|1:0,0:0:0:0:
497,111,83776,2,0,L|493:185,1,75,8|0,0:0|0:0,0:0:0:0:
420,270,84121,6,0,P|385:280|348:273,1,75,0|0,1:0|0:0,0:0:0:0:
273,239,84466,1,8,0:0:0:0:
206,287,84638,2,0,P|171:297|134:290,1,75,0|2,0:0|0:0,0:0:0:0:
62,250,84983,1,0,1:0:0:0:
24,176,85156,2,0,P|59:166|96:173,1,75,8|0,0:0|0:0,0:0:0:0:
166,128,85500,6,0,P|226:84|302:103,1,150,0|8,1:0|0:0,0:0:0:0:
351,36,86018,2,0,P|422:22|480:65,1,150,2|0,0:0|1:0,0:0:0:0:
436,135,86535,2,0,P|401:145|364:138,1,75,8|0,0:0|0:0,0:0:0:0:
295,98,86880,5,0,1:0:0:0:
277,220,87225,1,0,1:0:0:0:
155,202,87569,1,0,1:0:0:0:
173,80,87914,1,0,1:0:0:0:
116,27,88087,1,0,1:0:0:0:
116,27,88173,1,0,1:0:0:0:
116,27,88259,6,0,L|53:24,1,56.2500021457673,8|0,0:0|1:0,0:0:0:0:
11,86,88604,1,0,1:0:0:0:
64,144,88776,2,0,L|61:207,1,56.2500021457673,10|0,0:0|1:0,0:0:0:0:
13,261,89121,1,0,1:0:0:0:
74,311,89294,2,0,L|137:314,1,56.2500021457673,8|0,0:0|0:0,0:0:0:0:
236,279,89638,5,4,1:2:0:0:
236,279,89983,2,0,P|226:244|233:207,1,75,8|0,0:0|0:0,0:0:0:0:
300,158,90328,2,0,P|310:123|303:86,1,75,2|0,0:0|1:0,0:0:0:0:
243,27,90673,2,0,P|206:19|170:29,1,75,8|0,0:0|0:0,0:0:0:0:
120,95,91018,2,0,P|85:85|48:92,1,75,0|0,1:0|0:0,0:0:0:0:
2,161,91363,2,0,P|-8:196|-1:233,1,75,8|0,0:0|0:0,0:0:0:0:
52,296,91707,1,2,0:0:0:0:
119,248,91880,1,0,1:0:0:0:
186,295,92052,2,0,P|221:305|258:298,1,75,8|0,0:0|0:0,0:0:0:0:
347,229,92397,5,0,1:0:0:0:
347,229,92742,2,0,P|357:194|350:157,1,75,8|0,0:0|0:0,0:0:0:0:
303,87,93087,2,0,P|293:52|300:15,1,75,2|0,0:0|1:0,0:0:0:0:
382,11,93431,2,0,P|392:46|385:83,1,75,8|0,0:0|0:0,0:0:0:0:
349,156,93776,6,0,P|289:200|213:181,2,150,0|8|2,1:0|0:0|0:0,0:0:0:0:
303,87,94638,1,0,1:0:0:0:
237,36,94811,2,0,P|202:26|165:33,1,75,8|0,0:0|0:0,0:0:0:0:
71,99,95156,5,0,1:0:0:0:
71,99,95500,2,0,L|75:176,1,75,8|0,0:0|0:0,0:0:0:0:
20,236,95845,2,0,L|16:313,1,75,2|0,0:0|1:0,0:0:0:0:
86,355,96190,2,0,L|163:359,1,75,8|0,0:0|0:0,0:0:0:0:
231,316,96535,2,0,L|308:312,1,75,0|0,1:0|0:0,0:0:0:0:
377,354,96880,2,0,L|454:358,1,75,8|0,0:0|0:0,0:0:0:0:
504,293,97225,2,0,L|508:216,1,75,2|0,0:0|1:0,0:0:0:0:
460,150,97569,2,0,L|305:142,1,150,8|0,0:0|1:0,0:0:0:0:
241,189,98087,5,0,0:0:0:0:
191,123,98259,2,0,L|187:46,1,75,8|0,0:0|0:0,0:0:0:0:
120,0,98604,2,0,L|43:4,1,75,2|0,0:0|1:0,0:0:0:0:
5,76,98949,2,0,L|8:150,1,75,8|0,0:0|0:0,0:0:0:0:
80,193,99294,6,0,L|72:348,1,150,0|8,1:0|0:0,0:0:0:0:
145,381,99811,1,2,0:0:0:0:
220,347,99983,1,2,0:0:0:0:
305,382,100156,1,0,1:0:0:0:
305,382,100242,1,0,1:0:0:0:
305,382,100328,1,8,0:0:0:0:
380,348,100500,1,0,1:0:0:0:
345,235,100673,5,4,1:2:0:0:
345,235,101018,2,0,P|335:200|342:163,1,75,8|0,0:0|0:0,0:0:0:0:
414,122,101363,2,0,P|424:87|417:50,1,75,2|0,0:0|1:0,0:0:0:0:
344,11,101707,2,0,P|307:3|271:13,1,75,8|0,0:0|0:0,0:0:0:0:
212,71,102052,2,0,P|176:81|139:73,1,75,0|0,1:0|0:0,0:0:0:0:
84,12,102397,2,0,P|47:4|11:14,1,75,8|0,0:0|0:0,0:0:0:0:
50,88,102742,2,0,P|57:124|47:160,1,75,2|0,0:0|1:0,0:0:0:0:
1,229,103087,2,0,P|-6:265|3:301,1,75,8|0,0:0|0:0,0:0:0:0:
106,366,103431,5,0,1:0:0:0:
106,366,103776,2,0,P|142:373|178:363,1,75,8|0,0:0|0:0,0:0:0:0:
243,312,104121,2,0,P|278:301|315:309,1,75,2|0,0:0|1:0,0:0:0:0:
382,357,104466,2,0,P|418:364|454:354,1,75,8|0,0:0|0:0,0:0:0:0:
500,285,104811,6,0,P|513:213|470:155,2,150,0|8|2,1:0|0:0|0:0,0:0:0:0:
417,285,105673,1,0,1:0:0:0:
354,231,105845,2,0,P|317:223|281:233,1,75,8|0,0:0|0:0,0:0:0:0:
200,311,106190,5,0,1:0:0:0:
200,311,106535,2,0,L|123:315,1,75,8|0,0:0|0:0,0:0:0:0:
62,260,106880,2,0,L|58:183,1,75,2|0,0:0|1:0,0:0:0:0:
123,133,107225,2,0,L|200:129,1,75,8|0,0:0|0:0,0:0:0:0:
260,182,107569,2,0,L|337:178,1,75,0|0,1:0|0:0,0:0:0:0:
389,115,107914,2,0,L|466:111,1,75,8|0,0:0|0:0,0:0:0:0:
508,180,108259,2,0,L|512:257,1,75,2|0,0:0|1:0,0:0:0:0:
468,325,108604,1,8,0:0:0:0:
468,325,108776,1,0,0:0:0:0:
377,266,108949,5,0,1:0:0:0:
377,266,109294,2,0,B|341:254|341:254|305:263,1,75,8|0,0:0|0:0,0:0:0:0:
178,320,109638,2,0,B|214:332|214:332|250:323,1,75,2|0,0:0|1:0,0:0:0:0:
274,188,109983,1,8,0:0:0:0:
217,248,110156,1,0,1:0:0:0:
193,169,110328,1,0,1:0:0:0:
395,95,110673,5,2,0:0:0:0:
443,325,111018,1,2,0:0:0:0:
213,373,111363,1,2,0:0:0:0:
165,143,111707,1,4,0:0:0:0:
256,192,128431,12,0,133776,1:0:0:0:
240,151,134121,6,0,L|335:146,2,89.9999972534181,2|2|2,0:0|0:0|0:0,0:0:0:0:
189,211,135156,2,0,L|94:216,1,89.9999972534181,2|2,0:0|0:0,0:0:0:0:
71,288,135845,2,0,P|21:213|66:144,1,179.999994506836,2|0,0:0|0:0,0:0:0:0:
92,72,136880,6,0,P|135:60|179:66,1,89.9999972534181,2|2,0:0|0:0,0:0:0:0:
241,114,137569,1,2,0:0:0:0:
292,174,137914,2,0,B|413:197|391:135|512:165,1,224.999993133545,2|0,0:0|0:0,0:0:0:0:
328,81,139638,6,0,P|371:69|416:76,2,89.9999972534181,2|2|2,0:0|0:0|0:0,0:0:0:0:
265,127,140673,2,0,P|220:133|177:121,1,89.9999972534181,2|2,0:0|0:0,0:0:0:0:
104,147,141363,2,0,P|97:191|109:234,1,89.9999972534181,2|0,0:0|0:0,0:0:0:0:
114,240,141880,2,0,P|120:284|108:327,1,89.9999972534181,2|0,0:0|0:0,0:0:0:0:
104,335,142397,6,0,L|200:339,1,89.9999972534181,2|2,0:0|0:0,0:0:0:0:
272,345,143087,1,2,0:0:0:0:
335,298,143431,2,0,B|348:223|311:237|329:164,1,134.999995880127,2|0,0:0|0:0,0:0:0:0:
326,158,144121,2,0,B|251:144|265:181|192:163,1,134.999995880127,2|0,0:0|0:0,0:0:0:0:
185,166,144811,6,0,B|181:229|181:229|200:268|200:268|195:341,2,180,0|2|2,1:0|0:0|0:0,0:0:0:0:
275,197,146190,2,0,L|395:202,1,120,2|0,0:0|0:0,0:0:0:0:
403,194,146707,2,0,L|408:75,1,120,2|0,0:0|0:0,0:0:0:0:
403,67,147225,1,2,0:0:0:0:
308,50,147569,6,0,B|245:46|245:46|206:65|206:65|133:60,2,180,2|2|2,1:2|0:0|0:0,0:0:0:0:
276,141,148949,2,0,L|395:145,1,120,2|0,0:0|0:0,0:0:0:0:
404,138,149466,2,0,L|408:18,1,120,2|0,0:0|0:0,0:0:0:0:
404,9,149983,1,2,0:0:0:0:
303,48,150328,6,0,B|270:57|270:57|237:47,2,67.4999979400635,12|0|0,0:0|1:0|1:0,0:0:0:0:
245,130,150845,2,0,B|213:121|213:121|180:130,2,67.4999979400635,8|0|0,0:0|1:0|1:0,0:0:0:0:
162,54,151363,2,0,B|129:63|129:63|96:54,1,67.4999979400635,8|0,0:0|1:0,0:0:0:0:
33,100,151707,5,8,0:0:0:0:
32,142,151880,1,0,1:0:0:0:
31,184,152052,1,0,1:0:0:0:
90,235,152225,2,0,B|123:244|123:244|158:234,2,67.4999979400635,8|0|0,0:0|1:0|1:0,0:0:0:0:
151,317,152742,2,0,B|183:307|183:307|216:316,1,67.4999979400635,8|0,0:0|1:0,0:0:0:0:
288,352,153087,5,8,0:0:0:0:
367,355,153259,1,0,1:0:0:0:
446,358,153431,1,0,1:0:0:0:
510,309,153604,2,0,B|519:276|519:276|509:241,2,67.4999979400635,8|0|0,0:0|1:0|1:0,0:0:0:0:
458,185,154121,1,8,0:0:0:0:
394,229,154294,2,0,B|361:238|361:238|328:229,1,67.4999979400635,0|0,1:0|0:0,0:0:0:0:
256,192,154811,5,2,0:0:0:0:
256,192,155156,1,2,0:0:0:0:
256,192,155500,1,2,0:0:0:0:
443,222,155845,6,0,P|383:266|307:247,1,150,4|8,1:2|0:0,0:0:0:0:
256,192,156363,2,0,P|221:182|184:189,1,75,0|2,0:0|0:0,0:0:0:0:
117,237,156707,1,0,1:0:0:0:
47,194,156880,2,0,P|41:158|51:122,1,75,8|0,0:0|0:0,0:0:0:0:
105,55,157225,6,0,P|165:99|241:80,1,150,0|8,1:0|0:0,0:0:0:0:
312,53,157742,2,0,P|385:51|436:103,1,150,2|0,0:0|1:0,0:0:0:0:
386,169,158259,2,0,P|380:206|390:242,1,75,8|0,0:0|0:0,0:0:0:0:
448,354,158604,6,0,L|371:358,1,75,0|0,1:0|0:0,0:0:0:0:
299,322,158949,2,0,L|222:318,1,75,8|0,0:0|0:0,0:0:0:0:
152,359,159294,1,2,0:0:0:0:
88,306,159466,1,0,1:0:0:0:
160,265,159638,2,0,L|164:188,1,75,8|0,0:0|0:0,0:0:0:0:
242,164,159983,6,0,L|249:14,1,150,0|8,1:0|0:0,0:0:0:0:
332,14,160500,2,0,L|323:169,1,150,2|0,0:0|1:0,0:0:0:0:
282,235,161018,2,0,L|278:312,1,75,8|0,0:0|0:0,0:0:0:0:
149,367,161363,6,0,P|139:332|146:295,1,75,0|0,1:0|0:0,0:0:0:0:
180,220,161707,1,8,0:0:0:0:
132,153,161880,2,0,P|122:118|129:81,1,75,0|2,0:0|0:0,0:0:0:0:
169,9,162225,1,0,1:0:0:0:
237,54,162397,2,0,P|272:64|309:57,1,75,8|0,0:0|0:0,0:0:0:0:
382,18,162742,6,0,P|426:78|407:154,1,150,0|8,1:0|0:0,0:0:0:0:
349,201,163259,2,0,P|336:273|379:331,1,150,2|0,0:0|1:0,0:0:0:0:
451,290,163776,2,0,P|461:255|454:218,1,75,8|0,0:0|0:0,0:0:0:0:
411,147,164121,5,0,1:0:0:0:
411,147,164294,1,0,0:0:0:0:
345,90,164466,2,0,B|309:78|309:78|273:87,1,75,8|0,0:0|0:0,0:0:0:0:
145,147,164811,2,0,B|181:135|181:135|217:144,1,75,2|0,0:0|1:0,0:0:0:0:
346,205,165156,2,0,B|310:193|310:193|274:202,1,75,8|0,0:0|0:0,0:0:0:0:
223,267,165500,6,0,B|171:271|171:271|138:255|138:255|76:259,1,150,0|8,1:0|0:0,0:0:0:0:
3,296,166018,1,2,0:0:0:0:
6,213,166190,1,2,0:0:0:0:
16,132,166363,1,0,1:0:0:0:
16,132,166449,1,0,1:0:0:0:
16,132,166535,1,8,0:0:0:0:
85,177,166707,1,0,1:0:0:0:
132,71,166880,6,0,P|204:58|262:101,1,150,4|8,1:2|0:0,0:0:0:0:
297,177,167397,2,0,P|332:187|369:180,1,75,0|2,0:0|0:0,0:0:0:0:
447,151,167742,1,0,1:0:0:0:
511,205,167914,2,0,P|517:241|507:277,1,75,8|0,0:0|0:0,0:0:0:0:
463,348,168259,6,0,P|403:304|327:323,1,150,0|8,1:0|0:0,0:0:0:0:
266,367,168776,2,0,P|193:369|142:317,1,150,2|0,0:0|1:0,0:0:0:0:
172,240,169294,2,0,P|178:203|168:167,1,75,8|0,0:0|0:0,0:0:0:0:
41,106,169638,6,0,L|118:102,1,75,0|0,1:0|0:0,0:0:0:0:
168,167,169983,2,0,L|245:171,1,75,8|0,0:0|0:0,0:0:0:0:
319,204,170328,1,2,0:0:0:0:
393,172,170500,1,0,1:0:0:0:
464,216,170673,2,0,L|460:293,1,75,8|0,0:0|0:0,0:0:0:0:
384,324,171018,6,0,L|229:316,1,150,0|8,1:0|0:0,0:0:0:0:
177,377,171535,2,0,L|22:368,1,150,2|0,0:0|1:0,0:0:0:0:
0,290,172052,2,0,L|4:216,1,75,8|0,0:0|0:0,0:0:0:0:
49,111,172397,6,0,P|84:101|121:108,1,75,0|0,1:0|0:0,0:0:0:0:
196,142,172742,1,8,0:0:0:0:
263,94,172914,2,0,P|298:84|335:91,1,75,0|2,0:0|0:0,0:0:0:0:
407,131,173259,1,0,1:0:0:0:
445,205,173431,2,0,P|410:215|373:208,1,75,8|0,0:0|0:0,0:0:0:0:
341,284,173776,6,0,P|281:328|205:309,1,150,0|8,1:0|0:0,0:0:0:0:
149,369,174294,2,0,P|78:383|20:340,1,150,2|0,0:0|1:0,0:0:0:0:
70,273,174811,2,0,P|105:263|142:270,1,75,8|0,0:0|0:0,0:0:0:0:
211,313,175156,5,0,1:0:0:0:
229,191,175500,1,0,1:0:0:0:
351,209,175845,1,0,1:0:0:0:
333,331,176190,1,0,1:0:0:0:
402,283,176363,1,0,1:0:0:0:
402,283,176449,1,0,1:0:0:0:
402,283,176535,6,0,L|465:286,1,56.2500021457673,8|0,0:0|1:0,0:0:0:0:
512,228,176880,1,0,1:0:0:0:
455,174,177052,2,0,L|458:111,1,56.2500021457673,10|0,0:0|1:0,0:0:0:0:
511,60,177397,1,0,1:0:0:0:
452,8,177569,2,0,L|389:5,1,56.2500021457673,8|0,0:0|0:0,0:0:0:0:
276,47,177914,5,4,1:2:0:0:
276,47,178259,2,0,P|286:82|279:119,1,75,8|0,0:0|0:0,0:0:0:0:
212,168,178604,2,0,P|202:203|209:240,1,75,2|0,0:0|1:0,0:0:0:0:
269,299,178949,2,0,P|306:307|342:297,1,75,8|0,0:0|0:0,0:0:0:0:
392,231,179294,2,0,P|427:241|464:234,1,75,0|0,1:0|0:0,0:0:0:0:
510,165,179638,2,0,P|520:130|513:93,1,75,8|0,0:0|0:0,0:0:0:0:
460,30,179983,1,2,0:0:0:0:
393,78,180156,1,0,1:0:0:0:
326,31,180328,2,0,P|291:21|254:28,1,75,8|0,0:0|0:0,0:0:0:0:
164,113,180673,5,0,1:0:0:0:
164,113,181018,2,0,P|154:148|161:185,1,75,8|0,0:0|0:0,0:0:0:0:
208,255,181363,2,0,P|218:290|211:327,1,75,2|0,0:0|1:0,0:0:0:0:
129,331,181707,2,0,P|119:296|126:259,1,75,8|0,0:0|0:0,0:0:0:0:
161,185,182052,6,0,P|221:141|297:160,2,150,0|8|2,1:0|0:0|0:0,0:0:0:0:
208,255,182914,1,0,1:0:0:0:
274,306,183087,2,0,P|309:316|346:309,1,75,8|0,0:0|0:0,0:0:0:0:
458,264,183431,5,0,1:0:0:0:
458,264,183776,2,0,L|454:187,1,75,8|0,0:0|0:0,0:0:0:0:
509,127,184121,2,0,L|513:50,1,75,2|0,0:0|1:0,0:0:0:0:
443,8,184466,2,0,L|366:4,1,75,8|0,0:0|0:0,0:0:0:0:
298,47,184811,2,0,L|221:51,1,75,0|0,1:0|0:0,0:0:0:0:
152,9,185156,2,0,L|75:5,1,75,8|0,0:0|0:0,0:0:0:0:
25,70,185500,2,0,L|21:147,1,75,2|0,0:0|1:0,0:0:0:0:
69,213,185845,2,0,L|224:221,1,150,8|0,0:0|1:0,0:0:0:0:
275,160,186363,5,0,0:0:0:0:
325,226,186535,2,0,L|329:303,1,75,8|0,0:0|0:0,0:0:0:0:
396,349,186880,2,0,L|473:345,1,75,2|0,0:0|1:0,0:0:0:0:
511,273,187225,2,0,L|508:199,1,75,8|0,0:0|0:0,0:0:0:0:
465,132,187569,6,0,L|310:124,1,150,0|8,1:0|0:0,0:0:0:0:
232,118,188087,1,2,0:0:0:0:
266,192,188259,1,2,0:0:0:0:
184,185,188431,1,0,1:0:0:0:
184,185,188518,1,0,1:0:0:0:
184,185,188604,1,8,0:0:0:0:
220,260,188776,1,0,1:0:0:0:
232,118,188949,5,4,1:2:0:0:
232,118,189294,2,0,P|224:81|234:45,1,75,8|0,0:0|0:0,0:0:0:0:
308,8,189638,2,0,P|343:-2|380:5,1,75,2|0,0:0|1:0,0:0:0:0:
447,52,189983,2,0,P|455:89|445:125,1,75,8|0,0:0|0:0,0:0:0:0:
374,166,190328,2,0,P|337:173|301:163,1,75,0|0,1:0|0:0,0:0:0:0:
232,118,190673,2,0,P|195:110|159:120,1,75,8|0,0:0|0:0,0:0:0:0:
117,190,191018,2,0,P|81:197|45:187,1,75,2|0,0:0|1:0,0:0:0:0:
1,116,191363,2,0,P|-8:79|-1:43,1,75,8|0,0:0|0:0,0:0:0:0:
117,5,191707,5,0,1:0:0:0:
117,5,192052,2,0,P|150:-1|184:7,1,71.2499980974198,8|0,0:0|0:0,0:0:0:0:
213,59,192397,2,0,P|247:66|281:56,1,71.2499980974198,2|0,0:0|1:0,0:0:0:0:
329,25,192742,2,0,P|362:15|397:21,1,71.2499980974198,8|0,0:0|0:0,0:0:0:0:
437,52,193087,6,0,P|448:117|409:169,2,134.999995880127,0|8|2,1:0|0:0|0:0,0:0:0:0:
400,25,193949,1,0,1:0:0:0:
400,25,194121,2,0,P|363:17|327:27,1,67.4999979400635,8|0,0:0|0:0,0:0:0:0:
296,62,194466,5,0,1:0:0:0:
296,62,194811,2,0,L|300:139,1,63.7500012159348,8|0,0:0|0:0,0:0:0:0:
270,168,195156,2,0,L|266:245,1,63.7500012159348,2|0,0:0|1:0,0:0:0:0:
293,275,195500,2,0,L|297:352,1,63.7500012159348,8|0,0:0|0:0,0:0:0:0:
267,381,195845,2,0,L|131:373,2,127.50000243187,0|8|2,1:0|0:0|0:0,0:0:0:0:
296,338,196707,1,0,1:0:0:0:
296,338,196880,2,0,L|373:334,1,63.7500012159348,8|0,0:0|0:0,0:0:0:0:
405,358,197225,5,0,1:0:0:0:
411,262,197569,1,0,1:0:0:0:
417,166,197914,1,0,1:0:0:0:
423,70,198259,1,0,1:0:0:0:
337,112,198604,5,0,1:0:0:0:
276,51,198949,1,2,0:0:0:0:
276,51,199294,1,2,0:0:0:0:
276,51,199638,1,2,0:0:0:0:
256,192,199983,5,4,0:0:0:0:
