osu file format v14

[General]
AudioFilename: audio.mp3
AudioLeadIn: 0
PreviewTime: 66535
Countdown: 0
SampleSet: Soft
StackLeniency: 0.7
Mode: 0
LetterboxInBreaks: 0
EpilepsyWarning: 1
WidescreenStoryboard: 1

[Editor]
DistanceSpacing: 1
BeatDivisor: 4
GridSize: 32
TimelineZoom: 1.2

[Metadata]
Title:Love Wins Again
TitleUnicode:Love Wins Again
Artist:Koven
ArtistUnicode:Koven
Creator:Strategas
Version:Easy
Source:
Tags:dnb drum and bass d&b liquicity electronic edm english -ady
BeatmapID:3082746
BeatmapSetID:1485184

[Difficulty]
HPDrainRate:1
CircleSize:3
OverallDifficulty:2
ApproachRate:3
SliderMultiplier:0.8
SliderTickRate:1

[Events]
//Background and Video events
0,0,"L16.jpg",0,0
//Break Periods
2,111907,132336
//Storyboard Layer 0 (Background)
Sprite,Background,Centre,"L16.jpg",320,240 F,0,0,,0
//Storyboard Layer 1 (Fail)
//Storyboard Layer 2 (Pass)
//Storyboard Layer 3 (Foreground)
//Storyboard Layer 4 (Overlay)
//Storyboard Sound Samples

[TimingPoints]
1363,344.827586206897,4,2,25,65,1,0
45500,-100,4,2,25,60,0,0
45759,-100,4,2,25,5,0,0
45845,-100,4,2,25,60,0,0
56535,-100,4,2,25,65,0,0
62052,-100,4,2,25,68,0,0
63431,-100,4,2,25,71,0,0
64811,-100,4,2,25,75,0,0
67483,-100,4,2,25,5,0,0
67569,-90.9090909090909,4,2,26,85,0,1
76104,-90.9090909090909,4,2,26,5,0,1
76190,-90.9090909090909,4,2,26,85,0,1
86880,-100,4,2,25,70,0,0
89294,-100,4,2,25,70,0,0
89552,-100,4,2,25,5,0,0
89638,-90.9090909090909,4,2,26,85,0,1
89897,-90.9090909090909,4,2,26,5,0,1
89983,-90.9090909090909,4,2,26,85,0,1
92656,-90.9090909090909,4,2,26,5,0,1
92742,-90.9090909090909,4,2,26,85,0,1
95069,-90.9090909090909,4,2,26,5,0,1
95156,-90.9090909090909,4,2,26,85,0,1
95500,-90.9090909090909,4,2,26,85,0,1
97569,-90.9090909090909,4,2,26,85,0,1
97828,-90.9090909090909,4,2,26,5,0,1
97914,-90.9090909090909,4,2,26,85,0,1
98173,-90.9090909090909,4,2,26,5,0,1
98259,-90.9090909090909,4,2,26,85,0,1
100931,-90.9090909090909,4,2,26,5,0,1
101018,-90.9090909090909,4,2,26,85,0,1
103087,-90.9090909090909,4,2,26,85,0,1
103345,-90.9090909090909,4,2,26,5,0,1
103431,-90.9090909090909,4,2,26,85,0,1
103690,-90.9090909090909,4,2,26,5,0,1
103776,-90.9090909090909,4,2,26,85,0,1
106104,-90.9090909090909,4,2,26,5,0,1
106190,-90.9090909090909,4,2,26,85,0,1
106449,-90.9090909090909,4,2,26,5,0,1
106535,-90.9090909090909,4,2,26,85,0,1
108604,-90.9090909090909,4,2,26,85,0,1
108863,-90.9090909090909,4,2,26,5,0,1
108949,-90.9090909090909,4,2,26,85,0,1
109207,-90.9090909090909,4,2,26,5,0,1
109294,-90.9090909090909,4,2,26,85,0,1
110328,-100,4,2,25,70,0,0
110931,-100,4,2,25,5,0,0
111018,-100,4,2,25,70,0,0
111276,-100,4,2,25,5,0,0
111363,-100,4,2,25,70,0,0
133776,-100,4,2,25,50,0,0
144121,-100,4,2,25,60,0,0
144811,-100,4,2,25,65,0,0
146190,-100,4,2,25,65,0,0
148949,-100,4,2,25,65,0,0
150328,-100,4,2,25,68,0,0
151707,-100,4,2,25,71,0,0
153087,-100,4,2,25,75,0,0
155759,-100,4,2,25,5,0,0
155845,-90.9090909090909,4,2,26,85,0,1
164380,-90.9090909090909,4,2,26,5,0,1
164466,-90.9090909090909,4,2,26,85,0,1
175156,-100,4,2,25,70,0,0
177569,-100,4,2,25,70,0,0
177828,-100,4,2,25,5,0,0
177914,-90.9090909090909,4,2,26,85,0,1
178259,-90.9090909090909,4,2,26,85,0,1
179983,-90.9090909090909,4,2,26,85,0,1
180931,-90.9090909090909,4,2,26,5,0,1
181018,-90.9090909090909,4,2,26,85,0,1
182052,-90.9090909090909,4,2,26,85,0,1
183345,-90.9090909090909,4,2,26,5,0,1
183431,-90.9090909090909,4,2,26,85,0,1
183690,-90.9090909090909,4,2,26,5,0,1
183776,-90.9090909090909,4,2,26,85,0,1
185845,-90.9090909090909,4,2,26,85,0,1
186104,-90.9090909090909,4,2,26,5,0,1
186190,-90.9090909090909,4,2,26,85,0,1
186449,-90.9090909090909,4,2,26,5,0,1
186535,-90.9090909090909,4,2,26,85,0,1
189207,-90.9090909090909,4,2,26,5,0,1
189294,-90.9090909090909,4,2,26,85,0,1
191363,-90.9090909090909,4,2,26,85,0,1
191621,-90.9090909090909,4,2,26,5,0,1
191707,-100,4,2,26,77,0,0
193087,-100,4,2,26,74,0,0
194811,-100,4,2,26,71,0,0
197569,-100,4,2,26,65,0,0

[Colours]
Combo1 : 235,232,90
Combo2 : 173,182,220
Combo3 : 217,143,77
Combo4 : 108,135,189

[HitObjects]
92,90,45845,5,2,0:0:0:0:
172,88,46190,1,2,0:0:0:0:
252,86,46535,1,2,0:0:0:0:
332,84,46880,1,2,0:0:0:0:
412,82,47225,1,2,0:0:0:0:
492,80,47569,1,2,0:0:0:0:
474,319,48604,5,2,0:0:0:0:
394,321,48949,1,2,0:0:0:0:
314,323,49294,1,2,0:0:0:0:
234,325,49638,2,0,L|71:326,1,160,2|0,0:0|0:0,0:0:0:0:
119,90,51363,5,2,0:0:0:0:
197,72,51707,1,2,0:0:0:0:
260,122,52052,1,2,0:0:0:0:
260,202,52397,1,2,0:0:0:0:
197,252,52742,1,2,0:0:0:0:
119,234,53087,1,2,0:0:0:0:
84,162,53431,1,2,0:0:0:0:
158,20,54121,5,2,0:0:0:0:
237,25,54466,1,2,0:0:0:0:
232,104,54811,1,2,0:0:0:0:
153,99,55156,2,0,P|96:154|107:236,2,160,2|2|0,0:0|0:0|1:0,0:0:0:0:
230,80,56880,6,0,P|271:75|325:88,1,80,2|2,0:0|0:0,0:0:0:0:
372,129,57569,2,0,P|413:134|467:121,1,80,2|2,0:0|0:0,0:0:0:0:
502,66,58259,1,2,0:0:0:0:
451,4,58604,1,2,0:0:0:0:
371,12,58949,1,2,0:0:0:0:
219,62,59638,6,0,P|212:101|217:140,1,80,2|2,0:0|0:0,0:0:0:0:
266,204,60328,1,2,0:0:0:0:
239,279,60673,2,0,P|161:285|108:228,1,160,2|0,0:0|0:0,0:0:0:0:
239,135,62052,6,0,L|242:0,2,120,8|8|8,0:0|0:0|0:0,0:0:0:0:
288,198,63431,2,0,L|285:333,2,120,8|8|8,0:0|0:0|0:0,0:0:0:0:
343,139,64811,2,0,L|478:142,2,120,8|8|8,0:0|0:0|0:0,0:0:0:0:
192,83,66535,5,2,0:0:0:0:
184,162,66880,1,2,0:0:0:0:
176,241,67225,1,2,0:0:0:0:
189,328,67569,6,0,B|231:342|231:342|279:329,1,88.000002685547,4|8,1:2|0:0,0:0:0:0:
444,285,68604,1,8,0:0:0:0:
459,199,68949,1,0,1:0:0:0:
441,112,69294,2,0,L|349:105,1,88.000002685547,8|0,0:0|0:0,0:0:0:0:
265,98,69983,1,8,0:0:0:0:
177,91,70328,5,0,1:0:0:0:
164,178,70673,1,8,0:0:0:0:
170,353,71363,1,8,0:0:0:0:
345,346,72052,1,8,0:0:0:0:
339,171,72742,1,8,0:0:0:0:
398,106,73087,5,0,1:0:0:0:
343,37,73431,2,0,P|301:32|254:45,1,88.000002685547,8|0,0:0|0:0,0:0:0:0:
189,100,74121,2,0,P|147:104|100:92,1,88.000002685547,8|0,0:0|1:0,0:0:0:0:
15,107,74811,2,0,P|11:149|23:196,1,88.000002685547,8|0,0:0|0:0,0:0:0:0:
81,257,75500,2,0,P|123:261|170:249,1,88.000002685547,8|0,0:0|1:0,0:0:0:0:
241,203,76190,5,8,0:0:0:0:
328,210,76535,1,2,0:0:0:0:
415,216,76880,1,8,0:0:0:0:
502,223,77225,2,0,B|513:179|513:179|505:134,1,88.000002685547,0|8,1:0|0:0,0:0:0:0:
459,61,77914,2,0,B|415:50|415:50|370:58,1,88.000002685547,2|8,0:0|0:0,0:0:0:0:
305,114,78604,6,0,B|263:127|263:127|214:115,1,88.000002685547,4|8,1:2|0:0,0:0:0:0:
49,163,79638,1,8,0:0:0:0:
35,250,79983,1,0,1:0:0:0:
53,337,80328,2,0,L|145:344,1,88.000002685547,8|0,0:0|0:0,0:0:0:0:
228,348,81018,1,8,0:0:0:0:
316,356,81363,5,0,1:0:0:0:
329,269,81707,1,8,0:0:0:0:
322,94,82397,1,8,0:0:0:0:
147,101,83087,1,8,0:0:0:0:
154,276,83776,1,8,0:0:0:0:
228,228,84121,5,0,1:0:0:0:
295,283,84466,2,0,P|337:288|384:276,1,88.000002685547,8|0,0:0|0:0,0:0:0:0:
441,213,85156,2,0,P|445:171|433:124,1,88.000002685547,8|0,0:0|1:0,0:0:0:0:
366,70,85845,2,0,P|324:65|277:78,1,88.000002685547,8|0,0:0|0:0,0:0:0:0:
219,139,86535,2,0,P|214:181|227:228,1,88.000002685547,8|0,0:0|1:0,0:0:0:0:
279,286,87225,5,0,1:0:0:0:
216,335,87569,1,0,1:0:0:0:
141,306,87914,1,0,1:0:0:0:
105,234,88259,2,0,B|88:177|88:177|102:117,2,120,8|10|8,0:0|0:0|0:0,0:0:0:0:
187,264,89638,5,4,1:2:0:0:
268,232,89983,2,0,P|307:225|373:240,1,88.000002685547,8|2,0:0|0:0,0:0:0:0:
432,273,90673,1,8,0:0:0:0:
510,233,91018,2,0,P|516:188|510:146,1,88.000002685547,0|8,1:0|0:0,0:0:0:0:
441,91,91707,2,0,P|433:46|439:5,2,88.000002685547,2|8|0,0:0|0:0|1:0,0:0:0:0:
360,126,92742,5,8,0:0:0:0:
302,191,93087,2,0,L|207:184,1,88.000002685547,2|8,0:0|0:0,0:0:0:0:
129,173,93776,1,0,1:0:0:0:
42,163,94121,1,8,0:0:0:0:
122,12,94811,1,8,0:0:0:0:
219,158,95500,5,8,0:0:0:0:
306,151,95845,1,2,0:0:0:0:
393,144,96190,1,8,0:0:0:0:
479,138,96535,1,0,1:0:0:0:
508,220,96880,2,0,P|515:266|508:313,1,88.000002685547,8|2,0:0|0:0,0:0:0:0:
426,332,97569,1,8,0:0:0:0:
292,217,98259,5,8,0:0:0:0:
204,209,98604,1,2,0:0:0:0:
116,202,98949,1,8,0:0:0:0:
28,195,99294,2,0,B|18:148|18:148|30:103,1,88.000002685547,0|8,1:0|0:0,0:0:0:0:
86,43,99983,2,0,B|132:32|132:32|177:45,1,88.000002685547,2|8,0:0|0:0,0:0:0:0:
252,76,100673,5,4,1:2:0:0:
284,157,101018,2,0,P|290:196|275:262,1,88.000002685547,8|2,0:0|0:0,0:0:0:0:
243,321,101707,1,8,0:0:0:0:
172,374,102052,2,0,P|128:380|85:374,1,88.000002685547,0|8,1:0|0:0,0:0:0:0:
85,285,102742,2,0,P|41:277|-1:283,2,88.000002685547,2|8|0,0:0|0:0|1:0,0:0:0:0:
170,265,103776,5,8,0:0:0:0:
238,209,104121,2,0,L|333:215,1,88.000002685547,2|8,0:0|0:0,0:0:0:0:
414,226,104811,1,0,1:0:0:0:
502,236,105156,1,8,0:0:0:0:
436,72,105845,1,8,0:0:0:0:
326,215,106535,5,8,0:0:0:0:
239,221,106880,1,2,0:0:0:0:
152,228,107225,1,8,0:0:0:0:
65,234,107569,1,0,1:0:0:0:
29,155,107914,2,0,P|21:111|27:68,1,88.000002685547,8|2,0:0|0:0,0:0:0:0:
99,15,108604,1,8,0:0:0:0:
214,150,109294,5,8,0:0:0:0:
301,156,109638,1,2,0:0:0:0:
388,163,109983,1,8,0:0:0:0:
355,331,110673,5,2,0:0:0:0:
276,325,111018,1,2,0:0:0:0:
197,319,111363,1,2,0:0:0:0:
118,313,111707,1,4,0:0:0:0:
235,128,133776,5,0,1:0:0:0:
100,43,135156,1,2,0:0:0:0:
104,348,137914,1,2,0:0:0:0:
416,348,140673,1,2,0:0:0:0:
416,36,143431,1,2,0:0:0:0:
414,162,144811,5,0,1:0:0:0:
359,220,145156,2,0,P|318:225|264:212,1,80,2|2,0:0|0:0,0:0:0:0:
217,171,145845,2,0,P|176:166|122:179,1,80,2|2,0:0|0:0,0:0:0:0:
87,234,146535,1,2,0:0:0:0:
138,296,146880,1,2,0:0:0:0:
218,288,147225,1,2,0:0:0:0:
366,227,147914,6,0,P|373:188|368:149,1,80,2|2,0:0|0:0,0:0:0:0:
319,85,148604,1,2,0:0:0:0:
346,10,148949,2,0,P|424:4|477:61,1,160,2|0,0:0|0:0,0:0:0:0:
423,210,150328,6,0,L|420:345,2,120,12|8|8,0:0|0:0|0:0,0:0:0:0:
353,171,151707,2,0,L|218:168,2,120,8|8|8,0:0|0:0|0:0,0:0:0:0:
421,128,153087,2,0,L|424:-7,2,120,8|8|8,0:0|0:0|0:0,0:0:0:0:
416,288,154811,5,2,0:0:0:0:
337,280,155156,1,2,0:0:0:0:
258,272,155500,1,2,0:0:0:0:
190,324,155845,6,0,B|148:337|148:337|100:325,1,88.000002685547,4|8,1:2|0:0,0:0:0:0:
102,149,156880,1,8,0:0:0:0:
189,135,157225,1,0,1:0:0:0:
276,152,157569,2,0,L|283:245,1,88.000002685547,8|0,0:0|0:0,0:0:0:0:
289,327,158259,1,8,0:0:0:0:
201,335,158604,5,0,1:0:0:0:
113,338,158949,1,8,0:0:0:0:
109,161,159638,1,8,0:0:0:0:
286,157,160328,1,8,0:0:0:0:
290,334,161018,1,8,0:0:0:0:
370,371,161363,5,0,1:0:0:0:
439,316,161707,2,0,P|443:274|431:226,1,88.000002685547,8|0,0:0|0:0,0:0:0:0:
377,162,162397,2,0,P|372:120|384:72,1,88.000002685547,8|0,0:0|1:0,0:0:0:0:
329,6,163087,2,0,P|286:-5|242:0,1,88.000002685547,8|0,0:0|0:0,0:0:0:0:
181,62,163776,2,0,P|139:66|91:54,1,88.000002685547,8|0,0:0|1:0,0:0:0:0:
22,105,164466,5,8,0:0:0:0:
15,191,164811,1,2,0:0:0:0:
8,278,165156,1,8,0:0:0:0:
6,365,165500,2,0,B|50:376|50:376|95:368,1,88.000002685547,0|8,1:0|0:0,0:0:0:0:
167,323,166190,2,0,B|211:312|211:312|256:319,1,88.000002685547,2|8,0:0|0:0,0:0:0:0:
323,372,166880,6,0,B|364:385|364:385|413:373,1,88.000002685547,4|8,1:2|0:0,0:0:0:0:
498,226,167914,1,8,0:0:0:0:
512,139,168259,1,0,1:0:0:0:
494,52,168604,2,0,L|401:45,1,88.000002685547,8|0,0:0|0:0,0:0:0:0:
319,41,169294,1,8,0:0:0:0:
231,33,169638,5,0,1:0:0:0:
218,120,169983,1,8,0:0:0:0:
225,295,170673,1,8,0:0:0:0:
400,289,171363,1,8,0:0:0:0:
393,114,172052,1,8,0:0:0:0:
312,147,172397,5,0,1:0:0:0:
245,92,172742,2,0,P|203:87|155:99,1,88.000002685547,8|0,0:0|0:0,0:0:0:0:
98,162,173431,2,0,P|93:203|105:251,1,88.000002685547,8|0,0:0|1:0,0:0:0:0:
173,305,174121,2,0,P|214:309|262:297,1,88.000002685547,8|0,0:0|0:0,0:0:0:0:
321,236,174811,2,0,P|325:194|313:146,1,88.000002685547,8|0,0:0|1:0,0:0:0:0:
235,138,175500,5,0,1:0:0:0:
186,201,175845,1,0,1:0:0:0:
215,276,176190,1,0,1:0:0:0:
287,312,176535,2,0,B|344:329|344:329|404:315,2,120,8|10|8,0:0|0:0|0:0,0:0:0:0:
205,279,177914,5,4,1:2:0:0:
124,311,178259,2,0,P|84:317|18:302,1,88.000002685547,8|2,0:0|0:0,0:0:0:0:
7,227,178949,1,8,0:0:0:0:
32,142,179294,2,0,P|76:135|118:142,1,88.000002685547,0|8,1:0|0:0,0:0:0:0:
196,101,179983,2,0,P|203:57|197:15,2,88.000002685547,2|8|0,0:0|0:0|1:0,0:0:0:0:
190,189,181018,5,8,0:0:0:0:
248,255,181363,2,0,L|343:248,1,88.000002685547,2|8,0:0|0:0,0:0:0:0:
424,237,182052,1,0,1:0:0:0:
512,227,182397,1,8,0:0:0:0:
434,384,183087,1,8,0:0:0:0:
329,242,183776,5,8,0:0:0:0:
242,249,184121,1,2,0:0:0:0:
155,255,184466,1,8,0:0:0:0:
69,262,184811,1,0,1:0:0:0:
32,183,185156,2,0,P|25:140|32:97,1,88.000002685547,8|2,0:0|0:0,0:0:0:0:
93,32,185845,1,8,0:0:0:0:
232,138,186535,5,8,0:0:0:0:
319,144,186880,1,2,0:0:0:0:
406,151,187225,1,8,0:0:0:0:
493,158,187569,2,0,B|502:200|502:200|490:242,1,88.000002685547,0|8,1:0|0:0,0:0:0:0:
426,302,188259,2,0,B|383:311|383:311|341:299,1,88.000002685547,2|8,0:0|0:0,0:0:0:0:
264,253,188949,5,4,1:2:0:0:
183,221,189294,2,0,P|143:214|77:229,1,88.000002685547,8|2,0:0|0:0,0:0:0:0:
31,282,189983,1,8,0:0:0:0:
89,347,190328,2,0,P|133:353|175:347,1,88.000002685547,0|8,1:0|0:0,0:0:0:0:
259,316,191018,2,0,P|303:308|345:314,2,88.000002685547,2|8|0,0:0|0:0|1:0,0:0:0:0:
207,254,192052,5,8,0:0:0:0:
272,207,192397,2,0,L|278:120,1,80,2|8,0:0|0:0,0:0:0:0:
336,73,193087,1,0,1:0:0:0:
415,78,193431,1,8,0:0:0:0:
328,212,194121,1,8,0:0:0:0:
252,71,194811,5,8,0:0:0:0:
173,65,195156,1,2,0:0:0:0:
94,59,195500,1,8,0:0:0:0:
27,104,195845,1,0,1:0:0:0:
29,183,196190,1,8,0:0:0:0:
31,262,196535,1,2,0:0:0:0:
33,341,196880,1,8,0:0:0:0:
185,292,197569,5,0,1:0:0:0:
264,298,197914,1,0,1:0:0:0:
343,304,198259,1,0,1:0:0:0:
358,144,198949,5,2,0:0:0:0:
279,138,199294,1,2,0:0:0:0:
200,132,199638,1,2,0:0:0:0:
121,126,199983,1,4,0:0:0:0:
