osu file format v14

[General]
AudioFilename: audio.mp3
AudioLeadIn: 0
PreviewTime: 66535
Countdown: 0
SampleSet: Soft
StackLeniency: 0.7
Mode: 0
LetterboxInBreaks: 0
EpilepsyWarning: 1
WidescreenStoryboard: 1

[Editor]
DistanceSpacing: 1
BeatDivisor: 4
GridSize: 32
TimelineZoom: 1.3

[Metadata]
Title:Love Wins Again
TitleUnicode:Love Wins Again
Artist:Koven
ArtistUnicode:Koven
Creator:Strategas
Version:Burning Love
Source:
Tags:dnb drum and bass d&b liquicity electronic edm english -ady
BeatmapID:3045583
BeatmapSetID:1485184

[Difficulty]
HPDrainRate:6
CircleSize:4
OverallDifficulty:8.5
ApproachRate:9
SliderMultiplier:1.8
SliderTickRate:1

[Events]
//Background and Video events
0,0,"L16.jpg",0,0
//Break Periods
2,111907,127831
//Storyboard Layer 0 (Background)
Sprite,Background,Centre,"L16.jpg",320,240 F,0,0,,0
//Storyboard Layer 1 (Fail)
//Storyboard Layer 2 (Pass)
//Storyboard Layer 3 (Foreground)
//Storyboard Layer 4 (Overlay)
//Storyboard Sound Samples

[TimingPoints]
1363,344.827586206897,4,2,25,65,1,0
45500,-125,4,2,25,60,0,0
45759,-125,4,2,25,5,0,0
45845,-125,4,2,25,60,0,0
56535,-400,4,2,25,65,0,0
62052,-400,4,2,25,68,0,0
63431,-400,4,2,25,71,0,0
64811,-400,4,2,25,75,0,0
67483,-400,4,2,25,5,0,0
67569,-80,4,2,26,85,0,1
76104,-80,4,2,26,5,0,1
76190,-80,4,2,26,85,0,1
86880,-133.333333333333,4,2,25,70,0,0
89294,-400,4,2,25,70,0,0
89552,-400,4,2,25,5,0,0
89638,-80,4,2,26,85,0,1
89897,-80,4,2,26,5,0,1
89983,-80,4,2,26,85,0,1
92656,-80,4,2,26,5,0,1
92742,-80,4,2,26,85,0,1
95069,-80,4,2,26,5,0,1
95156,-80,4,2,26,85,0,1
95500,-83.3333333333333,4,2,26,85,0,1
97569,-80,4,2,26,85,0,1
97828,-80,4,2,26,5,0,1
97914,-80,4,2,26,85,0,1
98173,-80,4,2,26,5,0,1
98259,-80,4,2,26,85,0,1
100931,-80,4,2,26,5,0,1
101018,-89.2857142857143,4,2,26,85,0,1
103087,-80,4,2,26,85,0,1
103345,-80,4,2,26,5,0,1
103431,-80,4,2,26,85,0,1
103690,-80,4,2,26,5,0,1
103776,-80,4,2,26,85,0,1
106104,-80,4,2,26,5,0,1
106190,-80,4,2,26,85,0,1
106449,-80,4,2,26,5,0,1
106535,-89.2857142857143,4,2,26,85,0,1
108604,-80,4,2,26,85,0,1
108863,-80,4,2,26,5,0,1
108949,-80,4,2,26,85,0,1
109207,-80,4,2,26,5,0,1
109294,-80,4,2,26,85,0,1
110328,-100,4,2,25,70,0,0
110931,-100,4,2,25,5,0,0
111018,-100,4,2,25,70,0,0
111276,-100,4,2,25,5,0,0
111363,-125,4,2,25,70,0,0
133776,-250,4,2,25,50,0,0
144121,-125,4,2,25,60,0,0
144811,-400,4,2,25,65,0,0
145845,-100,4,2,25,65,0,0
146190,-400,4,2,25,65,0,0
148604,-100,4,2,25,65,0,0
148949,-400,4,2,25,65,0,0
150328,-400,4,2,25,68,0,0
151707,-400,4,2,25,71,0,0
153087,-400,4,2,25,75,0,0
155759,-400,4,2,25,5,0,0
155845,-80,4,2,26,85,0,1
164380,-80,4,2,26,5,0,1
164466,-80,4,2,26,85,0,1
175156,-133.333333333333,4,2,25,70,0,0
177569,-400,4,2,25,70,0,0
177828,-400,4,2,25,5,0,0
177914,-80,4,2,26,85,0,1
178259,-89.2857142857143,4,2,26,85,0,1
179983,-80,4,2,26,85,0,1
180931,-80,4,2,26,5,0,1
181018,-80,4,2,26,85,0,1
182052,-80,4,2,26,85,0,1
183345,-80,4,2,26,5,0,1
183431,-80,4,2,26,85,0,1
183690,-80,4,2,26,5,0,1
183776,-89.2857142857143,4,2,26,85,0,1
185845,-80,4,2,26,85,0,1
186104,-80,4,2,26,5,0,1
186190,-80,4,2,26,85,0,1
186449,-80,4,2,26,5,0,1
186535,-80,4,2,26,85,0,1
189207,-80,4,2,26,5,0,1
189294,-83.3333333333333,4,2,26,85,0,1
191363,-80,4,2,26,85,0,1
191621,-80,4,2,26,5,0,1
191707,-86.9565217391304,4,2,26,77,0,0
193087,-95.2380952380952,4,2,26,74,0,0
194811,-100,4,2,26,71,0,0
197569,-111.111111111111,4,2,26,65,0,0

[Colours]
Combo1 : 235,232,90
Combo2 : 173,182,220
Combo3 : 217,143,77
Combo4 : 108,135,189

[HitObjects]
89,64,45500,6,0,P|140:50|192:69,1,108,0|0,1:0|0:0,0:0:0:0:
195,75,45845,6,0,L|200:146,1,72,2|0,0:0|0:0,0:0:0:0:
348,145,46190,2,0,L|282:172,1,72,2|0,0:0|0:0,0:0:0:0:
327,314,46535,2,0,L|281:260,1,72,2|0,0:0|0:0,0:0:0:0:
161,345,46880,2,0,L|199:284,1,72,2|0,0:0|0:0,0:0:0:0:
80,197,47225,2,0,L|149:214,1,72,2|0,0:0|0:0,0:0:0:0:
348,145,47569,6,0,B|363:64|322:79|342:-2,2,144,2|0|0,0:0|0:0|0:0,0:0:0:0:
201,117,48604,6,0,P|237:109|275:111,1,72,2|0,0:0|0:0,0:0:0:0:
130,75,48949,2,0,P|105:48|88:16,1,72,2|0,0:0|0:0,0:0:0:0:
129,158,49294,2,0,P|118:192|99:222,1,72,2|0,0:0|0:0,0:0:0:0:
153,322,49638,6,0,B|269:345|248:285|368:314,2,216,2|0|0,0:0|0:0|0:0,0:0:0:0:
153,322,51018,1,0,0:0:0:0:
95,148,51363,6,0,L|26:131,1,72,2|0,0:0|0:0,0:0:0:0:
136,220,51707,2,0,L|86:271,1,72,2|0,0:0|0:0,0:0:0:0:
219,220,52052,2,0,L|238:288,1,72,2|0,0:0|0:0,0:0:0:0:
261,148,52397,2,0,L|330:165,1,72,2|0,0:0|0:0,0:0:0:0:
219,76,52742,2,0,L|268:24,1,72,2|0,0:0|0:0,0:0:0:0:
136,76,53087,2,0,L|116:7,1,72,2|0,0:0|0:0,0:0:0:0:
25,130,53431,6,0,B|10:211|51:196|31:277,1,144,2|0,0:0|0:0,0:0:0:0:
106,314,53949,1,0,0:0:0:0:
179,170,54121,6,0,P|143:162|105:164,1,72,2|0,0:0|0:0,0:0:0:0:
250,128,54466,2,0,P|275:101|292:69,1,72,2|0,0:0|0:0,0:0:0:0:
251,211,54811,2,0,P|262:245|281:275,1,72,2|0,0:0|0:0,0:0:0:0:
399,324,55156,6,0,B|422:208|362:229|391:109,1,216,2|0,0:0|0:0,0:0:0:0:
465,149,55845,2,0,L|462:182,14,18,2|0|0|0|0|0|0|0|0|0|0|0|0|0|0,0:0|0:0|0:0|0:0|0:0|0:0|0:0|0:0|0:0|0:0|0:0|0:0|0:0|0:0|0:0,0:0:0:0:
475,182,56535,6,0,L|473:226,1,45,0|0,1:0|0:0,0:0:0:0:
345,377,57052,2,0,L|346:332,1,45,2|0,0:0|0:0,0:0:0:0:
411,280,57569,1,2,0:0:0:0:
229,103,57914,6,0,L|230:58,1,45,2|0,0:0|0:0,0:0:0:0:
225,268,58431,2,0,L|224:313,1,45,2|0,0:0|0:0,0:0:0:0:
228,185,58949,1,2,0:0:0:0:
12,219,59294,6,0,L|13:174,1,45,2|0,1:2|0:0,0:0:0:0:
142,24,59811,2,0,L|140:68,1,45,2|0,0:0|0:0,0:0:0:0:
76,121,60328,1,2,0:0:0:0:
340,261,60673,6,0,L|338:305,1,45,2|0,0:0|0:0,0:0:0:0:
343,95,61190,2,0,L|345:51,1,45,2|0,0:0|0:0,0:0:0:0:
341,179,61707,1,2,0:0:0:0:
181,87,62052,5,8,0:0:0:0:
179,70,62225,1,0,1:0:0:0:
177,53,62397,1,0,1:0:0:0:
113,198,62569,5,8,0:0:0:0:
111,215,62742,1,0,1:0:0:0:
109,232,62914,1,0,1:0:0:0:
177,53,63087,5,8,0:0:0:0:
245,232,63259,1,0,1:0:0:0:
259,62,63431,5,8,0:0:0:0:
211,129,63604,1,0,1:0:0:0:
177,53,63776,1,0,1:0:0:0:
197,299,63949,5,8,0:0:0:0:
245,232,64121,1,0,1:0:0:0:
279,308,64294,1,0,1:0:0:0:
259,62,64466,5,8,0:0:0:0:
197,299,64638,1,0,1:0:0:0:
399,159,64811,5,8,0:0:0:0:
245,232,64983,1,0,1:0:0:0:
259,62,65156,1,0,1:0:0:0:
57,202,65328,5,8,0:0:0:0:
211,129,65500,1,0,1:0:0:0:
197,299,65673,1,0,1:0:0:0:
177,53,65845,5,8,0:0:0:0:
149,366,66018,1,0,1:0:0:0:
256,192,66535,5,2,0:0:0:0:
256,192,66880,1,2,0:0:0:0:
256,192,67225,2,0,L|297:194,1,33.75,2|0,0:0|0:0,0:0:0:0:
301,190,67569,6,0,P|203:164|132:256,1,225,4|8,1:2|0:0,0:0:0:0:
382,247,68087,2,0,P|399:199|385:140,1,112.5,0|2,0:0|0:0,0:0:0:0:
230,259,68431,1,0,1:0:0:0:
441,58,68604,2,0,P|393:41|334:55,1,112.5,8|0,0:0|0:0,0:0:0:0:
80,41,68949,6,0,P|144:126|248:102,1,225,0|8,1:0|0:0,0:0:0:0:
469,249,69466,2,0,P|404:165|300:189,1,225,2|0,0:0|1:0,0:0:0:0:
367,365,69983,2,0,P|384:312|371:259,1,112.5,8|0,0:0|0:0,0:0:0:0:
248,102,70328,6,0,L|135:109,1,112.5,0|0,1:0|0:0,0:0:0:0:
314,29,70673,2,0,L|426:21,1,112.5,8|0,0:0|0:0,0:0:0:0:
512,69,71018,1,2,0:0:0:0:
248,102,71190,1,0,1:0:0:0:
450,146,71363,2,0,L|457:258,1,112.5,8|0,0:0|0:0,0:0:0:0:
331,348,71707,6,0,L|105:332,1,225,0|8,1:0|0:0,0:0:0:0:
0,240,72225,2,0,L|225:224,1,225,2|0,0:0|1:0,0:0:0:0:
443,355,72742,2,0,L|330:347,1,112.5,8|0,0:0|0:0,0:0:0:0:
459,161,73087,6,0,P|476:108|462:54,1,112.5,0|0,1:0|0:0,0:0:0:0:
402,240,73431,1,8,0:0:0:0:
378,104,73604,2,0,P|325:86|271:100,1,112.5,0|2,0:0|0:0,0:0:0:0:
459,161,73949,1,0,1:0:0:0:
190,45,74121,2,0,P|172:97|186:151,1,112.5,8|0,0:0|0:0,0:0:0:0:
406,337,74466,6,0,P|341:252|237:276,1,225,0|8,1:0|0:0,0:0:0:0:
9,290,74983,2,0,P|74:375|178:351,1,225,2|0,0:0|1:0,0:0:0:0:
110,175,75500,2,0,P|93:228|107:282,1,112.5,8|0,0:0|0:0,0:0:0:0:
213,45,75845,6,0,L|407:36,1,168.75,0|0,1:0|0:0,0:0:0:0:
390,32,76190,6,0,B|409:65|409:65|404:139,1,112.5,8|0,0:0|0:0,0:0:0:0:
341,307,76535,2,0,B|322:274|322:274|327:200,1,112.5,2|0,0:0|1:0,0:0:0:0:
489,188,76880,2,0,B|508:221|508:221|503:295,1,112.5,8|0,0:0|0:0,0:0:0:0:
341,307,77225,6,0,B|258:301|258:301|206:326|206:326|110:319,1,225,0|8,1:0|0:0,0:0:0:0:
181,227,77742,1,2,0:0:0:0:
255,354,77914,1,2,0:0:0:0:
25,304,78087,1,0,1:0:0:0:
25,304,78173,1,0,1:0:0:0:
25,304,78259,1,8,0:0:0:0:
341,307,78431,1,0,1:0:0:0:
92,182,78604,6,0,P|67:78|152:13,1,225,4|8,1:2|0:0,0:0:0:0:
267,107,79121,2,0,P|214:124|160:110,1,112.5,0|2,0:0|0:0,0:0:0:0:
339,38,79466,1,0,1:0:0:0:
271,213,79638,2,0,P|253:160|267:106,1,112.5,8|0,0:0|0:0,0:0:0:0:
439,274,79983,6,0,P|375:189|271:213,1,225,0|8,1:0|0:0,0:0:0:0:
92,40,80500,2,0,P|157:124|261:100,1,225,2|0,0:0|1:0,0:0:0:0:
111,137,81018,2,0,P|94:190|107:243,1,112.5,8|0,0:0|0:0,0:0:0:0:
309,287,81363,6,0,L|422:280,1,112.5,0|0,1:0|0:0,0:0:0:0:
243,360,81707,2,0,L|131:368,1,112.5,8|0,0:0|0:0,0:0:0:0:
45,320,82052,1,2,0:0:0:0:
309,287,82225,1,0,1:0:0:0:
107,243,82397,2,0,L|100:131,1,112.5,8|0,0:0|0:0,0:0:0:0:
181,10,82742,6,0,L|407:26,1,225,0|8,1:0|0:0,0:0:0:0:
512,118,83259,2,0,L|287:134,1,225,2|0,0:0|1:0,0:0:0:0:
69,3,83776,2,0,L|182:11,1,112.5,8|0,0:0|0:0,0:0:0:0:
43,211,84121,6,0,P|26:264|40:318,1,112.5,0|0,1:0|0:0,0:0:0:0:
100,132,84466,1,8,0:0:0:0:
124,268,84638,2,0,P|177:286|231:272,1,112.5,0|2,0:0|0:0,0:0:0:0:
43,211,84983,1,0,1:0:0:0:
312,327,85156,2,0,P|330:275|316:221,1,112.5,8|0,0:0|0:0,0:0:0:0:
111,41,85500,6,0,P|176:126|280:102,1,225,0|8,1:0|0:0,0:0:0:0:
511,86,86018,2,0,P|446:1|342:25,1,225,2|0,0:0|1:0,0:0:0:0:
410,201,86535,2,0,P|427:148|413:94,1,112.5,8|0,0:0|0:0,0:0:0:0:
279,102,86880,6,0,L|188:95,1,67.5000025749208,0|0,1:0|0:0,0:0:0:0:
81,147,87225,2,0,L|149:152,1,67.5000025749208,0|0,1:0|0:0,0:0:0:0:
274,215,87569,2,0,L|206:210,1,67.5000025749208,0|0,1:0|0:0,0:0:0:0:
76,260,87914,2,0,L|143:264,1,67.5000025749208,0|0,1:0|1:0,0:0:0:0:
143,264,88173,1,0,1:0:0:0:
143,264,88259,5,8,0:0:0:0:
274,215,88431,1,0,1:0:0:0:
251,353,88604,1,0,1:0:0:0:
436,241,88776,5,10,0:0:0:0:
306,291,88949,1,0,1:0:0:0:
329,153,89121,1,0,1:0:0:0:
251,353,89294,6,0,L|210:351,1,33.75,8|0,0:0|0:0,0:0:0:0:
197,351,89638,6,0,B|203:271|203:271|214:258|214:258|222:171,1,168.75,4|0,1:2|0:0,0:0:0:0:
209,173,89983,6,0,P|157:157|103:170,1,112.5,8|0,0:0|0:0,0:0:0:0:
287,117,90328,2,0,P|286:62|256:15,1,112.5,2|0,0:0|1:0,0:0:0:0:
364,173,90673,2,0,P|417:155|453:112,1,112.5,8|0,0:0|0:0,0:0:0:0:
335,265,91018,2,0,P|367:309|419:330,1,112.5,0|0,1:0|0:0,0:0:0:0:
239,264,91363,2,0,P|206:309|203:365,1,112.5,8|0,0:0|0:0,0:0:0:0:
335,265,91707,5,2,0:0:0:0:
210,174,91880,1,0,1:0:0:0:
365,174,92052,1,8,0:0:0:0:
287,118,92225,1,0,0:0:0:0:
239,264,92397,6,0,B|159:258|159:258|146:247|146:247|59:239,1,168.75,0|0,1:0|0:0,0:0:0:0:
101,259,92742,6,0,P|117:207|104:153,1,112.5,8|0,0:0|0:0,0:0:0:0:
13,0,93087,2,0,P|50:41|103:56,1,112.5,2|0,0:0|1:0,0:0:0:0:
278,53,93431,2,0,P|224:65|185:104,1,112.5,8|0,0:0|0:0,0:0:0:0:
332,321,93776,6,0,P|355:217|271:153,1,225,0|8,1:0|0:0,0:0:0:0:
104,152,94294,1,2,0:0:0:0:
185,104,94466,1,2,0:0:0:0:
104,56,94638,1,0,1:0:0:0:
83,251,94811,6,0,B|154:244|154:244|167:233|167:233|247:227,1,168.75,8|0,0:0|0:0,0:0:0:0:
342,241,95156,2,0,B|270:247|270:247|257:258|257:258|177:264,1,168.75,0|0,1:0|0:0,0:0:0:0:
103,336,95500,6,0,P|128:286|176:258,1,107.999996704102,8|0,0:0|0:0,0:0:0:0:
296,378,95845,2,0,P|266:331|266:275,1,107.999996704102,2|0,0:0|1:0,0:0:0:0:
431,231,96190,2,0,P|375:233|327:205,1,107.999996704102,8|0,0:0|0:0,0:0:0:0:
369,43,96535,2,0,P|343:92|295:120,1,107.999996704102,0|0,1:0|0:0,0:0:0:0:
176,0,96880,2,0,P|205:46|205:102,1,107.999996704102,8|0,0:0|0:0,0:0:0:0:
42,146,97225,2,0,P|97:143|145:171,1,107.999996704102,2|0,0:0|1:0,0:0:0:0:
330,208,97569,6,0,B|410:202|410:202|423:191|423:191|510:183,1,168.75,8|0,0:0|0:0,0:0:0:0:
408,168,97914,2,0,B|328:174|328:174|315:185|315:185|228:193,1,168.75,0|0,1:0|0:0,0:0:0:0:
240,293,98259,6,0,P|224:241|237:187,1,112.5,8|0,0:0|0:0,0:0:0:0:
328,34,98604,2,0,P|291:75|238:90,1,112.5,2|0,0:0|1:0,0:0:0:0:
63,87,98949,2,0,P|117:99|156:138,1,112.5,8|0,0:0|0:0,0:0:0:0:
7,354,99294,6,0,P|-15:250|70:186,1,225,0|8,1:0|0:0,0:0:0:0:
238,186,99811,1,2,0:0:0:0:
63,87,99983,1,2,0:0:0:0:
328,34,100156,1,0,1:0:0:0:
328,34,100242,1,0,1:0:0:0:
328,34,100328,1,8,0:0:0:0:
71,186,100500,1,0,1:0:0:0:
333,151,100673,6,0,B|327:231|327:231|316:244|316:244|308:331,1,168.75,4|0,1:2|0:0,0:0:0:0:
280,284,101018,6,0,L|272:397,1,100.800001230469,8|0,0:0|0:0,0:0:0:0:
187,263,101363,2,0,L|84:310,1,100.800001230469,2|0,0:0|1:0,0:0:0:0:
158,172,101707,2,0,L|65:106,1,100.800001230469,8|0,0:0|0:0,0:0:0:0:
221,103,102052,2,0,L|229:-10,1,100.800001230469,0|0,1:0|0:0,0:0:0:0:
315,122,102397,2,0,L|416:72,1,100.800001230469,8|0,0:0|0:0,0:0:0:0:
346,212,102742,2,0,L|439:275,1,100.800001230469,2|0,0:0|1:0,0:0:0:0:
164,274,103087,6,0,B|84:268|84:268|71:257|71:257|-16:249,1,168.75,8|0,0:0|0:0,0:0:0:0:
97,226,103431,2,0,B|177:232|177:232|190:243|190:243|277:251,1,168.75,0|0,1:0|0:0,0:0:0:0:
269,242,103776,6,0,L|261:355,1,112.5,8|0,0:0|0:0,0:0:0:0:
268,146,104121,2,0,L|174:82,1,112.5,2|0,0:0|1:0,0:0:0:0:
351,194,104466,2,0,L|452:144,1,112.5,8|0,0:0|0:0,0:0:0:0:
498,352,104811,6,0,L|272:336,1,225,0|8,1:0|0:0,0:0:0:0:
351,194,105328,1,2,0:0:0:0:
269,242,105500,1,2,0:0:0:0:
268,146,105673,1,0,1:0:0:0:
273,336,105845,6,0,B|193:330|193:330|180:319|180:319|109:312,1,168.75,8|0,0:0|0:0,0:0:0:0:
40,274,106190,2,0,B|120:280|120:280|133:291|133:291|204:298,1,168.75,0|0,1:0|0:0,0:0:0:0:
223,384,106535,6,0,L|215:283,1,100.800001230469,8|0,0:0|0:0,0:0:0:0:
400,304,106880,2,0,L|308:261,1,100.800001230469,2|0,0:0|1:0,0:0:0:0:
420,113,107225,2,0,L|337:170,1,100.800001230469,8|0,0:0|0:0,0:0:0:0:
267,1,107569,2,0,L|274:101,1,100.800001230469,0|0,1:0|0:0,0:0:0:0:
90,77,107914,2,0,L|180:121,1,100.800001230469,8|0,0:0|0:0,0:0:0:0:
66,267,108259,2,0,L|149:210,1,100.800001230469,2|0,0:0|1:0,0:0:0:0:
308,261,108604,6,0,B|388:267|388:267|401:278|401:278|488:286,1,168.75,8|0,0:0|0:0,0:0:0:0:
410,230,108949,2,0,B|330:224|330:224|317:213|317:213|230:205,1,168.75,0|0,1:0|0:0,0:0:0:0:
139,220,109294,6,0,B|172:201|172:201|246:206,1,112.5,8|0,0:0|0:0,0:0:0:0:
414,116,109638,2,0,B|381:135|381:135|307:130,1,112.5,2|0,0:0|1:0,0:0:0:0:
201,296,109983,1,8,0:0:0:0:
351,41,110156,1,0,1:0:0:0:
410,230,110328,1,0,1:0:0:0:
307,130,110673,6,0,B|266:153|266:153|175:147,1,135,2|0,0:0|0:0,0:0:0:0:
171,142,111018,2,0,B|130:118|130:118|39:124,1,135,2|0,0:0|0:0,0:0:0:0:
36,131,111363,2,0,L|39:164,6,18,2|0|0|0|0|0|0,0:0|0:0|0:0|0:0|0:0|0:0|0:0,0:0:0:0:
87,216,111707,5,4,0:0:0:0:
256,192,128431,12,0,133776,1:0:0:0:
272,227,134121,6,0,L|274:262,1,36,2|0,0:0|0:0,0:0:0:0:
231,213,134466,2,0,L|197:226,1,36,2|0,0:0|0:0,0:0:0:0:
231,169,134811,2,0,L|207:142,1,36,2|0,0:0|0:0,0:0:0:0:
272,157,135156,2,0,L|291:126,1,36,2|0,0:0|0:0,0:0:0:0:
297,192,135500,2,0,L|331:200,1,36,2|0,0:0|0:0,0:0:0:0:
297,272,135845,6,0,B|373:290|358:250|439:265,1,144,2|0,0:0|0:0,0:0:0:0:
240,222,136880,6,0,P|221:226|203:225,1,36,2|0,0:0|0:0,0:0:0:0:
276,243,137225,2,0,P|288:256|297:272,1,36,2|0,0:0|0:0,0:0:0:0:
276,202,137569,2,0,P|281:185|290:170,1,36,2|0,0:0|0:0,0:0:0:0:
331,96,137914,6,0,B|235:77|252:126|153:102,1,180,2|0,0:0|0:0,0:0:0:0:
154,102,139638,6,0,L|151:66,1,36,2|0,0:0|0:0,0:0:0:0:
195,116,139983,2,0,L|228:102,1,36,2|0,0:0|0:0,0:0:0:0:
195,160,140328,2,0,L|218:186,1,36,2|0,0:0|0:0,0:0:0:0:
154,172,140673,2,0,L|134:202,1,36,2|0,0:0|0:0,0:0:0:0:
129,137,141018,2,0,L|94:128,1,36,2|0,0:0|0:0,0:0:0:0:
27,96,141363,6,0,P|20:133|37:174,1,72,2|0,0:0|0:0,0:0:0:0:
67,229,141880,2,0,P|69:248|64:271,1,36,2|0,0:0|0:0,0:0:0:0:
54,337,142225,1,0,0:0:0:0:
191,252,142397,6,0,P|209:248|227:249,1,36,2|0,0:0|0:0,0:0:0:0:
155,231,142742,2,0,P|142:217|134:201,1,36,2|0,0:0|0:0,0:0:0:0:
155,272,143087,2,0,P|149:288|140:303,1,36,2|0,0:0|0:0,0:0:0:0:
118,376,143431,6,0,B|176:387|165:357|225:372,1,108,2|0,0:0|0:0,0:0:0:0:
289,334,144121,2,0,L|286:301,14,18,2|0|0|0|0|0|0|0|0|0|0|0|0|0|0,0:0|0:0|0:0|0:0|0:0|0:0|0:0|0:0|0:0|0:0|0:0|0:0|0:0|0:0|0:0,0:0:0:0:
294,304,144811,6,0,L|296:260,1,45,0|0,1:0|0:0,0:0:0:0:
424,109,145328,2,0,L|423:154,1,45,2|0,0:0|0:0,0:0:0:0:
358,206,145845,6,0,P|312:181|267:186,1,90,2|0,0:0|0:0,0:0:0:0:
270,175,146190,6,0,L|271:130,1,45,2|0,0:0|0:0,0:0:0:0:
266,340,146707,2,0,L|265:385,1,45,2|0,0:0|0:0,0:0:0:0:
269,257,147225,1,2,0:0:0:0:
159,103,147569,6,0,L|158:148,1,45,2|0,1:2|0:0,0:0:0:0:
29,298,148087,2,0,L|31:254,1,45,2|0,0:0|0:0,0:0:0:0:
95,201,148604,6,0,P|141:226|186:221,1,90,2|0,0:0|0:0,0:0:0:0:
184,231,148949,6,0,L|182:275,1,45,2|0,0:0|0:0,0:0:0:0:
187,65,149466,2,0,L|189:21,1,45,2|0,0:0|0:0,0:0:0:0:
185,149,149983,1,2,0:0:0:0:
355,294,150328,5,12,0:0:0:0:
357,311,150500,1,0,1:0:0:0:
359,328,150673,1,0,1:0:0:0:
423,183,150845,5,8,0:0:0:0:
425,166,151018,1,0,1:0:0:0:
427,149,151190,1,0,1:0:0:0:
237,179,151363,5,8,0:0:0:0:
359,328,151535,1,0,1:0:0:0:
189,246,151707,5,8,0:0:0:0:
237,179,151880,1,0,1:0:0:0:
271,255,152052,1,0,1:0:0:0:
25,228,152225,5,8,0:0:0:0:
73,161,152397,1,0,1:0:0:0:
107,237,152569,1,0,1:0:0:0:
203,103,152742,5,8,0:0:0:0:
271,255,152914,1,0,1:0:0:0:
73,161,153087,5,8,0:0:0:0:
237,179,153259,1,0,1:0:0:0:
139,312,153431,1,0,1:0:0:0:
435,273,153604,5,8,0:0:0:0:
271,255,153776,1,0,1:0:0:0:
369,122,153949,1,0,1:0:0:0:
305,331,154121,5,8,0:0:0:0:
311,63,154294,1,0,1:0:0:0:
237,179,154811,5,2,0:0:0:0:
237,179,155156,1,2,0:0:0:0:
237,179,155500,2,0,L|278:177,1,33.75,2|0,0:0|0:0,0:0:0:0:
280,185,155845,6,0,L|54:201,1,225,4|8,1:2|0:0,0:0:0:0:
62,42,156363,2,0,L|174:34,1,112.5,0|2,0:0|0:0,0:0:0:0:
4,119,156707,1,0,1:0:0:0:
252,92,156880,2,0,L|364:84,1,112.5,8|0,0:0|0:0,0:0:0:0:
459,160,157225,6,0,L|475:386,1,225,0|8,1:0|0:0,0:0:0:0:
348,308,157742,2,0,L|364:82,1,225,2|0,0:0|1:0,0:0:0:0:
258,0,158259,2,0,L|266:112,1,112.5,8|0,0:0|0:0,0:0:0:0:
232,247,158604,6,0,P|179:264|125:250,1,112.5,0|0,1:0|0:0,0:0:0:0:
109,100,158949,1,8,0:0:0:0:
32,260,159121,2,0,P|15:207|28:153,1,112.5,0|2,0:0|0:0,0:0:0:0:
177,169,159466,1,0,1:0:0:0:
53,22,159638,2,0,P|105:5|159:18,1,112.5,8|0,0:0|0:0,0:0:0:0:
266,112,159983,6,0,P|364:86|435:178,1,225,0|8,1:0|0:0,0:0:0:0:
266,112,160500,2,0,P|162:87|97:172,1,225,2|0,0:0|1:0,0:0:0:0:
333,285,161018,2,0,P|350:232|337:179,1,112.5,8|0,0:0|0:0,0:0:0:0:
310,26,161363,6,0,L|422:18,1,112.5,0|0,1:0|0:0,0:0:0:0:
449,170,161707,2,0,L|337:178,1,112.5,8|0,0:0|0:0,0:0:0:0:
266,112,162052,1,2,0:0:0:0:
493,84,162225,1,0,1:0:0:0:
446,277,162397,2,0,L|334:285,1,112.5,8|0,0:0|0:0,0:0:0:0:
96,369,162742,6,0,L|320:384,1,225,0|8,1:0|0:0,0:0:0:0:
229,263,163259,2,0,L|4:278,1,225,2|0,0:0|1:0,0:0:0:0:
101,159,163776,2,0,L|213:167,1,112.5,8|0,0:0|0:0,0:0:0:0:
483,143,164121,6,0,P|420:90|340:105,1,168.75,0|0,1:0|0:0,0:0:0:0:
330,100,164466,6,0,B|311:133|311:133|316:207,1,112.5,8|0,0:0|0:0,0:0:0:0:
223,368,164811,2,0,B|242:335|242:335|237:261,1,112.5,2|0,0:0|1:0,0:0:0:0:
401,253,165156,2,0,B|382:286|382:286|387:360,1,112.5,8|0,0:0|0:0,0:0:0:0:
316,207,165500,6,0,B|232:200|232:200|180:225|180:225|97:219,1,225,0|8,1:0|0:0,0:0:0:0:
156,127,166018,1,2,0:0:0:0:
248,299,166190,1,2,0:0:0:0:
2,220,166363,1,0,1:0:0:0:
2,220,166449,1,0,1:0:0:0:
2,220,166535,1,8,0:0:0:0:
192,377,166707,1,0,1:0:0:0:
249,158,166880,6,0,L|475:142,1,225,4|8,1:2|0:0,0:0:0:0:
449,309,167397,2,0,L|337:317,1,112.5,0|2,0:0|0:0,0:0:0:0:
507,232,167742,1,0,1:0:0:0:
259,259,167914,2,0,L|147:267,1,112.5,8|0,0:0|0:0,0:0:0:0:
59,382,168259,6,0,L|43:157,1,225,0|8,1:0|0:0,0:0:0:0:
162,42,168776,2,0,L|146:266,1,225,2|0,0:0|1:0,0:0:0:0:
264,122,169294,2,0,L|256:10,1,112.5,8|0,0:0|0:0,0:0:0:0:
264,122,169638,6,0,P|317:105|371:119,1,112.5,0|0,1:0|0:0,0:0:0:0:
387,269,169983,1,8,0:0:0:0:
464,109,170156,2,0,P|480:161|467:215,1,112.5,0|2,0:0|0:0,0:0:0:0:
319,200,170500,1,0,1:0:0:0:
443,347,170673,2,0,P|390:363|336:350,1,112.5,8|0,0:0|0:0,0:0:0:0:
246,272,171018,6,0,P|148:298|77:206,1,225,0|8,1:0|0:0,0:0:0:0:
246,272,171535,2,0,P|349:296|414:211,1,225,2|0,0:0|1:0,0:0:0:0:
178,98,172052,2,0,P|161:151|175:205,1,112.5,8|0,0:0|0:0,0:0:0:0:
202,358,172397,6,0,L|90:366,1,112.5,0|0,1:0|0:0,0:0:0:0:
63,213,172742,2,0,L|175:205,1,112.5,8|0,0:0|0:0,0:0:0:0:
246,272,173087,1,2,0:0:0:0:
19,300,173259,1,0,1:0:0:0:
66,107,173431,2,0,L|178:99,1,112.5,8|0,0:0|0:0,0:0:0:0:
403,84,173776,6,0,L|178:99,1,225,0|8,1:0|0:0,0:0:0:0:
288,187,174294,2,0,L|512:202,1,225,2|0,0:0|1:0,0:0:0:0:
422,293,174811,2,0,L|310:301,1,112.5,8|0,0:0|0:0,0:0:0:0:
117,235,175156,6,0,P|149:221|182:221,1,67.5000025749208,0|0,1:0|0:0,0:0:0:0:
180,365,175500,2,0,P|166:334|165:300,1,67.5000025749208,0|0,1:0|0:0,0:0:0:0:
310,301,175845,2,0,P|279:314|245:315,1,67.5000025749208,0|0,1:0|0:0,0:0:0:0:
246,170,176190,2,0,P|259:200|260:234,1,67.5000025749208,0|0,1:0|1:0,0:0:0:0:
264,230,176449,1,0,1:0:0:0:
268,226,176535,5,8,0:0:0:0:
179,125,176707,1,0,1:0:0:0:
310,99,176880,1,0,1:0:0:0:
113,173,177052,5,10,0:0:0:0:
156,46,177225,1,0,1:0:0:0:
25,72,177397,1,0,1:0:0:0:
167,234,177569,6,0,L|165:275,1,33.75,8|0,0:0|0:0,0:0:0:0:
166,282,177914,6,0,B|246:288|246:288|259:299|259:299|346:307,1,168.75,4|0,1:2|0:0,0:0:0:0:
307,384,178259,6,0,L|300:284,1,100.800001230469,8|0,0:0|0:0,0:0:0:0:
474,252,178604,2,0,L|377:228,1,100.800001230469,2|0,0:0|1:0,0:0:0:0:
401,51,178949,2,0,L|348:137,1,100.800001230469,8|0,0:0|0:0,0:0:0:0:
187,60,179294,2,0,L|252:137,1,100.800001230469,0|0,1:0|0:0,0:0:0:0:
128,265,179638,2,0,L|222:228,1,100.800001230469,8|0,0:0|0:0,0:0:0:0:
252,137,179983,5,2,0:0:0:0:
377,227,180156,1,0,1:0:0:0:
222,228,180328,1,8,0:0:0:0:
300,284,180500,1,0,0:0:0:0:
348,137,180673,6,0,B|428:143|428:143|440:153|440:153|522:159,1,168.75,0|0,1:0|0:0,0:0:0:0:
489,235,181018,6,0,L|376:227,1,112.5,8|0,0:0|0:0,0:0:0:0:
278,44,181363,2,0,L|328:145,1,112.5,2|0,0:0|1:0,0:0:0:0:
217,320,181707,2,0,L|280:227,1,112.5,8|0,0:0|0:0,0:0:0:0:
7,158,182052,6,0,L|232:143,1,225,0|8,1:0|0:0,0:0:0:0:
376,227,182569,1,2,0:0:0:0:
328,144,182742,1,2,0:0:0:0:
280,227,182914,1,0,1:0:0:0:
464,72,183087,6,0,B|384:66|384:66|372:56|372:56|290:50,1,168.75,8|0,0:0|0:0,0:0:0:0:
163,123,183431,2,0,B|243:129|243:129|255:139|255:139|337:145,1,168.75,0|0,1:0|0:0,0:0:0:0:
326,156,183776,6,0,L|439:162,1,100.800001230469,8|0,0:0|0:0,0:0:0:0:
306,249,184121,2,0,L|354:351,1,100.800001230469,2|0,0:0|1:0,0:0:0:0:
216,279,184466,2,0,L|151:373,1,100.800001230469,8|0,0:0|0:0,0:0:0:0:
146,218,184811,2,0,L|32:211,1,100.800001230469,0|0,1:0|0:0,0:0:0:0:
163,123,185156,2,0,L|111:22,1,100.800001230469,8|0,0:0|0:0,0:0:0:0:
252,91,185500,2,0,L|313:-3,1,100.800001230469,2|0,0:0|1:0,0:0:0:0:
425,160,185845,6,0,B|419:240|419:240|409:252|409:252|403:334,1,168.75,8|0,0:0|0:0,0:0:0:0:
387,228,186190,2,0,B|393:148|393:148|403:136|403:136|409:54,1,168.75,0|0,1:0|0:0,0:0:0:0:
386,133,186535,6,0,L|394:20,1,112.5,8|0,0:0|0:0,0:0:0:0:
304,181,186880,2,0,L|203:231,1,112.5,2|0,0:0|1:0,0:0:0:0:
387,228,187225,2,0,L|479:291,1,112.5,8|0,0:0|0:0,0:0:0:0:
279,290,187569,6,0,L|54:274,1,225,0|8,1:0|0:0,0:0:0:0:
177,189,188087,1,2,0:0:0:0:
152,377,188259,1,2,0:0:0:0:
111,119,188431,1,0,1:0:0:0:
111,119,188518,1,0,1:0:0:0:
111,119,188604,1,8,0:0:0:0:
55,274,188776,1,0,1:0:0:0:
78,23,188949,6,0,B|158:29|158:29|171:40|171:40|258:48,1,168.75,4|0,1:2|0:0,0:0:0:0:
258,4,189294,6,0,P|287:51|285:107,1,107.999996704102,8|0,0:0|0:0,0:0:0:0:
120,145,189638,2,0,P|175:144|223:174,1,107.999996704102,2|0,0:0|1:0,0:0:0:0:
173,337,189983,2,0,P|200:288|250:262,1,107.999996704102,8|0,0:0|0:0,0:0:0:0:
365,384,190328,2,0,P|337:335|338:280,1,107.999996704102,0|0,1:0|0:0,0:0:0:0:
504,243,190673,2,0,P|449:243|402:213,1,107.999996704102,8|0,0:0|0:0,0:0:0:0:
451,52,191018,2,0,P|424:100|375:126,1,107.999996704102,2|0,0:0|1:0,0:0:0:0:
242,6,191363,6,0,B|236:86|236:86|225:99|225:99|217:186,1,168.75,8|0,0:0|0:0,0:0:0:0:
216,191,191707,1,0,1:0:0:0:
80,273,191880,1,0,0:0:0:0:
29,192,192052,6,0,P|76:177|126:189,1,103.500001974106,8|0,0:0|0:0,0:0:0:0:
268,275,192397,2,0,P|230:240|216:192,1,103.500001974106,2|0,0:0|1:0,0:0:0:0:
218,29,192742,2,0,P|206:78|170:114,1,103.500001974106,8|0,0:0|0:0,0:0:0:0:
14,82,193087,6,0,P|100:55|169:114,1,188.999994232178,0|8,1:0|0:0,0:0:0:0:
216,191,193604,1,2,0:0:0:0:
127,189,193776,1,2,0:0:0:0:
169,114,193949,1,0,1:0:0:0:
305,223,194121,6,0,P|318:266|307:312,1,94.499997116089,8|0,0:0|0:0,0:0:0:0:
240,358,194466,2,0,P|226:314|238:269,1,94.499997116089,0|0,1:0|0:0,0:0:0:0:
127,189,194811,6,0,P|88:163|41:165,1,90,8|0,0:0|0:0,0:0:0:0:
177,128,195156,2,0,P|177:83|154:46,1,90,2|0,0:0|1:0,0:0:0:0:
253,147,195500,2,0,P|291:125|313:87,1,90,8|0,0:0|0:0,0:0:0:0:
273,224,195845,2,0,P|311:245|355:245,1,90,0|0,1:0|0:0,0:0:0:0:
224,288,196190,2,0,P|221:334|245:374,1,90,8|0,0:0|0:0,0:0:0:0:
147,267,196535,2,0,P|105:288|83:328,1,90,2|0,0:0|1:0,0:0:0:0:
24,234,196880,6,0,L|29:139,1,90,8|0,0:0|0:0,0:0:0:0:
106,18,197225,2,0,L|102:108,1,90,0|0,1:0|0:0,0:0:0:0:
185,156,197569,6,0,B|209:141|209:141|264:145,1,80.9999975280763,0|0,1:0|0:0,0:0:0:0:
394,194,197914,2,0,B|369:208|369:208|317:205,1,80.9999975280763,0|0,1:0|0:0,0:0:0:0:
188,278,198259,2,0,B|212:263|212:263|267:267,1,80.9999975280763,0|0,1:0|0:0,0:0:0:0:
397,316,198604,2,0,B|372:330|372:330|319:326,1,80.9999975280763,0|0,1:0|0:0,0:0:0:0:
236,352,198949,5,2,0:0:0:0:
236,352,199294,1,2,0:0:0:0:
188,278,199638,2,0,L|186:257,6,20.2499993820191,2|0|0|0|0|0|0,0:0|0:0|0:0|0:0|0:0|0:0|0:0,0:0:0:0:
238,195,199983,5,4,0:0:0:0:
