osu file format v14

[General]
AudioFilename: audio.mp3
AudioLeadIn: 0
PreviewTime: 121696
Countdown: 0
SampleSet: Drum
StackLeniency: 0.7
Mode: 2
LetterboxInBreaks: 0
WidescreenStoryboard: 0

[Editor]
DistanceSpacing: 1
BeatDivisor: 2
GridSize: 4
TimelineZoom: 1.5

[Metadata]
Title:Good Enough
TitleUnicode:Good Enough
Artist:Koven
ArtistUnicode:Koven
Creator:autofanboy
Version:Thumbs Up
Source:
Tags:alienflybot AFB Australian Open Tournament 4 AOT4 Qualifiers DoubleTime1 DT1 Featured Artist FA Mappers’ Guild MPG MG Monstercat Uncaged Vol. 10 Volume MCUV10 Butterfly Effect LP Deluxe MCLP015X MCS1069 Max Rowat Katie Boyle Dancefloor Dance Floor Drum and Bass D&B DnB Electronic Rock English female vocal For Me (BCee Remix)
BeatmapID:4479912
BeatmapSetID:2130360

[Difficulty]
HPDrainRate:5.5
CircleSize:3.6
OverallDifficulty:8.5
ApproachRate:8.5
SliderMultiplier:1.92
SliderTickRate:2

[Events]
//Background and Video events
0,0,"afgood.jpg",0,0
//Break Periods
//Storyboard Layer 0 (Background)
//Storyboard Layer 1 (Fail)
//Storyboard Layer 2 (Pass)
//Storyboard Layer 3 (Foreground)
//Storyboard Layer 4 (Overlay)
//Storyboard Sound Samples

[TimingPoints]
188,344.827586206897,4,3,1,50,1,0
13981,-100,4,3,3,50,0,0
14153,-100,4,3,1,50,0,0
15360,-100,4,3,3,50,0,0
15532,-100,4,3,1,50,0,0
16739,-100,4,3,3,51,0,0
16912,-100,4,3,1,51,0,0
18119,-100,4,3,3,51,0,0
18291,-100,4,3,1,51,0,0
19498,-100,4,3,3,52,0,0
19670,-100,4,3,1,52,0,0
20877,-100,4,3,3,52,0,0
21050,-100,4,3,1,52,0,0
22256,-100,4,3,3,53,0,0
22429,-100,4,3,1,53,0,0
23636,-100,4,3,3,53,0,0
23808,-100,4,3,1,53,0,0
25015,-100,4,3,3,54,0,0
25188,-100,4,3,1,54,0,0
26394,-100,4,3,3,54,0,0
26567,-100,4,3,1,54,0,0
27774,-100,4,3,3,55,0,0
27946,-100,4,3,1,55,0,0
29153,-100,4,3,3,55,0,0
29325,-100,4,3,1,55,0,0
30532,-100,4,3,3,56,0,0
30705,-100,4,3,1,56,0,0
31912,-100,4,3,3,56,0,0
32084,-100,4,3,1,56,0,0
33291,-100,4,3,3,57,0,0
33463,-100,4,3,1,57,0,0
34670,-100,4,3,3,57,0,0
34843,-100,4,3,1,57,0,0
36050,-100,4,3,3,58,0,0
36222,-100,4,3,1,58,0,0
37429,-100,4,3,3,58,0,0
37601,-100,4,3,1,58,0,0
38808,-100,4,3,3,59,0,0
38981,-100,4,3,1,59,0,0
40188,-100,4,3,3,59,0,0
40360,-100,4,3,1,59,0,0
41567,-100,4,3,3,60,0,0
41739,-100,4,3,1,60,0,0
42946,-100,4,3,3,60,0,0
43119,-100,4,3,1,60,0,0
44325,-100,4,3,3,61,0,0
44498,-100,4,3,1,61,0,0
45705,-100,4,3,3,61,0,0
45877,-100,4,3,1,61,0,0
47084,-100,4,3,3,62,0,0
47256,-100,4,3,1,62,0,0
48463,-100,4,3,3,62,0,0
48636,-100,4,3,1,62,0,0
49843,-100,4,3,3,63,0,0
50015,-100,4,3,1,63,0,0
51222,-100,4,3,3,63,0,0
51394,-100,4,3,1,63,0,0
52601,-100,4,3,3,64,0,0
52774,-100,4,3,1,64,0,0
53981,-100,4,3,3,64,0,0
54153,-100,4,3,1,64,0,0
55360,-100,4,3,3,65,0,0
55532,-100,4,3,1,65,0,0
56739,-100,4,3,3,65,0,0
56912,-100,4,3,1,65,0,0
58119,-100,4,3,1,66,0,0
60877,-100,4,3,1,67,0,0
62946,-100,4,1,1,67,0,0
63119,-100,4,3,1,67,0,0
63636,-100,4,3,1,68,0,0
66394,-100,4,3,1,69,0,0
68463,-100,4,1,1,67,0,0
68636,-100,4,3,1,69,0,0
69153,-100,4,3,1,70,0,0
70532,-100,4,3,1,71,0,0
71912,-100,4,3,1,72,0,0
73291,-100,4,3,1,73,0,0
73981,-100,4,1,2,73,0,0
74153,-100,4,3,1,73,0,0
74670,-100,4,3,1,74,0,0
75360,-100,4,3,1,75,0,0
76050,-100,4,3,1,76,0,0
76739,-100,4,3,1,77,0,0
77429,-100,4,3,1,78,0,0
78119,-100,4,3,1,79,0,0
78808,-100,4,3,1,60,0,0
80188,-100,4,3,1,80,0,1
91222,-100,4,3,1,82,0,1
96739,-100,4,3,1,60,0,0
97084,-100,4,3,1,59,0,0
97429,-100,4,3,1,58,0,0
97774,-100,4,3,1,57,0,0
98119,-100,4,3,1,56,0,0
98463,-100,4,3,1,55,0,0
98808,-100,4,3,1,54,0,0
99153,-100,4,3,1,53,0,0
99498,-100,4,3,1,52,0,0
99843,-100,4,3,1,53,0,0
100188,-100,4,3,1,54,0,0
100532,-100,4,3,1,55,0,0
100877,-100,4,3,1,56,0,0
101222,-100,4,3,1,57,0,0
101567,-100,4,3,1,58,0,0
101912,-100,4,3,1,59,0,0
102084,-100,4,3,2,59,0,0
102256,-100,4,3,1,80,0,1
113291,-100,4,3,1,82,0,1
118808,-100,4,3,1,60,0,0
119153,-100,4,3,1,59,0,0
119498,-100,4,3,1,58,0,0
119843,-100,4,3,1,57,0,0
120188,-100,4,3,1,56,0,0
120532,-100,4,3,1,55,0,0
120877,-100,4,3,1,54,0,0
121222,-100,4,3,1,53,0,0
121567,-100,4,3,1,52,0,0
121912,-100,4,3,1,53,0,0
122256,-100,4,3,1,54,0,0
122601,-100,4,3,1,55,0,0
122946,-100,4,3,1,56,0,0
123291,-100,4,3,1,57,0,0
123636,-100,4,3,1,58,0,0
123981,-100,4,3,1,59,0,0
124325,-100,4,3,1,60,0,0
124670,-100,4,3,1,62,0,0
125015,-100,4,3,1,64,0,0
125360,-100,4,3,1,66,0,0
125532,-100,4,3,1,68,0,0
125705,-100,4,3,1,70,0,0
126050,-100,4,3,1,72,0,0
126394,-100,4,3,1,74,0,0
126739,-100,4,3,1,76,0,0
127084,-100,4,3,1,80,0,1
135360,-100,4,3,1,82,0,1
140877,-100,4,3,1,60,0,0
141394,-100,4,3,2,60,0,0
141567,-100,4,3,1,59,0,0
141912,-100,4,3,2,59,0,0
142084,-100,4,3,1,59,0,0
142256,-100,4,3,2,58,0,0
142429,-100,4,3,1,58,0,0
142774,-100,4,3,2,58,0,0
142946,-100,4,3,1,57,0,0
143291,-100,4,3,2,57,0,0
143463,-100,4,3,1,57,0,0
143636,-100,4,3,2,56,0,0
143808,-100,4,3,1,56,0,0
144153,-100,4,3,2,56,0,0
144325,-100,4,3,1,55,0,0
144670,-100,4,3,2,55,0,0
144843,-100,4,3,1,55,0,0
145015,-100,4,3,2,54,0,0
145188,-100,4,3,1,54,0,0
145532,-100,4,3,2,54,0,0
145705,-100,4,3,1,53,0,0
146050,-100,4,3,2,53,0,0
146222,-100,4,3,1,53,0,0
146394,-100,4,3,2,52,0,1
146481,-100,4,3,1,52,0,0
147429,-100,4,3,1,50,0,0
147774,-100,4,3,3,50,0,0
147946,-100,4,3,1,50,0,0
149153,-100,4,2,2,51,0,0
149325,-100,4,3,1,51,0,0
150532,-100,4,3,3,51,0,0
150705,-100,4,3,1,51,0,0
151912,-100,4,3,3,52,0,0
152084,-100,4,3,1,52,0,0
153291,-100,4,3,3,52,0,0
153463,-100,4,3,1,52,0,0
154670,-100,4,3,3,53,0,0
154843,-100,4,3,1,53,0,0
156050,-100,4,3,3,53,0,0
156222,-100,4,3,1,53,0,0
156739,-100,4,3,2,53,0,0
156912,-100,4,3,1,53,0,0
157429,-100,4,3,3,54,0,0
157601,-100,4,3,1,54,0,0
158808,-100,4,3,3,54,0,0
158981,-100,4,3,1,54,0,0
160188,-100,4,2,2,55,0,0
160360,-100,4,3,1,55,0,0
161567,-100,4,3,3,55,0,0
161739,-100,4,3,1,55,0,0
162946,-100,4,3,3,56,0,0
163119,-100,4,3,1,56,0,0
164325,-100,4,3,3,56,0,0
164498,-100,4,3,1,56,0,0
165705,-100,4,3,3,57,0,0
165877,-100,4,3,1,57,0,0
167084,-100,4,3,3,57,0,0
167256,-100,4,3,1,57,0,0
167429,-100,4,3,2,43,0,0
167601,-100,4,3,1,43,0,0
167774,-100,4,3,1,30,0,0
168463,-100,4,3,3,58,0,0
168636,-100,4,3,1,58,0,0
169843,-100,4,3,3,58,0,0
170015,-100,4,3,1,58,0,0
171222,-100,4,3,3,59,0,0
171394,-100,4,3,1,59,0,0
172601,-100,4,3,3,59,0,0
172774,-100,4,3,1,59,0,0
173981,-100,4,3,3,60,0,0
174153,-100,4,3,1,60,0,0
175360,-100,4,3,3,60,0,0
175532,-100,4,3,1,60,0,0
176739,-100,4,3,3,61,0,0
176912,-100,4,3,1,61,0,0
178119,-100,4,3,3,61,0,0
178291,-100,4,3,1,61,0,0
179498,-100,4,3,3,62,0,0
179670,-100,4,3,1,62,0,0
180877,-100,4,3,3,62,0,0
181050,-100,4,3,1,62,0,0
182256,-100,4,3,3,63,0,0
182429,-100,4,3,1,63,0,0
183636,-100,4,3,3,63,0,0
183808,-100,4,3,1,63,0,0
185015,-100,4,3,3,64,0,0
185188,-100,4,3,1,64,0,0
186394,-100,4,3,3,64,0,0
186567,-100,4,3,1,64,0,0
187774,-100,4,3,3,65,0,0
187946,-100,4,3,1,65,0,0
189153,-100,4,3,1,60,0,0
190532,-100,4,3,1,80,0,1
201567,-100,4,3,1,82,0,1
207084,-100,4,3,1,60,0,0
207429,-100,4,3,1,59,0,0
207774,-100,4,3,1,58,0,0
208119,-100,4,3,1,57,0,0
208463,-100,4,3,1,56,0,0
208808,-100,4,3,1,55,0,0
209153,-100,4,3,1,54,0,0
209498,-100,4,3,1,53,0,0
209843,-100,4,3,1,52,0,0
210188,-100,4,3,1,53,0,0
210532,-100,4,3,1,54,0,0
210877,-100,4,3,1,55,0,0
211222,-100,4,3,1,56,0,0
211567,-100,4,3,1,57,0,0
211912,-100,4,3,1,58,0,0
212256,-100,4,3,1,59,0,0
212601,-100,4,3,1,60,0,0
212946,-100,4,3,1,62,0,0
213291,-100,4,3,1,64,0,0
213636,-100,4,3,1,66,0,0
213808,-100,4,3,1,68,0,0
213981,-100,4,3,1,70,0,0
214325,-100,4,3,1,72,0,0
214670,-100,4,3,1,74,0,0
215015,-100,4,3,1,76,0,0
215360,-100,4,3,1,80,0,1
223636,-100,4,3,1,82,0,1
229153,-100,4,3,1,60,0,0
229670,-100,4,3,2,60,0,0
229843,-100,4,3,1,59,0,0
230188,-100,4,3,2,59,0,0
230360,-100,4,3,1,59,0,0
230532,-100,4,3,2,58,0,0
230705,-100,4,3,1,58,0,0
231050,-100,4,3,2,58,0,0
231222,-100,4,3,1,57,0,0
231567,-100,4,3,2,57,0,0
231739,-100,4,3,1,57,0,0
231912,-100,4,3,2,56,0,0
232084,-100,4,3,1,56,0,0
232429,-100,4,3,2,56,0,0
232601,-100,4,3,1,55,0,0
232946,-100,4,3,2,55,0,0
233119,-100,4,3,1,55,0,0
233291,-100,4,3,2,54,0,0
233463,-100,4,3,1,54,0,0
233808,-100,4,3,2,54,0,0
233981,-100,4,3,1,53,0,0
234325,-100,4,3,2,53,0,0
234498,-100,4,3,1,53,0,0
234670,-100,4,3,2,52,0,1
234756,-100,4,3,1,52,0,0
235015,-100,4,3,1,50,0,0
235360,-100,4,3,1,42,0,0
235705,-100,4,3,1,34,0,0
236050,-100,4,3,1,26,0,0
236394,-100,4,3,1,50,0,0
236739,-100,4,3,1,42,0,0
237084,-100,4,3,1,34,0,0
237429,-100,4,3,1,26,0,0
237774,-100,4,3,1,50,0,0
238119,-100,4,3,1,42,0,0
238463,-100,4,3,1,34,0,0
238808,-100,4,3,1,26,0,0
238981,-100,4,3,10,50,0,0

[Colours]
Combo1 : 253,220,151
Combo2 : 81,78,92
Combo3 : 211,157,107
Combo4 : 116,121,160

[HitObjects]
24,268,13981,6,0,L|16:76,1,192,2|0,3:2|0:0,0:0:0:0:
288,268,14670,1,8,3:2:0:0:
144,364,15015,2,0,L|140:268,1,96,2|2,3:2|3:2,0:0:0:0:
236,172,15360,2,0,L|428:164,1,192,2|2,3:3|3:2,0:0:0:0:
156,356,16050,2,0,L|148:164,1,192,10|2,3:2|3:2,0:0:0:0:
420,356,16739,6,0,L|428:164,1,192,2|0,3:2|0:0,0:0:0:0:
156,356,17429,1,10,3:2:0:0:
300,260,17774,2,0,L|204:256,1,96,2|0,3:2|0:0,0:0:0:0:
108,352,18119,2,0,L|100:160,1,192,2|2,3:3|3:2,0:0:0:0:
372,256,18808,2,0,L|380:64,1,192,10|2,3:2|3:2,0:0:0:0:
108,352,19498,6,0,P|80:228|196:140,1,288,2|0,3:3|0:0,0:0:0:0:
292,236,20188,2,0,L|300:44,1,192,10|0,3:2|0:0,0:0:0:0:
28,236,20877,2,0,L|20:44,1,192,2|2,3:3|3:2,0:0:0:0:
164,140,21567,1,10,3:2:0:0:
20,44,21912,1,2,3:2:0:0:
292,332,22256,6,0,P|320:208|204:120,1,288,2|0,3:3|0:0,0:0:0:0:
108,216,22946,2,0,L|100:24,1,192,10|0,3:2|0:0,0:0:0:0:
380,312,23636,2,0,L|388:120,1,192,2|0,3:3|0:0,0:0:0:0:
244,356,24325,1,8,3:2:0:0:
340,352,24498,2,0,P|292:252|220:228,1,192,0|0,0:0|0:0,0:0:0:0:
380,324,25015,6,0,P|452:300|500:200,1,192,2|0,3:2|0:0,0:0:0:0:
228,104,25705,1,8,3:2:0:0:
372,200,26050,2,0,L|376:104,1,96,2|2,3:2|3:2,0:0:0:0:
280,8,26394,2,0,L|88:0,1,192,2|2,3:3|3:2,0:0:0:0:
368,192,27084,2,0,L|376:0,1,192,10|2,3:2|3:2,0:0:0:0:
100,288,27774,6,0,L|92:96,1,192,2|0,3:2|0:0,0:0:0:0:
364,292,28463,1,8,3:2:0:0:
220,196,28808,2,0,L|316:192,1,96,2|0,3:2|0:0,0:0:0:0:
412,288,29153,2,0,L|420:96,1,192,2|2,3:3|3:2,0:0:0:0:
144,384,29843,2,0,L|136:192,1,192,10|2,3:2|3:2,0:0:0:0:
412,288,30532,6,0,P|364:164|228:108,1,288,2|0,3:3|0:0,0:0:0:0:
132,12,31222,2,0,L|324:4,1,192,10|0,3:2|0:0,0:0:0:0:
48,196,31912,1,2,3:3:0:0:
192,292,32256,1,2,3:2:0:0:
48,196,32601,2,0,L|40:4,1,192,10|2,3:2|3:2,0:0:0:0:
316,292,33291,6,0,L|124:284,2,192,2|2|10,3:3|3:2|3:2,0:0:0:0:
172,196,34325,2,0,L|268:192,1,96,2|0,3:2|0:0,0:0:0:0:
364,288,34670,2,0,L|372:96,1,192,2|0,3:3|0:0,0:0:0:0:
96,384,35360,2,0,L|88:192,1,192,8|0,3:2|0:0,0:0:0:0:
364,384,36050,6,0,P|392:260|276:172,1,288,2|0,3:3|0:0,0:0:0:0:
180,268,36739,2,0,L|172:76,1,192,10|0,3:2|0:0,0:0:0:0:
460,364,37429,2,0,L|464:268,1,96,2|0,3:3|0:0,0:0:0:0:
368,172,37774,2,0,L|176:164,2,192,2|10|2,3:2|3:2|3:2,0:0:0:0:
80,364,38808,6,0,P|52:240|168:152,1,288,2|0,3:3|0:0,0:0:0:0:
264,56,39498,2,0,L|72:48,1,192,10|0,3:2|0:0,0:0:0:0:
360,240,40188,2,0,L|264:236,1,96,2|0,3:3|0:0,0:0:0:0:
168,140,40532,2,0,L|360:132,2,192,2|10|2,3:2|3:2|3:2,0:0:0:0:
456,332,41567,6,0,P|408:208|272:152,1,288,2|0,3:3|0:0,0:0:0:0:
176,248,42256,2,0,L|168:56,1,192,10|0,3:2|0:0,0:0:0:0:
264,52,42774,2,0,L|360:48,1,96,0|2,0:0|3:2,0:0:0:0:
72,240,43291,2,0,L|168:236,1,96,0|2,0:0|3:2,0:0:0:0:
264,140,43636,2,0,L|72:132,1,192,10|2,3:2|3:2,0:0:0:0:
360,324,44325,6,0,L|364:228,1,96,2|0,3:3|0:0,0:0:0:0:
268,132,44670,2,0,L|264:36,1,96,2|0,3:2|0:0,0:0:0:0:
360,324,45015,2,0,P|388:200|272:112,1,288,10|0,3:2|0:0,0:0:0:0:
176,108,45705,1,2,3:3:0:0:
464,300,46050,2,0,L|468:204,1,96,2|0,3:2|0:0,0:0:0:0:
372,200,46394,1,10,3:2:0:0:
276,196,46567,2,0,L|468:188,1,192,0|0,0:0|0:0,0:0:0:0:
308,284,47084,6,0,P|172:228|124:104,1,288,2|0,3:3|0:0,0:0:0:0:
220,8,47774,2,0,L|412:0,1,192,10|0,3:2|0:0,0:0:0:0:
124,192,48463,2,0,L|28:188,1,96,2|0,3:3|0:0,0:0:0:0:
124,92,48808,2,0,L|316:84,2,192,2|10|2,3:2|3:2|3:2,0:0:0:0:
412,284,49843,6,0,P|364:160|228:104,1,288,2|0,3:3|0:0,0:0:0:0:
132,200,50532,2,0,L|124:8,1,192,10|0,3:2|0:0,0:0:0:0:
412,296,51222,2,0,L|416:200,1,96,2|0,3:3|0:0,0:0:0:0:
320,104,51567,2,0,L|512:96,2,192,2|10|2,3:2|3:2|3:2,0:0:0:0:
32,296,52601,6,0,P|80:172|216:116,1,288,2|0,3:3|0:0,0:0:0:0:
312,20,53291,2,0,L|120:12,1,192,10|0,3:2|0:0,0:0:0:0:
408,204,53981,2,0,L|216:196,2,192,2|0|8,3:3|0:0|3:2,0:0:0:0:
504,300,54843,2,0,L|512:108,1,192,0|0,0:0|0:0,0:0:0:0:
352,204,55360,6,0,L|256:200,1,96,2|2,3:2|3:2,0:0:0:0:
352,104,55705,2,0,L|160:96,2,192,2|10|2,3:2|3:2|3:2,0:0:0:0:
64,296,56739,2,0,P|4:244|64:172,1,192,2|2,3:3|3:2,0:0:0:0:
160,168,57256,2,0,P|220:116|160:44,1,192,2|2,3:2|3:2,0:0:0:0:
64,40,57774,1,2,3:2:0:0:
352,232,58119,5,6,1:2:0:0:
352,232,58463,1,0,1:3:0:0:
352,232,58808,1,0,1:3:0:0:
352,232,59153,1,0,1:3:0:0:
256,228,59325,1,0,1:3:0:0:
160,224,59498,1,0,1:3:0:0:
160,224,59843,1,0,1:3:0:0:
304,128,60188,1,0,1:3:0:0:
304,128,60532,1,0,1:3:0:0:
16,32,60877,5,0,1:3:0:0:
16,32,61222,2,0,L|208:24,2,192,2|2|2,1:2|1:2|1:2,0:0:0:0:
304,320,62256,2,0,P|364:268|304:196,1,192,2|2,1:2|1:2,0:0:0:0:
208,100,62774,2,0,L|16:92,1,192,2|2,3:2|3:2,0:0:0:0:
112,88,63291,1,2,1:2:0:0:
400,280,63636,5,2,1:2:0:0:
400,280,63981,1,0,1:3:0:0:
400,280,64325,1,2,1:2:0:0:
400,280,64670,1,0,1:3:0:0:
256,184,65015,1,0,1:3:0:0:
256,184,65360,1,0,1:3:0:0:
256,184,65705,1,0,1:3:0:0:
256,184,66050,1,0,1:3:0:0:
352,180,66222,1,0,1:3:0:0:
448,176,66394,5,0,1:3:0:0:
448,176,66739,2,0,L|256:168,2,192,2|2|2,1:2|1:2|1:2,0:0:0:0:
160,368,67774,2,0,P|100:316|160:244,1,192,2|2,1:2|1:2,0:0:0:0:
256,148,68291,2,0,L|448:140,1,192,2|2,3:2|3:2,0:0:0:0:
352,136,68808,1,2,1:2:0:0:
64,328,69153,5,6,2:1:0:0:
232,232,69498,1,2,2:1:0:0:
64,328,69843,1,2,3:1:0:0:
232,232,70188,2,0,L|236:136,1,96,2|0,2:1|1:3,0:0:0:0:
332,232,70532,1,2,2:1:0:0:
164,136,70877,1,2,2:1:0:0:
332,232,71222,1,2,3:1:0:0:
164,136,71567,1,2,2:1:0:0:
452,40,71912,5,2,2:1:0:0:
452,40,72256,2,0,L|260:32,2,192,2|2|2,2:1|2:1|2:1,0:0:0:0:
164,328,73291,2,0,P|104:276|164:204,1,192,2|2,2:1|2:1,0:0:0:0:
260,108,73808,2,0,L|68:100,1,192,2|2,3:2|3:2,0:0:0:0:
164,96,74325,1,2,2:1:0:0:
452,384,74670,5,2,2:1:0:0:
488,296,74843,1,2,3:3:0:0:
452,208,75015,1,2,3:1:0:0:
368,172,75188,1,2,2:3:0:0:
208,268,75360,2,0,L|204:172,1,96,2|2,2:1|3:3,0:0:0:0:
300,168,75705,2,0,L|304:72,1,96,2|2,3:1|3:3,0:0:0:0:
144,360,76050,5,2,3:1:0:0:
60,324,76222,1,2,3:3:0:0:
24,236,76394,1,2,3:1:0:0:
60,148,76567,1,2,3:3:0:0:
220,244,76739,2,0,L|316:240,1,96,2|2,3:1|3:3,0:0:0:0:
220,144,77084,2,0,L|124:140,1,96,2|2,3:1|3:1,0:0:0:0:
284,44,77429,5,2,3:1:0:0:
332,64,77515,1,2,3:3:0:0:
352,108,77601,1,2,3:3:0:0:
332,152,77688,1,2,3:3:0:0:
228,200,77774,2,0,L|226:248,3,48,2|2|2|2,2:1|3:3|3:3|3:3,0:0:0:0:
282,296,78119,6,0,L|284:344,3,48,2|2|2|2,2:1|3:3|3:3|3:3,0:0:0:0:
180,296,78463,1,2,2:1:0:0:
160,252,78550,1,2,3:3:0:0:
180,208,78636,1,2,3:3:0:0:
228,188,78722,1,2,3:3:0:0:
332,236,78808,6,0,P|404:212|452:112,1,192,2|2,3:2|3:2,0:0:0:0:
356,208,79325,2,0,P|284:184|236:84,1,192,2|2,3:2|3:2,0:0:0:0:
332,276,79843,2,0,L|428:272,1,96,2|0,3:2|0:0,0:0:0:0:
172,176,80188,6,0,L|76:172,1,96,6|0,3:3|0:0,0:0:0:0:
236,268,80532,2,0,P|296:216|236:144,1,192,8|0,3:3|0:0,0:0:0:0:
232,240,81050,1,2,3:3:0:0:
392,336,81222,2,0,L|488:332,1,96,8|0,3:3|0:0,0:0:0:0:
252,236,81567,6,0,L|248:140,1,96,2|0,3:3|0:0,0:0:0:0:
408,44,81912,2,0,L|216:36,1,192,8|0,3:3|0:0,0:0:0:0:
312,32,82429,1,2,3:3:0:0:
472,128,82601,2,0,L|476:32,1,96,8|0,3:3|0:0,0:0:0:0:
240,224,82946,6,0,L|236:128,1,96,2|0,3:3|0:0,0:0:0:0:
396,320,83291,2,0,P|456:268|396:196,1,192,8|0,3:3|0:0,0:0:0:0:
300,192,83808,1,2,3:3:0:0:
140,96,83981,2,0,L|44:92,1,96,8|0,3:3|0:0,0:0:0:0:
280,284,84325,6,0,L|284:188,1,96,2|0,3:3|0:0,0:0:0:0:
124,92,84670,2,0,L|316:84,1,192,8|0,3:3|0:0,0:0:0:0:
220,80,85188,1,2,3:3:0:0:
60,176,85360,2,0,L|56:80,1,96,8|0,3:3|0:0,0:0:0:0:
292,272,85705,6,0,L|388:268,1,96,2|0,3:3|0:0,0:0:0:0:
228,172,86050,2,0,P|156:148|108:48,1,192,8|0,3:3|0:0,0:0:0:0:
204,44,86567,1,2,3:3:0:0:
364,140,86739,2,0,L|368:44,1,96,8|0,3:3|0:0,0:0:0:0:
132,236,87084,6,0,L|128:140,1,96,2|0,3:3|0:0,0:0:0:0:
288,332,87429,2,0,P|360:308|408:208,1,192,8|0,3:3|0:0,0:0:0:0:
312,204,87946,1,2,3:3:0:0:
152,108,88119,2,0,L|248:104,1,96,8|0,3:3|0:0,0:0:0:0:
484,200,88463,6,0,L|488:104,1,96,2|0,3:3|0:0,0:0:0:0:
328,8,88808,2,0,L|136:0,1,192,8|0,2:3|2:3,0:0:0:0:
232,0,89325,1,2,3:3:0:0:
392,92,89498,2,0,L|296:88,1,96,8|0,2:3|0:0,0:0:0:0:
60,280,89843,6,0,P|108:180|180:156,1,192,2|8,2:3|2:3,0:0:0:0:
340,252,90360,2,0,P|292:152|220:128,1,192,0|2,2:3|2:3,0:0:0:0:
60,224,90877,2,0,L|56:128,1,96,8|0,2:3|0:0,0:0:0:0:
312,320,91222,6,0,L|408:316,1,96,6|0,2:3|0:0,0:0:0:0:
248,220,91567,2,0,L|440:212,1,192,8|0,3:3|2:3,0:0:0:0:
444,116,92084,1,2,3:3:0:0:
284,20,92256,2,0,L|188:16,1,96,8|0,3:3|0:0,0:0:0:0:
424,204,92601,6,0,L|428:108,1,96,2|0,3:3|0:0,0:0:0:0:
268,300,92946,2,0,P|208:248|268:176,1,192,8|0,3:3|0:0,0:0:0:0:
364,172,93463,1,2,3:3:0:0:
204,76,93636,2,0,L|108:72,1,96,8|0,3:3|0:0,0:0:0:0:
344,264,93981,6,0,L|248:260,1,96,2|0,3:3|0:0,0:0:0:0:
88,356,94325,2,0,P|28:304|88:232,1,192,8|0,2:3|2:3,0:0:0:0:
184,228,94843,1,2,3:3:0:0:
344,132,95015,2,0,L|440:128,1,96,8|0,2:3|0:0,0:0:0:0:
204,320,95360,6,0,P|132:296|84:196,1,192,2|8,2:3|2:3,0:0:0:0:
244,292,95877,2,0,P|316:268|364:168,1,192,0|2,2:3|2:3,0:0:0:0:
204,72,96394,2,0,L|200:168,1,96,8|0,2:3|0:0,0:0:0:0:
456,264,96739,5,2,2:3:0:0:
288,360,97084,1,2,2:3:0:0:
456,264,97429,1,2,3:3:0:0:
312,360,97774,1,2,2:3:0:0:
168,168,98119,1,2,2:3:0:0:
312,264,98463,1,2,2:3:0:0:
192,168,98808,1,2,3:3:0:0:
312,264,99153,1,2,2:3:0:0:
40,360,99498,5,2,2:3:0:0:
4,272,99670,1,2,3:3:0:0:
40,184,99843,1,2,2:3:0:0:
124,148,100015,1,2,2:3:0:0:
220,244,100188,2,0,L|316:240,3,96,2|2|2|2,3:3|2:3|2:3|3:3,0:0:0:0:
476,336,100877,5,2,3:3:0:0:
504,296,100963,1,2,3:3:0:0:
512,248,101050,1,2,3:3:0:0:
504,200,101136,1,2,3:3:0:0:
476,160,101222,1,2,3:3:0:0:
440,132,101308,1,2,3:3:0:0:
392,124,101394,1,2,3:3:0:0:
136,220,101567,2,0,L|40:216,1,96,8|8,3:3|3:3,0:0:0:0:
200,120,101912,1,0,3:3:0:0:
248,118,101998,1,0,3:3:0:0:
296,116,102084,1,4,3:2:0:0:
40,308,102256,6,0,L|32:116,1,192,6|8,2:3|3:3,0:0:0:0:
128,112,102774,1,0,0:0:0:0:
288,208,102946,2,0,P|240:108|168:84,1,192,0|8,2:3|3:3,0:0:0:0:
72,80,103463,1,0,0:0:0:0:
308,272,103636,6,0,L|312:176,1,96,2|0,2:3|0:0,0:0:0:0:
216,368,103981,2,0,L|212:272,1,96,8|0,2:3|0:0,0:0:0:0:
372,176,104325,2,0,P|444:152|492:52,1,192,0|8,2:3|2:3,0:0:0:0:
396,48,104843,1,0,0:0:0:0:
160,240,105015,6,0,P|88:216|40:116,1,192,2|8,2:3|3:3,0:0:0:0:
136,112,105532,1,0,0:0:0:0:
296,208,105705,2,0,L|104:200,1,192,0|8,2:3|3:3,0:0:0:0:
100,104,106222,1,0,0:0:0:0:
336,296,106394,6,0,L|432:292,1,96,2|0,2:3|0:0,0:0:0:0:
336,196,106739,2,0,L|332:100,1,96,8|0,2:3|0:0,0:0:0:0:
172,196,107084,2,0,P|100:172|52:72,1,192,0|8,2:3|2:3,0:0:0:0:
148,68,107601,1,0,0:0:0:0:
384,260,107774,6,0,P|456:236|504:136,1,192,2|8,2:3|3:3,0:0:0:0:
408,132,108291,1,0,0:0:0:0:
248,228,108463,2,0,L|440:220,1,192,0|8,2:3|3:3,0:0:0:0:
444,124,108981,1,0,0:0:0:0:
208,316,109153,6,0,P|136:292|88:192,1,192,2|8,3:3|3:3,0:0:0:0:
248,96,109670,2,0,L|344:92,2,96,0|0|2,2:3|2:3|3:3,0:0:0:0:
408,192,110188,2,0,L|412:96,1,96,8|0,2:3|0:0,0:0:0:0:
176,288,110532,6,0,L|172:192,1,96,2|0,2:3|0:0,0:0:0:0:
268,384,110877,2,0,L|272:288,1,96,8|0,2:3|0:0,0:0:0:0:
112,384,111222,1,0,2:3:0:0:
76,296,111394,1,2,3:3:0:0:
112,208,111567,1,8,3:3:0:0:
196,172,111739,1,0,0:0:0:0:
356,268,111912,6,0,L|260:264,1,96,2|0,2:3|0:0,0:0:0:0:
164,168,112256,2,0,L|260:164,1,96,8|0,2:3|0:0,0:0:0:0:
420,260,112601,1,0,2:3:0:0:
456,172,112774,1,2,3:3:0:0:
420,84,112946,1,8,3:3:0:0:
336,48,113119,1,0,0:0:0:0:
80,240,113291,6,0,P|128:140|200:116,1,192,6|8,2:3|3:3,0:0:0:0:
292,112,113808,1,0,0:0:0:0:
132,304,113981,2,0,P|60:280|12:180,1,192,0|8,2:3|3:3,0:0:0:0:
8,84,114498,1,0,0:0:0:0:
244,276,114670,6,0,L|248:180,1,96,2|0,2:3|0:0,0:0:0:0:
152,176,115015,1,8,2:3:0:0:
312,80,115188,2,0,L|408:76,2,96,2|0|2,3:3|2:3|3:3,0:0:0:0:
152,176,115705,2,0,L|148:80,1,96,8|2,2:3|3:3,0:0:0:0:
384,272,116050,6,0,P|456:248|504:148,1,192,2|8,2:3|3:3,0:0:0:0:
508,52,116567,1,0,0:0:0:0:
348,244,116739,2,0,P|288:192|348:120,1,192,0|8,2:3|3:3,0:0:0:0:
444,116,117256,1,0,0:0:0:0:
208,308,117429,6,0,P|136:284|88:184,1,192,2|8,2:3|2:3,0:0:0:0:
124,96,117946,1,0,0:0:0:0:
208,60,118119,1,0,2:3:0:0:
48,156,118291,2,0,L|24:64,2,96,2|8|0,3:3|2:3|0:0,0:0:0:0:
304,252,118808,5,2,2:3:0:0:
472,348,119153,1,2,3:3:0:0:
304,252,119498,1,2,2:3:0:0:
448,348,119843,1,2,3:3:0:0:
304,156,120188,1,2,2:3:0:0:
160,252,120532,1,2,3:3:0:0:
304,156,120877,1,2,2:3:0:0:
184,252,121222,1,2,3:3:0:0:
456,60,121567,5,2,3:3:0:0:
492,148,121739,1,2,3:3:0:0:
456,236,121912,1,2,2:3:0:0:
372,272,122084,1,2,3:3:0:0:
276,368,122256,2,0,L|272:272,1,96,2|2,2:3|3:3,0:0:0:0:
368,176,122601,2,0,L|372:80,1,96,2|2,2:3|3:3,0:0:0:0:
212,272,122946,6,0,P|140:248|92:148,1,192,2|2,2:3|2:3,0:0:0:0:
188,244,123463,2,0,L|196:52,1,192,2|0,2:3|2:3,0:0:0:0:
292,148,123981,2,0,L|196:144,1,96,0|0,2:3|0:0,0:0:0:0:
36,336,124325,5,4,1:2:0:0:
36,336,124670,1,0,1:3:0:0:
36,336,125015,1,0,1:3:0:0:
36,336,125360,1,0,1:3:0:0:
132,332,125532,1,0,1:3:0:0:
228,328,125705,1,0,1:3:0:0:
228,328,126050,1,0,1:3:0:0:
84,232,126394,1,0,1:3:0:0:
84,232,126739,1,0,1:3:0:0:
492,136,127084,6,0,L|496:40,1,96,6|0,3:3|0:0,0:0:0:0:
336,232,127429,2,0,P|276:180|336:108,1,192,8|0,3:3|0:0,0:0:0:0:
432,104,127946,1,2,3:3:0:0:
272,8,128119,2,0,L|176:4,1,96,8|0,3:3|0:0,0:0:0:0:
412,196,128463,6,0,L|316:192,1,96,2|0,3:3|0:0,0:0:0:0:
156,288,128808,2,0,P|204:188|276:164,1,192,8|0,3:3|0:0,0:0:0:0:
280,68,129325,1,2,3:3:0:0:
120,164,129498,2,0,L|24:160,1,96,8|0,3:3|0:0,0:0:0:0:
260,352,129843,6,0,L|356:348,1,96,2|0,3:3|0:0,0:0:0:0:
196,252,130188,2,0,P|124:228|76:128,1,192,8|0,3:3|0:0,0:0:0:0:
172,124,130705,1,2,3:3:0:0:
332,220,130877,2,0,L|336:124,1,96,8|0,3:3|0:0,0:0:0:0:
100,316,131222,6,0,L|96:220,1,96,2|0,3:3|0:0,0:0:0:0:
256,316,131567,2,0,P|328:292|376:192,1,192,8|0,3:3|0:0,0:0:0:0:
280,188,132084,1,2,3:3:0:0:
120,92,132256,2,0,L|216:88,1,96,8|0,3:3|0:0,0:0:0:0:
452,184,132601,6,0,L|456:88,1,96,2|0,3:3|0:0,0:0:0:0:
296,280,132946,2,0,L|488:272,1,192,8|0,3:3|0:0,0:0:0:0:
392,268,133463,1,2,3:3:0:0:
232,364,133636,2,0,L|228:268,1,96,8|0,3:3|0:0,0:0:0:0:
464,172,133981,6,0,L|368:168,3,96,2|0|8|0,2:3|2:3|2:3|2:3,0:0:0:0:
208,72,134670,2,0,P|148:124|208:196,1,192,0|8,2:3|2:3,0:0:0:0:
304,192,135188,1,0,0:0:0:0:
48,288,135360,6,0,L|144:284,1,96,6|0,2:3|2:3,0:0:0:0:
304,380,135705,2,0,P|364:328|304:256,1,192,8|0,2:3|0:0,0:0:0:0:
208,252,136223,1,2,3:3:0:0:
368,156,136394,2,0,L|464:152,1,96,8|0,3:3|0:0,0:0:0:0:
228,344,136739,6,0,L|224:248,1,96,2|0,3:3|0:0,0:0:0:0:
64,152,137084,2,0,P|112:52|184:28,1,192,8|0,3:3|0:0,0:0:0:0:
280,24,137601,1,2,3:3:0:0:
120,120,137774,2,0,L|116:24,1,96,8|0,3:3|0:0,0:0:0:0:
352,216,138119,6,0,L|356:120,1,96,2|0,3:3|0:0,0:0:0:0:
196,312,138463,2,0,P|136:260|196:188,1,192,8|0,2:3|2:3,0:0:0:0:
292,184,138981,1,2,3:3:0:0:
452,88,139153,2,0,L|356:84,1,96,8|0,2:3|0:0,0:0:0:0:
120,276,139498,6,0,L|312:268,1,192,2|8,2:3|2:3,0:0:0:0:
152,364,140015,2,0,P|80:340|32:240,1,192,0|2,2:3|2:3,0:0:0:0:
192,144,140532,2,0,L|288:140,1,96,8|0,2:3|0:0,0:0:0:0:
32,44,140877,5,2,3:3:0:0:
32,44,141222,1,0,0:0:0:0:
128,40,141394,1,2,3:2:0:0:
32,44,141567,1,8,3:2:0:0:
32,44,141912,1,2,3:2:0:0:
320,140,142256,5,2,3:2:0:0:
320,140,142601,1,0,0:0:0:0:
224,144,142774,1,2,3:2:0:0:
128,148,142946,1,8,3:2:0:0:
128,148,143291,1,2,3:2:0:0:
416,244,143636,5,2,3:2:0:0:
248,340,143981,1,0,0:0:0:0:
332,344,144153,1,2,3:2:0:0:
248,340,144325,1,8,3:2:0:0:
80,244,144670,1,2,3:2:0:0:
368,148,145015,5,2,3:2:0:0:
224,52,145360,1,0,0:0:0:0:
140,48,145532,1,2,3:2:0:0:
224,52,145705,1,8,3:2:0:0:
368,148,146050,1,2,3:2:0:0:
284,152,146222,1,0,0:0:0:0:
28,248,146394,5,4,3:1:0:0:
368,344,147429,2,0,L|372:248,1,96,2|2,3:2|3:2,0:0:0:0:
276,152,147774,2,0,L|84:144,1,192,2|2,3:3|3:2,0:0:0:0:
356,240,148463,1,10,3:2:0:0:
212,336,148808,2,0,P|96:248|212:88,1,384,2|0,3:2|0:0,0:0:0:0:
356,184,149843,1,8,3:2:0:0:
84,280,150188,6,0,L|80:184,1,96,2|0,3:2|0:0,0:0:0:0:
176,88,150532,2,0,L|368:80,1,192,2|2,3:3|3:2,0:0:0:0:
224,176,151222,2,0,L|32:168,1,192,10|2,3:2|3:2,0:0:0:0:
308,360,151912,6,0,P|336:236|220:148,1,288,2|0,3:3|0:0,0:0:0:0:
124,244,152601,2,0,L|116:52,1,192,10|0,3:2|0:0,0:0:0:0:
392,244,153291,2,0,L|400:52,1,192,2|2,3:3|3:2,0:0:0:0:
256,148,153981,1,10,3:2:0:0:
400,52,154325,1,2,3:2:0:0:
128,340,154670,6,0,P|100:216|216:128,1,288,2|0,3:3|0:0,0:0:0:0:
312,32,155360,2,0,L|120:24,1,192,10|0,3:2|0:0,0:0:0:0:
396,312,156050,2,0,P|200:44|116:312,1,768,2|2,3:3|3:2,0:0:0:0:
456,212,158463,6,0,L|360:208,1,96,2|2,3:2|3:2,0:0:0:0:
264,112,158808,2,0,L|456:104,1,192,2|2,3:3|3:2,0:0:0:0:
184,200,159498,1,10,3:2:0:0:
328,296,159843,2,0,P|444:208|328:48,1,384,2|0,3:2|0:0,0:0:0:0:
184,144,160877,1,8,3:2:0:0:
456,336,161222,6,0,L|460:240,1,96,2|0,3:2|0:0,0:0:0:0:
364,144,161567,2,0,L|172:136,1,192,2|2,3:2|3:2,0:0:0:0:
316,224,162256,2,0,L|508:216,1,192,10|2,3:2|3:2,0:0:0:0:
232,24,162946,6,0,P|96:80|48:204,1,288,2|0,3:3|0:0,0:0:0:0:
144,300,163636,2,0,L|336:292,1,192,10|0,3:2|0:0,0:0:0:0:
64,196,164325,2,0,L|56:4,1,192,2|2,3:3|3:2,0:0:0:0:
200,100,165015,1,10,3:2:0:0:
56,4,165360,1,2,3:2:0:0:
328,196,165705,6,0,P|400:172|448:72,2,192,2|2|10,3:2|3:2|3:2,0:0:0:0:
136,100,166739,1,2,3:2:0:0:
408,292,167084,2,0,B|416:100|416:100|424:292,1,384,2|0,3:3|3:3,0:0:0:0:
136,100,168463,6,0,P|64:124|16:224,1,192,6|0,3:3|0:0,0:0:0:0:
112,228,168981,1,0,0:0:0:0:
272,132,169153,2,0,L|280:324,1,192,2|0,3:2|0:0,0:0:0:0:
184,320,169670,1,0,0:0:0:0:
344,224,169843,6,0,L|440:220,1,96,2|0,3:3|0:0,0:0:0:0:
344,124,170188,2,0,L|248:120,1,96,2|0,3:2|0:0,0:0:0:0:
408,24,170532,2,0,P|468:76|408:148,1,192,2|2,3:2|3:2,0:0:0:0:
312,152,171050,1,0,0:0:0:0:
152,56,171222,6,0,P|200:156|272:180,1,192,2|0,3:3|0:0,0:0:0:0:
368,184,171739,1,0,0:0:0:0:
208,88,171912,2,0,P|148:140|208:212,1,192,2|0,3:2|0:0,0:0:0:0:
304,216,172429,1,0,0:0:0:0:
144,312,172601,6,0,L|140:216,1,96,2|0,3:3|0:0,0:0:0:0:
236,120,172946,2,0,L|140:116,1,96,2|0,3:2|0:0,0:0:0:0:
300,20,173291,2,0,P|372:44|420:144,1,192,2|2,3:2|3:2,0:0:0:0:
324,148,173808,1,0,0:0:0:0:
164,244,173981,6,0,L|356:252,1,192,2|0,3:3|0:0,0:0:0:0:
260,256,174498,1,0,0:0:0:0:
100,352,174670,2,0,L|92:160,1,192,2|0,3:2|0:0,0:0:0:0:
380,352,175360,6,0,L|388:160,1,192,2|0,3:2|0:0,0:0:0:0:
228,256,175877,1,2,3:2:0:0:
324,252,176050,2,0,L|328:156,1,96,2|0,3:2|0:0,0:0:0:0:
232,152,176394,2,0,L|228:56,1,96,2|0,3:2|0:0,0:0:0:0:
68,344,176739,6,0,L|64:248,1,96,2|0,3:3|0:0,0:0:0:0:
160,152,177084,2,0,L|256:148,1,96,2|0,3:2|0:0,0:0:0:0:
96,52,177429,2,0,P|36:104|96:176,1,192,2|2,3:2|3:2,0:0:0:0:
384,368,178119,6,0,P|444:316|384:244,1,192,2|2,3:3|3:2,0:0:0:0:
288,148,178636,2,0,L|480:140,1,192,2|2,3:2|3:2,0:0:0:0:
384,136,179153,1,2,3:2:0:0:
96,328,179498,6,0,L|288:320,1,192,6|0,3:3|0:0,0:0:0:0:
192,316,180015,1,0,0:0:0:0:
32,220,180188,2,0,P|80:120|152:96,1,192,2|0,3:2|0:0,0:0:0:0:
248,92,180705,1,0,0:0:0:0:
408,188,180877,6,0,L|312:184,1,96,2|0,3:3|0:0,0:0:0:0:
216,280,181222,2,0,L|312:276,1,96,2|0,3:2|0:0,0:0:0:0:
472,372,181567,2,0,P|424:272|352:248,1,192,2|2,3:2|3:2,0:0:0:0:
256,244,182084,1,0,0:0:0:0:
416,340,182256,6,0,P|476:288|416:216,1,192,2|0,3:3|0:0,0:0:0:0:
320,212,182774,1,0,0:0:0:0:
160,116,182946,2,0,L|352:108,1,192,2|0,3:2|0:0,0:0:0:0:
256,104,183463,1,0,0:0:0:0:
96,200,183636,6,0,L|192:196,1,96,2|0,3:3|0:0,0:0:0:0:
288,292,183981,2,0,L|192:288,1,96,2|0,3:2|0:0,0:0:0:0:
32,384,184325,2,0,L|24:192,1,192,2|2,3:2|3:2,0:0:0:0:
120,188,184843,1,0,0:0:0:0:
280,284,185015,6,0,L|304:192,3,96,2|0|0|0,3:3|0:0|0:0|0:0,0:0:0:0:
464,384,185705,2,0,L|488:292,3,96,2|0|0|0,3:2|0:0|0:0|0:0,0:0:0:0:
392,196,186394,6,0,L|368:104,3,96,2|0|0|0,3:2|0:0|0:0|0:0,0:0:0:0:
272,296,187084,2,0,L|248:204,3,96,0|0|0|0,0:0|0:0|0:0|0:0,0:0:0:0:
408,108,187774,6,0,L|312:104,1,96,2|0,3:2|0:0,0:0:0:0:
216,200,188119,2,0,L|312:196,1,96,2|0,3:2|0:0,0:0:0:0:
472,292,188463,2,0,L|480:100,1,192,2|2,3:2|3:2,0:0:0:0:
384,96,188981,1,0,0:0:0:0:
224,192,189153,6,0,P|164:140|224:68,1,192,2|2,3:2|3:2,0:0:0:0:
320,260,189670,2,0,P|380:208|320:136,1,192,2|2,3:2|3:2,0:0:0:0:
224,232,190188,2,0,L|128:236,1,96,2|0,3:2|0:0,0:0:0:0:
384,332,190532,6,0,L|480:328,1,96,6|0,3:3|0:0,0:0:0:0:
312,232,190877,2,0,P|240:208|192:108,1,192,8|0,3:3|0:0,0:0:0:0:
188,12,191394,1,2,3:3:0:0:
348,204,191567,2,0,L|352:108,1,96,8|0,3:3|0:0,0:0:0:0:
116,300,191912,6,0,L|112:204,1,96,2|0,3:3|0:0,0:0:0:0:
272,300,192256,2,0,P|332:248|272:176,1,192,8|0,3:3|0:0,0:0:0:0:
176,172,192774,1,2,3:3:0:0:
16,76,192946,2,0,L|112:72,1,96,8|0,3:3|0:0,0:0:0:0:
348,264,193291,6,0,L|444:260,1,96,2|0,3:3|0:0,0:0:0:0:
284,356,193636,2,0,P|224:304|284:232,1,192,8|0,3:3|0:0,0:0:0:0:
288,136,194153,1,2,3:3:0:0:
128,328,194325,2,0,L|124:232,1,96,8|0,3:3|0:0,0:0:0:0:
360,136,194670,6,0,L|364:40,1,96,2|0,3:3|0:0,0:0:0:0:
204,136,195015,2,0,P|252:36|324:12,1,192,8|0,3:3|0:0,0:0:0:0:
420,8,195532,1,2,3:3:0:0:
260,104,195705,2,0,L|164:100,1,96,8|0,3:3|0:0,0:0:0:0:
400,196,196050,6,0,L|304:192,1,96,2|0,3:3|0:0,0:0:0:0:
144,288,196394,2,0,P|72:264|24:164,1,192,8|0,3:3|0:0,0:0:0:0:
120,160,196912,1,2,3:3:0:0:
280,256,197084,2,0,L|284:160,1,96,8|0,3:3|0:0,0:0:0:0:
48,352,197429,6,0,L|44:256,1,96,2|0,3:3|0:0,0:0:0:0:
204,352,197774,2,0,P|276:328|324:228,1,192,8|0,3:3|0:0,0:0:0:0:
328,132,198291,1,2,3:3:0:0:
168,36,198463,2,0,L|264:32,1,96,8|0,3:3|0:0,0:0:0:0:
28,128,198808,6,0,L|24:32,1,96,2|0,3:3|0:0,0:0:0:0:
184,224,199153,2,0,L|376:216,1,192,8|0,2:3|2:3,0:0:0:0:
280,212,199670,1,2,3:3:0:0:
120,116,199843,2,0,L|216:112,1,96,8|0,2:3|0:0,0:0:0:0:
452,304,200188,6,0,P|404:204|332:180,1,192,2|8,2:3|2:3,0:0:0:0:
172,276,200705,2,0,L|364:284,1,192,0|2,2:3|2:3,0:0:0:0:
204,380,201222,2,0,L|108:376,1,96,8|0,2:3|0:0,0:0:0:0:
364,280,201567,6,0,L|368:184,1,96,6|0,2:3|0:0,0:0:0:0:
208,88,201912,2,0,L|200:280,1,192,8|0,3:3|2:3,0:0:0:0:
296,276,202429,1,2,3:3:0:0:
136,372,202601,2,0,L|132:276,1,96,8|0,3:3|0:0,0:0:0:0:
368,180,202946,6,0,L|464:176,1,96,2|0,2:3|0:0,0:0:0:0:
304,272,203291,1,8,2:3:0:0:
400,268,203463,2,0,P|460:216|400:144,1,192,2|2,2:3|2:3,0:0:0:0:
240,48,203981,2,0,L|144:44,1,96,8|2,2:3|3:3,0:0:0:0:
380,236,204325,6,0,L|284:232,1,96,2|0,2:3|0:0,0:0:0:0:
124,328,204670,1,8,2:3:0:0:
28,324,204843,2,0,P|76:224|148:200,1,192,0|2,2:3|2:3,0:0:0:0:
308,296,205360,2,0,L|312:200,1,96,8|0,2:3|0:0,0:0:0:0:
76,104,205705,6,0,L|72:8,1,96,2|0,2:3|0:0,0:0:0:0:
232,200,206050,1,8,2:3:0:0:
328,196,206222,2,0,L|136:188,1,192,0|2,2:3|2:3,0:0:0:0:
296,92,206739,2,0,L|392:88,1,96,8|0,2:3|0:0,0:0:0:0:
136,280,207084,6,0,L|40:276,1,96,2|0,3:3|0:0,0:0:0:0:
200,180,207429,1,2,3:3:0:0:
360,372,207774,2,0,L|364:276,1,96,2|0,3:3|0:0,0:0:0:0:
204,180,208119,1,2,3:3:0:0:
364,372,208463,6,0,L|368:276,1,96,2|0,3:3|0:0,0:0:0:0:
208,180,208808,1,2,3:3:0:0:
368,372,209153,2,0,L|464:368,1,96,2|0,3:3|0:0,0:0:0:0:
304,272,209498,2,0,L|208:268,1,96,2|0,3:3|0:0,0:0:0:0:
368,372,209843,5,2,3:3:0:0:
452,336,210015,1,2,3:3:0:0:
488,248,210188,1,2,2:3:0:0:
452,160,210360,1,2,3:3:0:0:
292,64,210532,2,0,L|196:60,1,96,2|2,2:3|3:3,0:0:0:0:
292,156,210877,2,0,L|388:152,1,96,2|2,2:3|3:3,0:0:0:0:
228,248,211222,6,0,L|226:200,3,48,2|2|2|2,2:3|3:3|3:3|3:3,0:0:0:0:
330,248,211567,1,2,2:3:0:0:
378,228,211653,1,2,3:3:0:0:
398,184,211739,1,2,2:3:0:0:
378,140,211825,1,2,3:3:0:0:
330,120,211912,5,0,3:3:0:0:
282,100,211998,1,0,0:0:0:0:
262,56,212084,1,0,2:3:0:0:
282,12,212170,1,0,0:0:0:0:
386,60,212256,2,0,L|388:12,3,48,0|0|0|0,2:3|0:0|0:0|0:0,0:0:0:0:
496,60,212601,5,4,1:2:0:0:
496,60,212946,1,0,1:3:0:0:
496,60,213291,1,0,1:3:0:0:
496,60,213636,1,0,1:3:0:0:
400,64,213808,1,0,1:3:0:0:
304,68,213981,1,0,1:3:0:0:
304,68,214325,1,0,1:3:0:0:
448,164,214670,1,0,1:3:0:0:
448,164,215015,1,0,1:3:0:0:
40,356,215360,6,0,L|136:352,1,96,6|0,3:3|0:0,0:0:0:0:
296,256,215705,2,0,P|248:156|176:132,1,192,8|0,3:3|0:0,0:0:0:0:
80,128,216222,1,2,3:3:0:0:
240,224,216394,2,0,L|244:128,1,96,8|0,3:3|0:0,0:0:0:0:
480,320,216739,6,0,L|484:224,1,96,2|0,3:3|0:0,0:0:0:0:
324,320,217084,2,0,P|252:296|204:196,1,192,8|0,3:3|0:0,0:0:0:0:
300,192,217601,1,2,3:3:0:0:
460,96,217774,2,0,L|364:92,1,96,8|0,3:3|0:0,0:0:0:0:
128,284,218119,6,0,L|32:280,1,96,2|0,3:3|0:0,0:0:0:0:
192,184,218463,2,0,P|252:132|192:60,1,192,8|0,3:3|0:0,0:0:0:0:
188,156,218981,1,2,3:3:0:0:
348,252,219153,2,0,L|444:256,1,96,8|0,3:3|0:0,0:0:0:0:
208,352,219498,6,0,L|204:256,1,96,2|0,3:3|0:0,0:0:0:0:
44,160,219843,2,0,P|92:60|164:36,1,192,8|0,3:3|0:0,0:0:0:0:
260,32,220360,1,2,3:3:0:0:
420,128,220532,2,0,L|424:32,1,96,8|0,3:3|0:0,0:0:0:0:
188,224,220877,6,0,L|184:128,1,96,2|0,3:3|0:0,0:0:0:0:
344,320,221222,2,0,P|416:296|464:196,1,192,8|0,3:3|0:0,0:0:0:0:
468,100,221739,1,2,3:3:0:0:
308,292,221912,2,0,L|304:196,1,96,8|0,3:3|0:0,0:0:0:0:
68,100,222256,6,0,L|164:96,3,96,2|0|8|0,2:3|2:3|2:3|2:3,0:0:0:0:
324,192,222946,2,0,P|384:244|324:316,1,192,0|8,2:3|2:3,0:0:0:0:
228,312,223463,1,0,0:0:0:0:
484,216,223636,6,0,L|388:212,1,96,6|0,2:3|2:3,0:0:0:0:
228,116,223981,2,0,L|420:108,1,192,8|0,2:3|0:0,0:0:0:0:
324,104,224498,1,2,3:3:0:0:
164,200,224670,2,0,L|160:104,1,96,8|0,3:3|0:0,0:0:0:0:
396,296,225015,6,0,L|400:200,1,96,2|0,3:3|0:0,0:0:0:0:
240,296,225360,2,0,P|180:244|240:172,1,192,8|0,3:3|0:0,0:0:0:0:
336,164,225877,1,2,3:3:0:0:
176,68,226050,2,0,L|80:64,1,96,8|0,3:3|0:0,0:0:0:0:
316,256,226394,6,0,L|412:252,1,96,2|0,3:3|0:0,0:0:0:0:
252,156,226739,2,0,L|444:148,1,192,8|0,2:3|2:3,0:0:0:0:
348,144,227256,1,2,3:3:0:0:
188,240,227429,2,0,L|184:144,1,96,8|0,2:3|0:0,0:0:0:0:
420,336,227774,6,0,L|228:328,1,192,2|8,2:3|2:3,0:0:0:0:
388,232,228291,2,0,P|448:180|388:108,1,192,0|2,2:3|2:3,0:0:0:0:
228,12,228808,2,0,L|224:108,1,96,8|0,2:3|0:0,0:0:0:0:
480,204,229153,5,2,3:3:0:0:
480,204,229498,1,0,0:0:0:0:
384,208,229670,1,2,3:2:0:0:
480,204,229843,1,8,3:2:0:0:
480,204,230188,1,2,3:2:0:0:
192,300,230532,5,2,3:2:0:0:
192,300,230877,1,0,0:0:0:0:
288,304,231050,1,2,3:2:0:0:
384,308,231222,1,8,3:2:0:0:
384,308,231567,1,2,3:2:0:0:
96,212,231912,5,2,3:2:0:0:
264,116,232256,1,0,0:0:0:0:
180,112,232429,1,2,3:2:0:0:
264,116,232601,1,8,3:2:0:0:
432,20,232946,1,2,3:2:0:0:
144,212,233291,5,2,3:2:0:0:
312,116,233636,1,0,0:0:0:0:
396,112,233808,1,2,3:2:0:0:
312,116,233981,1,8,3:2:0:0:
144,20,234325,1,2,3:2:0:0:
228,16,234498,1,0,0:0:0:0:
484,112,234670,5,4,3:1:0:0:
256,192,235015,12,0,238981,3:3:0:0:
