osu file format v14

[General]
AudioFilename: audio.mp3
AudioLeadIn: 0
PreviewTime: 54748
Countdown: 0
SampleSet: Soft
StackLeniency: 0.7
Mode: 0
LetterboxInBreaks: 0
WidescreenStoryboard: 1

[Editor]
Bookmarks: 11386,33454,55523,77592,99661,121730,143799,165868
DistanceSpacing: 0.3
BeatDivisor: 4
GridSize: 32
TimelineZoom: 1.9

[Metadata]
Title:Give You Up
TitleUnicode:Give You Up
Artist:Koven
ArtistUnicode:Koven
Creator:Mir
Version:Normal
Source:
Tags:electronic instrumental english vocal female drum and bass dnb monstercat instinct butterfly effect
BeatmapID:3402553
BeatmapSetID:1666345

[Difficulty]
HPDrainRate:2
CircleSize:3.5
OverallDifficulty:3
ApproachRate:5.5
SliderMultiplier:1.2
SliderTickRate:1

[Events]
//Background and Video events
0,0,"sitting.jpg",0,0
//Break Periods
2,99861,117847
//Storyboard Layer 0 (Background)
//Storyboard Layer 1 (Fail)
//Storyboard Layer 2 (Pass)
//Storyboard Layer 3 (Foreground)
//Storyboard Layer 4 (Overlay)
//Storyboard Sound Samples

[TimingPoints]
11386,344.827586206897,4,2,0,40,1,0
11386,-142.857142857143,4,2,0,40,0,0
52765,-142.857142857143,4,2,0,50,0,0
54144,-142.857142857143,4,2,0,60,0,0
55523,-100,4,2,0,72,0,0
77592,-111.111111111111,4,2,0,72,0,0
110696,-111.111111111111,4,2,0,30,0,0
117765,-111.111111111111,4,2,0,40,0,0
118972,-125,4,2,0,40,0,0
119661,-125,4,2,0,50,0,0
121730,-100,4,2,0,72,0,0
142420,-111.111111111111,4,2,0,72,0,0

[Colours]
Combo1 : 163,237,243
Combo2 : 218,218,218
Combo3 : 129,220,145
Combo4 : 223,223,223

[HitObjects]
49,367,11386,5,2,0:0:0:0:
49,367,12765,2,0,P|56:320|62:274,1,83.9999974365235,2|2,0:0|0:0,0:0:0:0:
166,149,14144,5,2,0:0:0:0:
166,149,15523,2,0,P|173:195|179:241,1,83.9999974365235,2|2,0:0|0:0,0:0:0:0:
283,382,16903,5,2,0:0:0:0:
283,382,18282,2,0,P|290:335|296:289,2,83.9999974365235,2|2|0,0:0|0:0|0:0,0:0:0:0:
446,344,19661,1,2,0:0:0:0:
453,336,22420,5,2,0:0:0:0:
453,336,23799,2,0,P|406:328|360:322,1,83.9999974365235,2|2,0:0|0:0,0:0:0:0:
176,272,25179,5,2,0:0:0:0:
176,272,26558,2,0,P|222:264|268:258,1,83.9999974365235,2|2,0:0|0:0,0:0:0:0:
444,185,27937,5,2,0:0:0:0:
444,185,29316,2,0,P|397:177|351:171,1,83.9999974365235,2|2,0:0|0:0,0:0:0:0:
191,88,30696,5,2,0:0:0:0:
191,88,32248,2,0,P|258:77|326:68,2,125.999996154785
181,106,33454,5,2,3:2:0:0:
16,73,34144,1,0,3:2:0:0:
72,231,34834,1,0,3:2:0:0:
76,314,35179,2,0,P|12:339|-16:358,2,83.9999974365235,2|2|2,0:2|3:2|0:2,0:0:0:0:
125,382,36213,6,0,P|168:356|173:317,1,83.9999974365235,2|0,3:2|0:2,0:2:0:0:
145,246,36903,2,0,P|138:199|132:152,1,83.9999974365235,2|0,3:2|0:2,0:2:0:0:
140,79,37592,2,0,P|173:59|254:142,1,167.999994873047,2|2,3:2|3:2,0:2:0:0:
306,291,38972,2,0,P|382:307|422:239,1,167.999994873047,2|2,3:2|3:2,0:2:0:0:
363,81,40351,1,2,3:2:0:0:
426,26,40696,2,0,L|508:4,2,83.9999974365235,2|2|2,0:2|3:2|3:2,0:0:0:0:
363,81,41730,6,0,L|281:59,1,83.9999974365235,2|0,3:2|0:2,0:2:0:0:
214,9,42420,2,0,L|132:31,1,83.9999974365235,2|0,3:2|0:2,0:2:0:0:
51,53,43110,2,0,P|71:106|96:224,1,167.999994873047,2|2,3:2|3:2,0:2:0:0:
170,364,44489,2,0,P|186:281|213:202,1,167.999994873047,4|0,3:3|3:2,0:2:0:0:
369,138,45868,1,2,3:2:0:0:
433,191,46213,2,0,P|474:168|510:144,2,83.9999974365235,2|0|2,3:2|3:2|3:2,0:2:0:0:
470,266,47248,6,0,P|463:323|435:337,1,83.9999974365235,2|0,3:2|3:2,0:2:0:0:
373,379,47937,2,0,P|326:348|291:342,1,83.9999974365235,2|0,0:2|3:2,0:2:0:0:
219,369,48627,2,0,P|174:339|165:267,1,125.999996154785,2|2,3:2|0:2,0:2:0:0:
193,241,49317,2,0,P|210:201|232:108,1,125.999996154785,2|0,3:2|0:2,0:2:0:0:
225,79,50006,6,0,B|119:75|171:147|53:127,1,167.999994873047,2|2,3:2|3:2,0:2:0:0:
15,66,51041,1,2,3:2:0:0:
71,4,51386,1,2,3:2:0:0:
134,61,51730,2,0,P|145:96|154:156,2,83.9999974365235,2|2|2,3:2|0:2|3:2,0:2:0:0:
204,14,52765,5,0,3:2:0:0:
252,82,53110,1,2,3:2:0:0:
323,37,53454,1,0,0:2:0:0:
389,88,53799,1,2,3:2:0:0:
453,33,54144,1,4,3:3:0:0:
492,196,54834,5,2,0:2:0:0:
492,196,55179,1,0,0:0:0:0:
492,196,55523,2,0,P|418:214|361:231,1,120,4|8,1:2|0:2,0:2:0:0:
340,268,56041,1,0,3:2:0:0:
340,268,56213,2,0,L|313:346,2,60,0|0|8,3:2|1:2|0:2,3:2:0:0:
292,170,56903,5,2,1:2:0:0:
198,224,57248,2,0,B|142:231|156:278|68:265,1,120,10|0,0:2|3:2,0:2:0:0:
50,229,57765,1,0,1:2:0:0:
50,229,57937,2,0,P|65:165|79:98,1,120,8|2,3:2|1:2,3:2:0:0:
165,49,58627,1,8,0:2:0:0:
270,74,58972,2,0,P|278:115|288:155,2,60,0|0|8,3:2|1:2|0:2,3:2:0:0:
355,8,59661,1,2,1:2:0:0:
427,87,60006,2,0,P|468:104|524:132,2,90,10|0|0,0:2|1:2|1:2,0:2:0:0:
395,131,60696,1,8,0:2:0:0:
326,214,61041,6,0,P|346:275|366:332,1,120,2|8,1:2|0:2,0:2:0:0:
401,367,61558,1,0,3:2:0:0:
401,367,61730,2,0,P|448:348|481:338,2,60,0|0|8,3:2|1:2|0:2,3:2:0:0:
292,363,62420,1,2,1:2:0:0:
183,363,62765,2,0,P|174:315|155:232,1,120,10|2,0:2|0:2,0:2:0:0:
129,200,63282,1,0,1:2:0:0:
129,200,63454,2,0,P|96:187|67:180,1,60,10|0,0:2|0:2,0:2:0:0:
48,132,63799,5,2,1:2:0:0:
9,232,64144,1,10,0:2:0:0:
81,312,64489,1,2,0:2:0:0:
181,273,64834,1,10,0:2:0:0:
225,174,65179,2,0,P|290:155|336:146,2,90,2|0|0,1:2|3:2|3:2,0:2:0:0:
184,138,65868,2,0,P|201:98|208:66,1,60,0|0,0:0|1:2,0:0:0:0:
209,28,66213,1,8,0:2:0:0:
316,20,66558,6,0,P|367:42|439:75,1,120,2|8,1:2|0:2,0:2:0:0:
463,107,67075,1,0,3:2:0:0:
463,107,67248,2,0,P|479:74|495:44,2,60,0|0|8,3:2|1:2|0:2,0:2:0:0:
482,213,67937,1,2,1:2:0:0:
504,324,68282,2,0,P|470:351|396:314,1,120,10|0,0:2|3:2,0:2:0:0:
379,279,68799,1,0,1:2:0:0:
379,279,68972,1,8,3:2:0:0:
298,206,69317,6,0,P|234:222|172:240,1,120,2|8,1:2|0:2,0:2:0:0:
144,275,69834,1,0,3:2:0:0:
144,275,70006,2,0,P|137:315|132:342,2,60,0|0|8,3:2|1:2|0:2,0:0:0:0:
52,217,70696,1,2,1:2:0:0:
66,109,71041,2,0,P|43:39|32:3,2,90,10|0|0,0:2|1:2|1:2,0:2:0:0:
105,145,71730,1,8,3:2:0:0:
164,54,72075,5,2,1:2:0:0:
261,100,72420,2,0,L|403:123,1,120,8|0,0:2|3:2,0:0:0:0:
423,87,72937,1,0,3:2:0:0:
423,87,73110,1,8,0:2:0:0:
451,190,73454,1,2,1:2:0:0:
344,209,73799,2,0,L|202:232,1,120,10|0,0:2|0:2,0:2:0:0:
187,197,74317,1,0,1:2:0:0:
187,197,74489,1,8,3:2:0:0:
85,159,74834,6,0,P|76:238|64:300,1,120,2|8,1:2|0:2,0:2:0:0:
158,362,75523,1,0,3:2:0:0:
158,362,75696,1,0,1:2:0:0:
158,362,75868,2,0,P|214:346|285:330,1,120,8|2,0:2|1:2,0:0:0:0:
380,372,76558,1,8,0:2:0:0:
380,372,76730,1,2,1:2:0:0:
465,305,77075,1,0,3:2:0:0:
465,305,77248,1,0,1:2:0:0:
416,221,77592,6,0,P|406:161|391:90,2,107.999996704102,6|8|0,1:2|0:2|3:2,0:2:0:0:
371,239,78454,1,0,1:2:0:0:
371,239,78627,1,8,0:2:0:0:
291,183,78972,1,2,1:2:0:0:
196,206,79317,6,0,P|110:225|76:235,1,107.999996704102,10|0,0:2|3:2,0:2:0:0:
43,217,79834,1,0,1:2:0:0:
43,217,80006,2,0,P|27:182|0:110,1,107.999996704102,8|2,3:2|1:2,0:0:0:0:
55,35,80696,2,0,P|120:35|151:82,1,107.999996704102,8|0,3:2|3:2,3:2:0:0:
166,108,81213,1,0,1:2:0:0:
166,108,81386,1,8,3:2:0:0:
249,156,81730,1,0,1:2:0:0:
336,114,82075,2,0,P|350:64|370:21,2,80.9999975280762,10|2|2,3:2|1:2|1:2,0:2:0:0:
360,155,82765,1,8,3:2:0:0:
264,170,83110,6,0,P|256:224|246:285,1,107.999996704102,2|8,1:2|0:2,0:2:0:0:
298,359,83799,1,0,3:2:0:0:
394,346,84144,1,8,0:2:0:0:
410,250,84489,2,0,P|401:196|393:143,1,107.999996704102,2|10,1:2|0:2,0:0:0:0:
475,90,85179,2,0,P|489:59|427:15,1,107.999996704102,0|8,3:2|3:2,0:0:0:0:
401,36,85696,1,0,3:2:0:0:
401,36,85868,6,0,P|336:47|280:59,1,107.999996704102,2|8,1:2|0:2,0:2:0:0:
233,131,86558,2,0,P|202:124|171:119,2,53.9999983520508,0|0|8,3:2|1:2|3:2,0:2:0:0:
296,205,87248,1,2,1:2:0:0:
367,270,87592,2,0,P|433:293|461:306,2,80.9999975280762,8|2|2,3:2|1:2|1:2,3:2:0:0:
329,300,88282,1,8,3:2:0:0:
243,346,88627,6,0,P|161:363|132:371,2,107.999996704102,2|8|0,1:2|0:2|3:2,0:2:0:0:
244,301,89489,1,0,1:2:0:0:
244,301,89661,1,8,0:2:0:0:
152,268,90006,1,2,1:2:0:0:
217,196,90351,2,0,P|230:142|246:75,1,107.999996704102,10|0,0:2|3:2,0:2:0:0:
224,45,90868,1,0,1:2:0:0:
224,45,91041,2,0,P|179:35|110:20,1,107.999996704102,8|2,0:2|1:2,0:0:0:0:
22,35,91730,6,0,P|34:87|47:140,1,107.999996704102,8|0,0:2|3:2,0:0:0:0:
33,187,92248,1,0,1:2:0:0:
33,187,92420,1,8,0:2:0:0:
114,240,92765,1,2,1:2:0:0:
39,301,93110,2,0,P|34:329|14:392,2,80.9999975280762,8|2|2,3:2|1:2|1:2,0:2:0:0:
82,321,93799,1,8,3:2:0:0:
162,376,94144,6,0,P|228:351|273:345,1,107.999996704102,2|8,1:2|0:2,0:2:0:0:
358,372,94834,1,0,3:2:0:0:
425,301,95179,1,8,0:2:0:0:
366,223,95523,2,0,P|349:185|330:110,1,107.999996704102,2|10,1:2|0:2,0:2:0:0:
273,42,96213,2,0,P|238:32|200:21,2,53.9999983520508,0|0|8,3:2|1:2|3:2,0:2:0:0:
368,23,96903,6,0,B|426:43|401:56|467:83,1,107.999996704102,0|8,1:2|0:2,0:2:0:0:
505,164,97592,2,0,P|489:208|475:280,1,107.999996704102,0|8,3:2|0:2,0:2:0:0:
469,365,98282,2,0,P|440:350|417:340,1,53.9999983520508,0|0,1:2|0:2,0:0:0:0:
327,354,98799,1,0,1:2:0:0:
327,354,98972,1,8,0:1:0:0:
257,172,99661,5,4,1:3:0:0:
197,369,118972,6,0,P|202:321|209:273,1,96,0|0,3:2|3:2,3:2:0:0:
290,244,119661,2,0,P|284:196|277:148,1,96,0|0,3:2|3:2,3:2:0:0:
234,79,120351,2,0,P|161:64|126:55,1,96,0|0,1:2|1:2,0:0:0:0:
55,40,121041,1,2,3:2:0:0:
84,126,121386,1,2,3:2:0:0:
84,126,121558,1,2,3:2:0:0:
84,126,121730,6,0,B|65:201|110:162|81:271,1,120,6|8,1:2|0:2,0:2:0:0:
110,353,122420,1,0,3:2:0:0:
110,353,122592,2,0,P|157:332|234:328,1,120,8|0,0:2|0:2,0:2:0:0:
253,372,123110,1,2,1:2:0:0:
347,320,123454,2,0,P|361:266|388:198,1,120,10|0,0:2|3:2,0:2:0:0:
431,179,123972,1,8,0:2:0:0:
431,179,124144,1,0,1:2:0:0:
496,93,124489,1,2,1:2:0:0:
419,17,124834,6,0,B|332:26|382:61|285:62,1,120,8|0,0:2|3:2,0:2:0:0:
274,101,125351,2,0,P|257:146|244:217,1,120,8|0,0:2|3:2,0:2:0:0:
271,263,125868,1,2,1:2:0:0:
208,351,126213,1,10,0:2:0:0:
208,351,126386,1,0,1:2:0:0:
106,375,126730,1,8,3:2:0:0:
106,375,126903,1,0,1:2:0:0:
19,309,127248,6,0,P|41:242|58:171,1,120,6|8,1:2|0:2,0:2:0:0:
30,93,127937,1,0,3:2:0:0:
30,93,128110,2,0,P|93:69|165:63,1,120,8|0,0:2|0:2,0:2:0:0:
185,98,128627,1,2,1:2:0:0:
255,16,128972,2,0,P|288:47|289:131,1,120,10|0,0:2|0:2,0:2:0:0:
271,167,129489,1,8,0:2:0:0:
271,167,129661,1,0,1:2:0:0:
209,255,130006,5,2,1:2:0:0:
263,348,130351,2,0,P|367:324|402:319,1,120,8|0,0:2|3:2,0:2:0:0:
421,357,130868,2,0,P|473:346|475:280,1,120,8|0,0:2|3:2,0:2:0:0:
437,253,131386,1,2,1:2:0:0:
480,154,131730,1,8,3:2:0:0:
480,154,131903,1,0,1:2:0:0:
396,86,132248,1,8,3:2:0:0:
396,86,132420,1,0,1:2:0:0:
476,13,132765,5,6,1:2:0:0:
396,86,133110,2,0,P|346:67|271:47,1,120,8|0,0:2|3:2,0:2:0:0:
239,15,133627,2,0,P|199:50|189:123,1,120,8|0,0:2|0:2,0:2:0:0:
228,148,134144,1,2,1:2:0:0:
312,215,134489,2,0,P|294:263|271:333,1,120,10|0,0:2|3:2,0:2:0:0:
227,358,135006,1,8,0:2:0:0:
227,358,135179,1,0,1:2:0:0:
151,281,135523,5,2,1:2:0:0:
71,354,135868,2,0,P|52:296|31:240,1,120,8|0,0:2|3:2,0:2:0:0:
32,186,136386,2,0,P|54:160|146:167,1,120,8|0,0:2|0:0,0:0:0:0:
163,203,136903,1,2,1:2:0:0:
270,175,137248,1,10,3:2:0:0:
270,175,137420,1,0,1:2:0:0:
379,154,137765,1,8,3:2:0:0:
379,154,137937,1,0,1:2:0:0:
467,215,138282,6,0,P|488:148|512:96,1,120,6|8,1:2|0:2,0:2:0:0:
449,18,138972,1,0,3:2:0:0:
449,18,139144,2,0,P|396:40|335:59,1,120,8|0,0:2|0:2,0:2:0:0:
284,42,139661,1,2,1:2:0:0:
178,16,140006,2,0,P|196:87|211:161,1,120,10|0,0:2|3:2,0:2:0:0:
204,186,140523,1,8,0:2:0:0:
204,186,140696,1,0,1:2:0:0:
291,249,141041,1,2,1:2:0:0:
256,351,141386,6,0,P|166:336|125:330,1,120,8|0,0:2|3:2,0:2:0:0:
97,368,141903,2,0,P|34:348|24:290,1,120,8|0,0:2|3:2,0:2:0:0:
48,260,142420,2,0,P|59:224|74:154,1,107.999996704102,0|8,1:2|0:1,0:2:0:0:
52,111,142937,1,0,1:2:0:0:
112,34,143282,1,8,0:1:0:0:
112,34,143454,2,0,P|154:45|172:48,1,53.9999983520508,0|0,1:2|0:2,0:2:0:0:
205,20,143799,6,0,P|262:44|327:64,1,107.999996704102,6|8,1:2|0:2,0:2:0:0:
403,53,144489,2,0,P|418:11|429:-10,2,53.9999983520508,0|0|8,3:2|1:2|0:2,0:2:0:0:
450,138,145179,1,2,1:2:0:0:
353,144,145523,2,0,P|363:201|377:263,1,107.999996704102,10|2,0:2|0:2,0:2:0:0:
410,281,146041,1,0,1:2:0:0:
410,281,146213,1,10,0:2:0:0:
453,369,146558,6,0,P|497:342|506:291,1,107.999996704102,2|10,1:2|0:2,0:2:0:0:
458,206,147248,2,0,P|494:199|530:196,2,53.9999983520508,2|0|10,3:2|1:2|0:2,0:2:0:0:
388,274,147937,1,2,1:2:0:0:
306,220,148282,2,0,P|307:159|310:118,2,80.9999975280763,10|2|2,0:2|1:2|1:2,0:2:0:0:
278,260,148972,1,8,3:2:0:0:
251,353,149317,6,0,B|181:351|216:318|138:311,1,107.999996704102,2|8,1:2|0:2,0:2:0:0:
81,377,150006,2,0,P|15:361|13:319,1,107.999996704102,2|8,3:2|3:2,0:2:0:0:
64,249,150696,1,2,1:2:0:0:
26,159,151041,1,10,0:2:0:0:
81,78,151386,2,0,P|137:102|195:118,1,107.999996704102,2|10,3:2|3:2,0:0:0:0:
271,76,152075,2,0,P|287:125|302:184,1,107.999996704102,2|10,1:2|0:2,0:2:0:0:
209,212,152765,2,0,P|193:261|178:320,1,107.999996704102,2|10,0:2|0:2,0:2:0:0:
258,371,153454,1,2,1:2:0:0:
347,331,153799,2,0,P|399:295|437:280,2,80.9999975280763,8|2|2,0:2|1:2|1:2,0:0:0:0:
314,294,154489,1,8,0:2:0:0:
258,371,154834,6,0,P|195:355|145:345,1,107.999996704102,2|8,1:2|3:2,0:2:0:0:
56,331,155523,2,0,P|24:354|5:367,2,53.9999983520508,0|0|8,3:2|1:2|3:2,0:0:0:0:
118,256,156213,1,2,1:2:0:0:
73,169,156558,2,0,P|65:122|49:58,2,107.999996704102,10|0|8,0:2|3:2|3:2,0:2:0:0:
118,256,157592,6,0,P|163:230|240:210,1,107.999996704102,2|10,1:2|0:2,0:2:0:0:
272,133,158282,2,0,P|297:147|326:156,2,53.9999983520508,2|0|10,3:2|1:2|0:2,0:0:0:0:
226,46,158972,1,2,1:2:0:0:
132,20,159317,2,0,B|83:24|105:43|47:49,2,80.9999975280763,10|2|2,0:2|1:2|1:2,0:2:0:0:
147,65,160006,1,8,3:2:0:0:
204,143,160351,6,0,P|257:149|309:162,1,107.999996704102,2|8,1:2|0:2,0:2:0:0:
399,201,161041,2,0,P|433:189|454:182,1,53.9999983520508,2|0,3:2|1:2,3:2:0:0:
498,182,161386,2,0,P|507:140|515:118,1,53.9999983520508,8|0,0:2|0:0,0:2:0:0:
505,81,161730,1,2,1:2:0:0:
430,18,162075,2,0,P|381:37|322:59,1,107.999996704102,10|2,0:2|0:2,0:2:0:0:
285,34,162592,1,0,1:2:0:0:
285,34,162765,1,10,0:2:0:0:
257,127,163110,6,0,P|271:184|278:246,1,107.999996704102,2|10,1:2|0:2,0:2:0:0:
324,317,163799,2,0,P|348:303|381:288,2,53.9999983520508,2|0|8,3:2|1:2|0:1,3:2:0:0:
298,358,164317,1,0,1:2:0:0:
298,358,164489,1,2,1:2:0:0:
103,370,165179,5,0,0:2:0:0:
82,275,165523,1,0,0:0:0:0:
61,180,165868,1,4,1:3:0:0:
