osu file format v14

[General]
AudioFilename: audio.mp3
AudioLeadIn: 0
PreviewTime: 54748
Countdown: 0
SampleSet: Soft
StackLeniency: 0.7
Mode: 0
LetterboxInBreaks: 0
WidescreenStoryboard: 1

[Editor]
Bookmarks: 11386,33454,55523,77592,99661,121730,143799,165868
DistanceSpacing: 0.3
BeatDivisor: 4
GridSize: 32
TimelineZoom: 1.9

[Metadata]
Title:Give You Up
TitleUnicode:Give You Up
Artist:Koven
ArtistUnicode:Koven
Creator:Mir
Version:Hard
Source:
Tags:electronic instrumental english vocal female drum and bass dnb monstercat instinct butterfly effect
BeatmapID:3402552
BeatmapSetID:1666345

[Difficulty]
HPDrainRate:4
CircleSize:4
OverallDifficulty:6
ApproachRate:7
SliderMultiplier:1.6
SliderTickRate:1

[Events]
//Background and Video events
0,0,"sitting.jpg",0,0
//Break Periods
2,99861,109796
2,110896,118072
//Storyboard Layer 0 (Background)
//Storyboard Layer 1 (Fail)
//Storyboard Layer 2 (Pass)
//Storyboard Layer 3 (Foreground)
//Storyboard Layer 4 (Overlay)
//Storyboard Sound Samples

[TimingPoints]
11386,344.827586206897,4,2,0,40,1,0
11386,-333.333333333333,4,2,0,40,0,0
45351,-250,4,2,0,40,0,0
47248,-200,4,2,0,40,0,0
50006,-166.666666666667,4,2,0,40,0,0
52765,-133.333333333333,4,2,0,50,0,0
54144,-133.333333333333,4,2,0,60,0,0
55523,-100,4,2,0,72,0,0
76213,-125,4,2,0,72,0,0
77248,-200,4,2,0,72,0,0
77592,-111.111111111111,4,2,0,72,0,0
98282,-166.666666666666,4,2,0,72,0,0
110696,-166.666666666666,4,2,0,30,0,0
117765,-166.666666666666,4,2,0,40,0,0
118972,-199.999999999999,4,2,0,40,0,0
119661,-199.999999999999,4,2,0,50,0,0
121730,-100,4,2,0,72,0,0
141386,-142.857142857143,4,2,0,72,0,0
141903,-200,4,2,0,72,0,0
143799,-111.111111111111,4,2,0,72,0,0
156213,-111.111111111111,4,2,0,72,0,0
164489,-249.999999999999,4,2,0,72,0,0

[Colours]
Combo1 : 163,237,243
Combo2 : 218,218,218
Combo3 : 129,220,145
Combo4 : 223,223,223

[HitObjects]
6,205,11386,6,0,P|55:194|198:167,1,191.999994140625,2|2,0:0|0:0,0:0:0:0:
232,102,13110,1,2,0:0:0:0:
232,102,14144,6,0,P|281:113|424:140,1,191.999994140625,2|2,0:0|0:0,0:0:0:0:
458,205,15868,1,2,0:0:0:0:
458,205,16903,6,0,P|477:268|379:288,1,191.999994140625,2|2,0:0|0:0,0:0:0:0:
346,218,18627,1,2,0:0:0:0:
346,218,19661,6,0,B|272:186|156:198|247:308|153:348|59:312,1,335.999989746094,2|2,0:0|0:0,0:0:0:0:
28,233,22420,6,0,P|25:197|0:40,1,191.999994140625,2|2,0:0|0:0,0:0:0:0:
67,1,24144,1,2,0:0:0:0:
67,1,25179,6,0,P|112:10|264:32,1,191.999994140625,2|2,0:0|0:0,0:0:0:0:
332,10,26903,1,2,0:0:0:0:
332,10,27937,6,0,P|346:61|234:109,1,191.999994140625,2|2,0:0|0:0,0:0:0:0:
221,38,29661,1,2,0:0:0:0:
221,38,30696,1,2,0:0:0:0:
256,192,30782,12,0,32765,0:0:0:0:
7,367,33454,6,0,P|55:356|108:344,1,95.9999970703126,2|0,3:2|3:2,0:0:0:0:
194,258,34834,1,0,3:2:0:0:
194,257,35179,2,0,P|205:210|219:165,1,95.9999970703126,2|2,0:2|0:2,0:0:0:0:
241,84,36213,2,0,P|227:60|157:54,1,95.9999970703126,2|2,3:2|3:2,0:2:0:0:
95,24,37248,1,0,0:2:0:0:
95,24,37592,6,0,P|85:60|80:78,1,47.9999985351563,2|0,3:2|0:0,0:2:0:0:
31,125,38282,2,0,P|41:161|46:179,1,47.9999985351563,2|0,3:2|3:2,0:2:0:0:
12,247,38972,2,0,P|53:253|106:284,1,95.9999970703126,2|2,3:2|3:2,0:2:0:0:
203,376,40351,1,2,3:2:0:0:
203,376,40696,6,0,P|211:337|226:278,1,95.9999970703126,2|2,0:2|3:2,0:0:0:0:
274,223,41730,2,0,P|305:216|324:211,1,47.9999985351563,2|0,3:2|0:2,0:2:0:0:
367,140,42420,2,0,P|336:133|317:128,1,47.9999985351563,2|0,3:2|0:2,0:2:0:0:
272,65,43110,2,0,P|269:33|266:9,2,47.9999985351563,2|0|2,3:2|0:0|3:2,0:2:0:0:
227,139,44144,1,0,3:2:0:0:
227,139,44317,1,0,3:2:0:0:
227,139,44489,6,0,L|176:148,1,47.9999985351563,4|0,3:3|0:0,0:2:0:0:
109,96,45179,1,0,3:2:0:0:
109,96,45351,1,0,3:2:0:0:
109,96,45523,2,0,P|102:67|90:25,2,64,0|2|2,3:2|3:2|3:2,0:2:0:0:
28,192,46558,2,0,P|23:212|20:233,2,32,0|0|2,3:2|3:2|3:2,0:0:0:0:
102,233,47248,6,0,P|158:249|190:259,1,80,2|0,3:2|3:2,0:2:0:0:
259,378,47937,2,0,P|282:370|305:364,2,40,2|0|0,0:2|3:2|3:2,0:2:0:0:
166,334,48627,2,0,P|176:286|179:241,1,80,2|0,3:2|3:2,0:2:0:0:
186,245,49144,1,2,0:2:0:0:
193,235,49317,2,0,P|233:246|246:249,2,40,2|0|2,3:2|0:2|3:2,0:2:0:0:
136,164,50006,6,0,P|126:111|115:65,1,95.9999970703126,2|0,3:2|3:2,0:2:0:0:
125,58,50523,1,0,0:0:0:0:
134,47,50696,2,0,L|192:62,1,47.9999985351563,2|0,3:2|3:2,0:2:0:0:
216,128,51041,2,0,L|262:116,1,47.9999985351563,2|0,3:2|3:2,0:0:0:0:
304,49,51386,1,2,3:2:0:0:
459,26,51730,2,0,P|449:70|440:138,1,95.9999970703126,2|2,3:2|0:2,0:2:0:0:
386,175,52248,1,0,3:2:0:0:
386,175,52420,2,0,P|395:207|399:232,1,47.9999985351563,2|0,3:2|0:2,0:2:0:0:
512,266,52765,6,0,P|471:273|437:342,1,120.000004577637,0|2,3:2|3:2,0:2:0:0:
359,368,53282,1,0,0:2:0:0:
359,368,53454,2,0,P|326:359|277:348,1,60.0000022888184,0|0,0:2|3:2,0:2:0:0:
269,285,53799,2,0,P|240:292|211:300,1,60.0000022888184,2|0,3:2|0:2,0:2:0:0:
160,240,54144,2,0,P|54:246|25:368,1,240.000009155274,4|2,3:3|0:2,0:2:0:0:
21,360,55523,6,0,P|86:343|191:323,1,160,4|8,1:2|0:2,0:2:0:0:
246,384,56041,1,0,3:2:0:0:
246,384,56127,1,0,3:2:0:0:
246,384,56213,2,0,P|262:328|272:295,1,80,0|0,3:2|1:2,3:2:0:0:
209,254,56558,2,0,P|184:168|169:117,1,120,8|0,0:2|0:2,0:2:0:0:
178,129,56903,6,0,P|227:142|274:152,1,80,2|0,1:2|0:0,0:2:0:0:
313,216,57248,2,0,P|372:199|389:100,1,160,10|0,0:2|3:2,0:2:0:0:
355,40,57765,1,0,1:2:0:0:
426,8,57937,2,0,P|472:25|510:37,1,80,8|0,3:2|3:2,3:2:0:0:
503,46,58196,1,0,0:0:0:0:
505,57,58282,6,0,P|495:116|492:144,1,80,2|0,1:2|0:0,0:2:0:0:
426,190,58627,2,0,P|436:249|439:277,1,80,8|0,0:2|3:2,0:0:0:0:
435,280,58886,1,0,3:2:0:0:
433,291,58972,1,0,3:2:0:0:
487,359,59144,1,0,1:2:0:0:
401,381,59317,2,0,B|323:367|368:338|294:328,1,120,8|0,0:2|0:2,0:2:0:0:
286,313,59661,6,0,P|235:328|192:340,1,80,2|0,1:2|0:2,0:2:0:0:
121,288,60006,2,0,P|72:268|-4:244,2,120,10|0|0,0:2|1:2|1:2,0:2:0:0:
199,244,60696,2,0,P|214:184|221:150,1,80,8|0,0:2|0:2,0:2:0:0:
306,115,61041,6,0,P|315:63|221:29,1,160,2|8,1:2|0:2,0:2:0:0:
145,6,61558,1,0,3:2:0:0:
145,6,61644,1,0,3:2:0:0:
145,6,61730,2,0,P|127:61|118:88,1,80,0|0,3:2|1:2,3:2:0:0:
30,93,62075,2,0,P|48:148|57:175,1,80,8|0,0:2|0:0,0:2:0:0:
128,203,62420,1,2,1:2:0:0:
23,319,62765,6,0,P|85:329|157:363,1,120,10|0,0:2|0:0,0:2:0:0:
142,363,63110,2,0,P|189:353|212:318,1,80,2|0,0:2|1:2,0:0:0:0:
249,258,63454,2,0,P|262:190|271:166,1,80,10|0,0:2|3:2,0:2:0:0:
260,168,63713,1,0,3:0:0:0:
256,156,63799,6,0,P|301:124|333:133,1,80,2|0,1:2|0:2,0:2:0:0:
388,86,64144,2,0,P|441:108|476:114,1,80,10|0,0:2|0:2,0:2:0:0:
503,181,64489,2,0,P|483:242|481:274,1,80,2|0,0:2|1:2,0:2:0:0:
449,324,64834,1,10,0:2:0:0:
398,265,65006,1,0,3:2:0:0:
398,265,65092,1,0,3:0:0:0:
398,265,65179,2,0,P|359:245|269:220,2,120,2|0|0,1:2|3:2|3:2,0:2:0:0:
449,324,65868,2,0,L|464:369,2,40,0|0|0,3:0|3:2|1:2,3:0:0:0:
398,265,66213,2,0,B|323:291|381:325|284:346,1,120,8|0,0:2|3:2,0:0:0:0:
301,353,66558,6,0,P|216:328|136:301,1,160,2|8,1:2|0:2,0:2:0:0:
73,240,67075,1,0,3:2:0:0:
73,240,67161,1,0,3:2:0:0:
73,240,67248,2,0,P|122:229|164:217,1,80,0|0,3:2|1:2,0:2:0:0:
205,157,67592,2,0,P|224:100|239:17,1,120,8|0,0:2|0:2,0:2:0:0:
239,33,67937,6,0,P|186:8|147:32,1,80,2|0,1:2|0:2,0:2:0:0:
44,0,68282,2,0,P|83:54|118:150,1,160,10|0,0:2|3:2,0:2:0:0:
150,221,68799,1,0,1:2:0:0:
205,157,68972,2,0,P|262:172|298:182,1,80,8|0,3:2|3:2,0:0:0:0:
287,188,69230,1,0,3:2:0:0:
292,198,69317,6,0,P|335:248|428:239,1,160,2|8,1:2|0:2,0:2:0:0:
496,182,69834,1,0,3:2:0:0:
496,182,69920,1,0,3:2:0:0:
496,182,70006,2,0,P|487:138|481:99,1,80,0|0,3:2|1:2,0:0:0:0:
415,0,70351,2,0,P|409:39|401:79,1,80,8|0,0:2|0:0,0:2:0:0:
325,101,70696,6,0,P|277:81|247:69,1,80,2|0,1:2|0:2,0:2:0:0:
185,21,71041,2,0,P|118:38|52:58,2,120,10|0|0,0:2|1:2|1:2,0:2:0:0:
251,70,71730,2,0,P|230:124|217:164,1,80,8|0,3:2|3:2,0:0:0:0:
226,156,71989,1,0,3:2:0:0:
229,167,72075,6,0,P|248:231|256:332,1,160,2|8,1:2|0:2,0:2:0:0:
185,378,72592,1,0,3:2:0:0:
185,378,72679,1,0,3:2:0:0:
185,378,72765,2,0,P|136:360|93:353,1,80,0|0,3:2|3:2,3:2:0:0:
27,384,73110,2,0,P|19:329|5:288,1,80,8|0,0:2|0:2,0:2:0:0:
27,209,73454,6,0,P|85:203|111:271,1,120,2|0,1:2|0:0,0:2:0:0:
109,260,73799,2,0,P|204:297|269:331,1,160,10|0,0:2|0:2,0:2:0:0:
324,286,74317,1,0,1:2:0:0:
382,339,74489,2,0,L|391:386,2,40,8|0|0,3:2|3:2|3:2,0:0:0:0:
324,286,74834,6,0,P|311:233|299:195,1,80,2|0,1:2|0:0,0:2:0:0:
369,166,75179,2,0,P|382:113|394:75,1,80,8|0,0:2|3:2,0:0:0:0:
331,32,75523,1,0,3:2:0:0:
331,32,75610,1,0,3:2:0:0:
331,32,75696,1,0,1:2:0:0:
260,80,75868,2,0,P|201:93|175:102,1,80,8|0,0:2|3:2,0:0:0:0:
136,39,76213,6,0,P|89:32|48:108,1,128,2|8,1:2|0:2,0:2:0:0:
110,139,76730,2,0,P|123:172|149:269,1,128,2|0,1:2|3:2,0:2:0:0:
123,335,77248,1,0,1:2:0:0:
123,335,77592,6,0,P|181:351|267:382,1,143.999995605469,6|8,1:2|0:2,0:2:0:0:
327,335,78110,2,0,L|352:376,2,35.9999989013672,0|0|0,3:2|3:2|3:2,0:0:0:0:
261,295,78454,1,0,1:2:0:0:
329,255,78627,2,0,P|397:230|452:217,1,107.999996704102,8|0,0:2|0:2,0:2:0:0:
439,237,78972,6,0,P|468:261|507:240,1,71.9999978027344,2|0,1:2|0:0,0:2:0:0:
512,169,79317,2,0,P|489:115|407:86,1,143.999995605469,10|0,0:2|3:2,0:2:0:0:
369,11,79834,1,0,1:2:0:0:
369,11,79920,1,0,3:0:0:0:
369,11,80006,2,0,P|331:55|336:88,1,71.9999978027344,8|0,3:2|3:2,0:0:0:0:
359,141,80351,6,0,P|374:196|396:300,1,143.999995605469,2|8,1:2|3:2,0:2:0:0:
409,360,80868,2,0,L|452:344,2,35.9999989013672,0|0|0,3:2|3:0|3:2,3:0:0:0:
330,335,81213,1,0,1:2:0:0:
267,375,81386,2,0,P|221:360|184:349,1,71.9999978027344,8|0,3:2|3:2,0:0:0:0:
122,370,81730,1,0,1:2:0:0:
122,370,81817,1,0,3:0:0:0:
122,370,81903,1,0,3:2:0:0:
118,277,82075,2,0,P|58:298|-3:320,2,107.999996704102,10|2|2,3:2|1:2|1:2,0:2:0:0:
202,273,82765,2,0,P|215:227|224:196,1,71.9999978027344,8|0,3:2|3:2,3:2:0:0:
217,193,83023,1,0,3:0:0:0:
212,183,83110,6,0,L|191:105,1,71.9999978027344,2|0,1:2|0:0,0:2:0:0:
220,42,83454,2,0,P|256:20|295:23,1,71.9999978027344,8|0,0:2|0:2,0:0:0:0:
355,61,83799,2,0,L|334:139,1,71.9999978027344,0|0,3:2|1:2,0:2:0:0:
363,202,84144,2,0,P|399:224|438:221,1,71.9999978027344,8|0,0:2|3:2,0:2:0:0:
437,219,84403,1,0,3:2:0:0:
445,212,84489,6,0,P|480:123|516:65,2,143.999995605469,2|10|0,1:2|0:2|3:2,0:0:0:0:
497,277,85351,1,0,1:2:0:0:
466,350,85523,2,0,P|497:367|511:376,2,35.9999989013672,8|0|0,3:2|3:2|3:2,3:2:0:0:
385,337,85868,6,0,P|343:328|319:235,1,143.999995605469,2|8,1:2|0:2,0:2:0:0:
335,164,86386,1,0,3:2:0:0:
335,164,86472,1,0,3:2:0:0:
335,164,86558,2,0,P|328:129|317:94,1,71.9999978027344,0|0,3:2|1:2,0:2:0:0:
249,4,86903,2,0,P|242:39|231:74,1,71.9999978027344,8|0,3:2|3:2,0:0:0:0:
223,81,87161,1,0,3:2:0:0:
214,88,87248,2,0,L|162:68,2,35.9999989013672,2|0|0,1:2|3:0|3:2,0:2:0:0:
257,183,87592,2,0,P|283:136|316:93,2,107.999996704102,8|2|2,3:2|1:2|1:2,3:2:0:0:
289,258,88282,1,8,3:2:0:0:
244,370,88627,6,0,P|182:344|95:326,1,143.999995605469,2|8,1:2|0:2,0:2:0:0:
42,281,89144,2,0,L|6:307,2,35.9999989013672,0|0|0,3:2|3:2|3:2,0:0:0:0:
113,248,89489,1,0,1:2:0:0:
49,197,89661,2,0,P|38:149|15:86,1,107.999996704102,8|0,0:2|0:2,0:2:0:0:
20,82,90006,6,0,P|81:94|103:98,1,71.9999978027344,2|0,1:2|0:2,0:2:0:0:
167,152,90351,2,0,P|178:104|201:41,1,107.999996704102,10|0,0:2|0:0,0:2:0:0:
211,40,90696,2,0,L|201:3,2,35.9999989013672,0|0|0,3:2|3:2|1:2,0:0:0:0:
267,103,91041,1,8,0:2:0:0:
330,50,91213,5,0,3:2:0:0:
330,50,91299,1,0,3:2:0:0:
330,50,91386,2,0,L|423:66,1,71.9999978027344,2|0,1:2|0:2,0:2:0:0:
512,119,91730,2,0,P|460:133|358:162,1,143.999995605469,8|0,0:2|3:2,0:0:0:0:
290,171,92248,1,0,1:2:0:0:
290,171,92334,1,0,3:0:0:0:
290,171,92420,2,0,P|272:121|263:91,1,71.9999978027344,8|0,3:2|0:2,0:2:0:0:
202,50,92765,2,0,L|216:11,2,35.9999989013672,2|0|0,1:2|3:0|3:2,3:0:0:0:
127,96,93110,6,0,P|79:104|5:119,2,107.999996704102,8|2|2,3:2|1:2|1:2,0:2:0:0:
194,150,93799,2,0,P|183:184|170:218,1,71.9999978027344,8|0,3:2|3:2,3:2:0:0:
163,226,94058,1,0,3:0:0:0:
156,234,94144,6,0,P|137:288|213:325,1,143.999995605469,2|8,1:2|0:2,0:2:0:0:
274,366,94661,1,0,3:2:0:0:
274,366,94748,1,0,3:0:0:0:
274,366,94834,2,0,P|324:348|354:345,1,71.9999978027344,0|0,3:2|1:2,3:2:0:0:
396,289,95179,2,0,P|446:307|476:310,1,71.9999978027344,8|0,0:2|0:0,0:2:0:0:
512,246,95523,6,0,P|531:192|455:155,1,143.999995605469,2|10,1:2|0:2,0:2:0:0:
393,208,96041,1,0,3:2:0:0:
393,208,96127,1,0,3:2:0:0:
393,208,96213,2,0,P|382:155|375:119,1,71.9999978027344,0|0,3:2|1:2,0:2:0:0:
300,107,96558,2,0,P|289:160|282:196,1,71.9999978027344,8|0,3:2|3:2,0:0:0:0:
282,188,96817,1,0,3:0:0:0:
279,198,96903,6,0,B|181:199|244:253|129:250,1,143.999995605469,0|8,1:2|0:2,0:2:0:0:
89,299,97420,2,0,P|57:281|51:277,2,35.9999989013672,0|0|0,3:2|3:2|3:2,0:0:0:0:
139,362,97765,1,0,1:2:0:0:
139,362,97937,2,0,P|184:346|221:337,1,71.9999978027344,8|0,0:2|0:2,0:2:0:0:
273,296,98282,6,0,P|321:318|423:359,1,143.999995605469,0|0,1:2|1:2,0:0:0:0:
405,352,98972,1,8,0:1:0:0:
512,161,99661,1,4,1:3:0:0:
255,192,110696,5,4,1:3:0:0:
204,384,118972,6,0,L|209:340,3,40,0|0|0|0,3:2|3:2|3:2|3:2,3:2:0:0:
295,333,119661,2,0,L|290:289,3,40,0|0|0|0,3:2|3:2|3:2|3:2,3:2:0:0:
216,258,120351,2,0,L|221:214,1,40,0|0,1:2|1:2,0:0:0:0:
294,190,120696,2,0,L|289:146,1,40,0|0,1:2|1:2,0:0:0:0:
237,90,121041,5,2,3:2:0:0:
237,84,121127,1,2,3:2:0:0:
238,78,121213,1,2,3:2:0:0:
239,72,121299,1,2,3:2:0:0:
240,66,121386,2,0,L|246:34,3,20,2|2|2|2,3:2|3:2|3:2|3:2,0:0:0:0:
263,38,121730,6,0,B|162:27|221:93|77:62,1,160,6|8,1:2|0:2,0:2:0:0:
38,102,122248,2,0,L|23:50,2,40,0|0|0,3:2|3:2|3:2,0:0:0:0:
106,146,122592,2,0,P|128:206|165:326,1,160,8|0,0:2|3:2,0:2:0:0:
161,308,123023,1,0,3:2:0:0:
164,318,123110,6,0,P|145:366|118:370,1,80,2|0,1:2|0:2,0:2:0:0:
30,384,123454,2,0,P|3:313|57:260,1,160,10|0,0:2|3:2,0:2:0:0:
40,183,123972,1,8,0:2:0:0:
106,146,124144,2,0,P|149:153|160:195,1,80,0|0,1:2|3:0,0:2:0:0:
159,195,124403,1,0,3:2:0:0:
153,205,124489,6,0,P|161:271|256:277,1,160,2|8,1:2|0:2,0:2:0:0:
307,243,125006,2,0,P|315:262|323:288,2,40,0|0|0,3:2|3:2|3:2,0:0:0:0:
332,121,125351,2,0,P|324:187|229:193,1,160,8|0,0:2|3:2,0:2:0:0:
213,131,125868,6,0,P|226:87|235:48,1,80,2|0,1:2|0:0,0:2:0:0:
298,14,126213,1,10,0:2:0:0:
364,56,126386,2,0,P|408:42|444:32,1,80,0|0,1:2|3:2,0:2:0:0:
500,83,126730,1,8,3:2:0:0:
432,117,126903,1,0,1:2:0:0:
497,236,127248,6,0,P|483:293|473:344,1,80,6|0,1:2|0:0,0:2:0:0:
431,374,127592,2,0,P|370:360|348:268,1,160,8|0,0:2|3:2,0:2:0:0:
386,210,128110,1,8,0:2:0:0:
329,152,128282,2,0,L|316:108,2,40,0|0|0,3:0|3:2|3:2,3:0:0:0:
282,217,128627,2,0,P|233:235|195:244,1,80,2|0,1:2|0:2,0:2:0:0:
156,303,128972,6,0,P|95:273|6:241,1,160,10|0,0:2|0:2,0:2:0:0:
8,159,129489,1,8,0:2:0:0:
84,108,129661,2,0,P|95:160|104:200,1,80,0|0,1:2|3:2,0:0:0:0:
73,303,130006,6,0,P|84:355|179:381,1,160,2|8,1:2|0:2,0:2:0:0:
236,323,130523,2,0,L|261:373,2,40,0|0|0,3:2|3:2|3:2,3:2:0:0:
156,303,130868,2,0,P|177:239|216:140,1,160,8|0,0:2|3:2,0:2:0:0:
284,123,131386,6,0,P|296:79|265:43,1,80,2|0,1:2|3:2,0:0:0:0:
218,6,131730,1,8,3:2:0:0:
154,47,131903,2,0,P|103:61|-4:95,1,160,0|8,1:2|3:2,3:2:0:0:
21,4,132420,1,0,1:2:0:0:
84,158,132765,6,0,B|171:177|114:225|213:248,1,160,6|8,1:2|0:2,0:2:0:0:
271,297,133282,2,0,P|278:319|288:354,2,40,0|0|0,3:2|3:2|3:2,0:0:0:0:
286,219,133627,2,0,P|303:166|345:42,1,160,8|0,0:2|3:2,0:2:0:0:
343,57,134058,1,0,3:2:0:0:
351,48,134144,6,0,P|406:32|430:49,1,80,2|0,1:2|0:0,0:2:0:0:
497,9,134489,2,0,P|520:59|442:135,1,160,10|0,0:2|3:2,0:2:0:0:
406,191,135006,1,8,0:2:0:0:
482,210,135179,2,0,P|505:245|495:292,1,80,0|0,1:2|3:2,0:0:0:0:
430,310,135523,6,0,P|387:275|357:262,1,80,2|0,1:2|0:2,0:2:0:0:
324,193,135868,2,0,P|261:213|162:218,1,160,8|0,0:2|3:2,0:2:0:0:
123,158,136386,1,8,0:2:0:0:
47,190,136558,2,0,P|38:163|36:140,2,40,0|0|0,3:2|3:0|3:0,3:2:0:0:
61,263,136903,6,0,P|100:268|130:294,1,80,2|0,1:2|3:2,0:2:0:0:
146,366,137248,1,10,3:2:0:0:
224,374,137420,2,0,P|235:312|247:273,1,80,0|0,1:2|3:2,3:2:0:0:
322,209,137765,1,8,3:2:0:0:
244,217,137937,2,0,P|233:155|221:116,1,80,0|0,1:2|0:2,0:2:0:0:
261,59,138282,6,0,P|317:35|372:106,1,160,6|8,1:2|0:2,0:2:0:0:
404,201,138799,2,0,P|412:183|424:158,2,40,0|0|0,3:2|3:2|3:2,0:0:0:0:
322,209,139144,2,0,P|254:224|146:265,1,160,8|0,0:2|0:2,0:2:0:0:
127,319,139661,6,0,P|87:316|65:266,1,80,2|0,1:2|0:2,0:2:0:0:
18,227,140006,2,0,P|42:166|66:61,1,160,10|0,0:2|3:2,0:2:0:0:
33,4,140523,1,8,0:2:0:0:
108,9,140696,2,0,P|156:25|188:42,1,80,0|0,1:2|3:2,0:0:0:0:
237,94,141041,6,0,P|287:77|410:51,2,160,2|8|0,1:2|0:2|3:2,3:2:0:0:
194,163,141903,2,0,P|187:215|177:251,1,80,8|0,0:2|3:2,0:2:0:0:
143,309,142420,5,0,1:2:0:0:
240,372,142765,1,8,0:1:0:0:
240,372,142937,1,0,1:2:0:0:
344,343,143282,1,8,0:1:0:0:
344,343,143454,2,0,P|376:333|394:328,1,40,0|0,1:2|0:2,0:2:0:0:
454,384,143799,6,0,P|470:309|493:239,1,143.999995605469,6|8,1:2|0:2,0:2:0:0:
489,167,144317,1,0,3:2:0:0:
489,167,144403,1,0,3:2:0:0:
489,167,144489,2,0,P|452:153|405:139,1,71.9999978027344,0|0,3:2|1:2,0:2:0:0:
348,108,144834,2,0,P|339:58|328:-9,1,107.999996704102,8|0,0:2|0:2,0:2:0:0:
317,0,145179,6,0,P|283:11|249:24,1,71.9999978027344,2|0,1:2|0:0,0:2:0:0:
234,105,145523,2,0,P|215:154|115:145,1,143.999995605469,10|2,0:2|0:2,0:2:0:0:
74,111,146041,1,0,1:2:0:0:
28,181,146213,2,0,P|41:228|49:265,1,71.9999978027344,10|0,0:2|3:2,0:2:0:0:
45,261,146472,1,0,3:0:0:0:
45,271,146558,6,0,P|80:320|111:323,1,71.9999978027344,2|0,1:2|0:2,0:2:0:0:
139,381,146903,2,0,P|177:355|227:339,1,71.9999978027344,10|0,0:2|0:2,0:0:0:0:
235,278,147248,2,0,P|270:229|301:226,1,71.9999978027344,2|0,0:2|1:2,0:2:0:0:
329,168,147593,2,0,P|367:194|417:210,1,71.9999978027344,10|0,0:2|0:2,0:2:0:0:
427,131,147937,1,2,1:2:0:0:
501,274,148282,2,0,P|481:340|469:402,2,107.999996704102,10|2|2,0:2|1:2|1:2,0:2:0:0:
472,199,148972,2,0,L|515:184,3,35.9999989013672,8|0|0|0,3:2|3:2|3:2|3:2,3:2:0:0:
511,174,149317,6,0,P|494:98|470:24,1,143.999995605469,2|8,1:2|0:2,0:2:0:0:
401,17,149834,1,0,3:2:0:0:
401,17,149920,1,0,3:2:0:0:
401,17,150006,2,0,P|356:25|334:58,1,71.9999978027344,2|0,3:2|1:2,0:2:0:0:
243,0,150351,2,0,P|256:43|266:87,1,71.9999978027344,8|0,3:2|0:2,0:0:0:0:
327,118,150696,2,0,P|311:181|260:189,1,107.999996704102,2|0,1:2|0:0,0:2:0:0:
264,202,151041,6,0,P|219:181|182:171,1,71.9999978027344,10|0,0:2|0:2,0:2:0:0:
157,110,151386,2,0,P|123:121|91:137,1,71.9999978027344,2|0,0:2|1:2,0:0:0:0:
26,181,151730,2,0,P|52:236|58:265,1,71.9999978027344,10|0,3:2|3:2,0:0:0:0:
56,257,151989,1,0,3:2:0:0:
52,267,152075,6,0,P|65:318|85:326,1,71.9999978027344,2|0,1:2|0:2,0:2:0:0:
139,372,152420,2,0,P|176:347|204:331,1,71.9999978027344,10|0,0:2|0:2,0:2:0:0:
300,317,152765,2,0,P|287:266|267:258,1,71.9999978027344,2|0,0:2|1:2,0:2:0:0:
213,212,153110,2,0,P|176:237|148:253,1,71.9999978027344,10|0,0:2|0:2,0:2:0:0:
52,267,153454,6,0,P|12:247|2:162,1,107.999996704102,2|0,1:2|0:0,0:2:0:0:
9,169,153799,2,0,P|23:111|36:56,2,107.999996704102,8|2|2,0:2|1:2|1:2,0:0:0:0:
87,190,154489,1,8,0:2:0:0:
87,190,154834,6,0,P|184:157|249:142,1,143.999995605469,2|8,1:2|3:2,0:2:0:0:
281,91,155351,1,0,3:2:0:0:
281,91,155437,1,0,3:0:0:0:
281,91,155523,2,0,P|294:53|303:17,2,71.9999978027344,0|0|8,3:2|1:2|3:2,0:0:0:0:
310,169,156041,5,0,3:2:0:0:
310,169,156127,1,0,3:2:0:0:
310,169,156213,2,0,P|346:178|391:195,1,71.9999978027344,2|0,1:2|0:0,0:2:0:0:
440,125,156558,2,0,P|480:149|487:246,1,143.999995605469,10|0,0:2|3:2,0:2:0:0:
419,270,157075,1,0,1:2:0:0:
479,318,157248,2,0,P|460:360|452:388,1,71.9999978027344,8|0,3:2|0:2,0:0:0:0:
353,375,157592,6,0,P|340:316|307:230,1,143.999995605469,2|10,1:2|0:2,0:2:0:0:
249,188,158110,1,0,3:2:0:0:
249,188,158196,1,0,3:0:0:0:
249,188,158282,2,0,P|217:174|189:165,2,35.9999989013672,2|0|0,3:2|3:2|1:2,0:0:0:0:
324,158,158627,2,0,P|345:108|378:63,1,107.999996704102,10|0,0:2|0:0,0:2:0:0:
377,50,158972,6,0,P|331:78|294:67,1,71.9999978027344,2|0,1:2|0:2,0:2:0:0:
239,91,159317,2,0,P|199:71|174:2,2,107.999996704102,10|2|2,0:2|1:2|1:2,0:2:0:0:
315,76,160006,2,0,P|368:88|410:148,1,107.999996704102,8|0,3:2|3:2,3:2:0:0:
418,132,160351,6,0,P|402:191|385:279,1,143.999995605469,2|8,1:2|0:2,0:2:0:0:
388,366,160868,1,0,3:2:0:0:
388,366,160954,1,0,3:2:0:0:
388,366,161041,2,0,P|436:343|467:335,2,71.9999978027344,2|0|8,3:2|1:2|0:2,3:2:0:0:
315,312,161558,5,0,3:0:0:0:
315,312,161644,1,0,3:2:0:0:
315,312,161730,2,0,P|268:292|230:284,1,71.9999978027344,2|0,1:2|0:2,0:2:0:0:
213,218,162075,2,0,P|151:223|121:304,1,143.999995605469,10|2,0:2|0:2,0:2:0:0:
169,351,162592,1,0,1:2:0:0:
89,369,162765,2,0,P|42:356|12:351,1,71.9999978027344,10|0,0:2|3:2,0:2:0:0:
118,290,163110,6,0,P|98:242|85:217,1,71.9999978027344,2|0,1:2|0:2,0:2:0:0:
15,192,163454,2,0,P|35:144|48:119,1,71.9999978027344,10|0,0:2|0:2,0:2:0:0:
33,40,163799,2,0,P|91:61|125:71,1,71.9999978027344,2|0,3:2|1:2,3:2:0:0:
129,135,164144,5,8,0:1:0:0:
205,124,164317,1,0,1:2:0:0:
243,189,164489,1,2,1:2:0:0:
413,133,165179,1,0,0:2:0:0:
473,309,165868,1,4,1:3:0:0:
