osu file format v14

[General]
AudioFilename: audio.mp3
AudioLeadIn: 0
PreviewTime: 70748
Countdown: 0
SampleSet: None
StackLeniency: 0.4
Mode: 0
LetterboxInBreaks: 0
WidescreenStoryboard: 1

[Editor]
DistanceSpacing: 1.25
BeatDivisor: 4
GridSize: 32
TimelineZoom: 2.3

[Metadata]
Title:Get This Right
TitleUnicode:Get This Right
Artist:Koven
ArtistUnicode:Koven
Creator:Remilie
Version:hs
Source:
Tags:
BeatmapID:4554613
BeatmapSetID:2159804

[Difficulty]
HPDrainRate:6
CircleSize:4
OverallDifficulty:9
ApproachRate:9.4
SliderMultiplier:1.66
SliderTickRate:1

[Events]
//Background and Video events
0,0,"bg.jpg",0,0
//Break Periods
2,116558,126284
//Storyboard Layer 0 (Background)
//Storyboard Layer 1 (Fail)
//Storyboard Layer 2 (Pass)
//Storyboard Layer 3 (Foreground)
//Storyboard Layer 4 (Overlay)
//Storyboard Sound Samples

[TimingPoints]
4731,348.837209302326,4,2,1,30,1,0
27056,-153.846153846153,4,2,1,30,0,0
41010,-153.846153846153,4,2,1,40,0,0
49382,-117.647058823529,4,2,1,50,0,0
60544,-117.64705882353,4,2,1,60,0,0
66126,-95.2380952380954,4,2,1,40,0,0
66475,-95.2380952380954,4,2,1,45,0,0
66824,-95.2380952380954,4,2,1,50,0,0
67172,-95.2380952380954,4,2,1,55,0,0
67521,-95.2380952380954,4,2,1,45,0,0
67870,-95.2380952380954,4,2,1,50,0,0
68219,-95.2380952380954,4,2,1,55,0,0
68568,-95.2380952380954,4,2,1,60,0,0
69091,-95.2380952380954,4,2,1,55,0,0
69265,-95.2380952380954,4,2,1,50,0,0
69440,-95.2380952380954,4,2,1,45,0,0
69614,-95.2380952380954,4,2,1,40,0,0
69789,-95.2380952380954,4,2,1,35,0,0
69963,-95.2380952380954,4,2,1,30,0,0
71010,-95.2380952380954,4,2,1,40,0,0
71184,-95.2380952380954,4,2,1,50,0,0
71358,-95.2380952380954,4,2,1,60,0,0
71533,-95.2380952380954,4,2,1,70,0,0
71707,-74.0740740740741,4,2,1,80,0,1
94033,-74.0740740740741,4,2,1,70,0,0
126824,-74.0740740740741,4,2,1,50,0,0
127521,-117.647058823529,4,2,1,55,0,0
138683,-117.64705882353,4,2,1,65,0,0
144265,-95.2380952380952,4,2,1,45,0,0
144614,-95.2380952380952,4,2,1,50,0,0
144963,-95.2380952380952,4,2,1,55,0,0
145312,-95.2380952380952,4,2,1,60,0,0
145660,-95.2380952380954,4,2,1,50,0,0
146010,-95.2380952380954,4,2,1,55,0,0
146358,-95.2380952380954,4,2,1,60,0,0
146707,-95.2380952380954,4,2,1,65,0,0
147230,-95.2380952380954,4,2,1,60,0,0
147404,-95.2380952380954,4,2,1,55,0,0
147579,-95.2380952380954,4,2,1,50,0,0
147753,-95.2380952380954,4,2,1,45,0,0
147928,-95.2380952380954,4,2,1,40,0,0
148102,-95.2380952380954,4,2,1,35,0,0
149149,-95.2380952380954,4,2,1,45,0,0
149323,-95.2380952380954,4,2,1,55,0,0
149497,-95.2380952380954,4,2,1,65,0,0
149672,-95.2380952380954,4,2,1,75,0,0
149846,-74.0740740740741,4,2,1,80,0,1
172172,-74.0740740740741,4,2,1,70,0,0

[Colours]
Combo1 : 172,170,197
Combo2 : 34,36,79
Combo3 : 82,71,108
Combo4 : 108,86,91

[HitObjects]
124,185,27405,5,2,0:2:0:0:
124,185,27754,1,2,0:2:0:0:
124,185,28103,1,2,0:2:0:0:
124,185,28277,1,2,0:2:0:0:
124,185,28626,1,2,0:2:0:0:
124,185,29324,1,2,0:2:0:0:
124,185,29498,1,2,0:2:0:0:
124,185,29672,1,2,0:2:0:0:
124,185,30196,1,2,0:0:0:0:
124,185,30370,1,2,0:0:0:0:
124,185,30719,1,2,0:0:0:0:
124,185,31242,1,2,0:0:0:0:
124,185,31417,1,2,0:0:0:0:
124,185,31765,1,2,0:0:0:0:
124,185,32114,1,2,0:0:0:0:
124,185,32289,1,2,0:0:0:0:
123,185,33684,1,2,0:0:0:0:
123,185,33858,1,2,0:0:0:0:
123,185,34033,1,2,0:0:0:0:
123,185,34382,1,2,0:0:0:0:
123,185,34556,1,2,0:0:0:0:
123,185,34905,1,2,0:0:0:0:
123,185,35079,1,2,0:0:0:0:
123,185,38568,1,2,0:0:0:0:
123,185,38917,1,2,0:0:0:0:
123,185,39265,1,2,0:0:0:0:
123,185,39440,1,2,0:0:0:0:
123,185,39789,1,2,0:0:0:0:
123,185,40486,1,2,0:0:0:0:
123,185,40661,1,2,0:0:0:0:
123,185,40835,1,2,0:0:0:0:
72,247,41010,1,0,3:2:0:0:
123,185,41358,1,2,0:0:0:0:
123,185,41533,1,2,0:0:0:0:
89,220,41707,1,0,3:2:0:0:
123,185,41882,1,2,0:0:0:0:
123,185,42405,1,2,3:2:0:0:
123,185,42579,1,2,0:0:0:0:
89,220,43103,1,0,3:2:0:0:
123,185,43451,1,2,0:0:0:0:
123,185,43626,1,2,0:0:0:0:
123,185,43800,1,2,3:2:0:0:
123,185,43975,1,2,0:0:0:0:
123,185,44498,1,2,3:2:0:0:
123,185,44847,1,2,0:0:0:0:
123,185,45021,1,2,0:0:0:0:
89,220,45196,1,0,3:2:0:0:
123,185,45544,1,2,0:0:0:0:
123,185,45719,1,2,0:0:0:0:
89,220,45893,1,0,3:2:0:0:
123,185,46242,1,2,0:0:0:0:
89,220,46591,1,0,3:2:0:0:
89,220,47289,1,0,3:2:0:0:
89,220,47986,1,0,3:2:0:0:
89,220,48684,1,0,3:2:0:0:
89,220,48858,1,8,0:2:0:0:
89,220,49033,1,8,3:2:0:0:
89,220,49207,1,8,3:2:0:0:
89,220,49382,1,6,3:2:0:0:
89,220,49731,1,0,0:2:0:0:
89,220,49905,1,8,0:2:0:0:
123,185,50079,1,2,3:2:0:0:
123,185,50254,1,2,0:0:0:0:
89,220,50428,1,0,0:2:0:0:
123,185,50603,1,10,0:0:0:0:
89,220,50777,1,0,3:2:0:0:
123,185,50951,1,2,0:0:0:0:
89,220,51126,1,0,0:2:0:0:
123,185,51300,1,10,0:0:0:0:
89,220,51475,1,0,3:2:0:0:
123,185,51824,1,2,0:2:0:0:
123,185,51998,1,10,0:0:0:0:
89,220,52172,1,0,3:2:0:0:
105,196,52347,1,2,0:2:0:0:
123,185,52870,1,2,3:2:0:0:
123,185,53044,1,2,0:0:0:0:
89,220,53219,1,0,0:2:0:0:
123,185,53393,1,10,0:0:0:0:
89,220,53568,1,0,3:2:0:0:
123,185,53742,1,2,0:0:0:0:
123,185,54091,1,10,0:0:0:0:
89,220,54265,1,0,3:2:0:0:
119,106,54440,1,8,0:0:0:0:
123,185,54614,1,10,0:0:0:0:
89,220,54789,1,8,0:2:0:0:
89,220,54963,1,0,3:2:0:0:
89,220,55486,1,8,0:2:0:0:
123,185,55661,1,2,3:2:0:0:
123,185,55835,1,2,0:0:0:0:
89,220,56010,1,0,0:2:0:0:
123,185,56184,1,10,0:2:0:0:
89,220,56358,1,0,3:2:0:0:
123,185,56707,1,2,0:0:0:0:
123,185,56882,1,10,0:0:0:0:
119,149,57056,1,0,3:2:0:0:
123,185,57231,1,2,0:0:0:0:
123,185,57579,1,10,0:0:0:0:
119,149,57754,1,0,3:2:0:0:
123,185,57928,1,2,0:0:0:0:
70,108,58277,1,8,0:0:0:0:
119,149,58451,1,0,3:2:0:0:
123,185,58975,1,2,0:0:0:0:
123,185,59149,1,2,3:2:0:0:
123,185,59498,1,2,0:0:0:0:
123,185,59672,1,2,0:0:0:0:
119,149,59847,1,0,3:2:0:0:
110,132,60021,1,8,0:2:0:0:
123,185,60196,1,10,3:2:0:0:
110,132,60370,1,8,3:2:0:0:
123,185,60544,1,6,3:2:0:0:
105,104,60893,1,0,3:2:0:0:
123,185,61242,1,2,3:2:0:0:
123,185,61417,1,2,0:0:0:0:
105,104,61591,1,0,3:2:0:0:
123,185,61765,1,10,0:0:0:0:
105,104,61940,1,0,3:2:0:0:
123,185,62289,1,2,3:2:0:0:
123,185,62463,1,2,0:0:0:0:
105,104,62637,1,0,3:2:0:0:
123,185,62986,1,2,3:2:0:0:
123,185,63161,1,2,0:0:0:0:
105,104,63335,1,0,3:2:0:0:
123,185,63684,1,2,3:2:0:0:
123,185,63858,1,2,0:0:0:0:
105,104,64033,1,0,3:2:0:0:
123,185,64382,1,2,3:2:0:0:
123,185,64556,1,2,0:0:0:0:
123,185,64731,1,2,3:2:0:0:
123,185,64905,1,2,0:0:0:0:
105,104,65079,1,0,3:2:0:0:
123,185,65254,1,10,0:0:0:0:
123,185,65428,1,2,3:2:0:0:
123,185,65603,1,10,0:0:0:0:
105,104,65777,1,8,3:2:0:0:
123,185,65951,1,10,0:0:0:0:
102,109,66126,1,0,3:2:0:0:
103,110,66300,1,0,3:2:0:0:
123,185,66475,1,2,3:2:0:0:
123,185,66649,1,2,3:2:0:0:
103,110,66824,1,0,3:2:0:0:
102,109,66998,1,0,3:2:0:0:
161,125,67085,1,0,3:2:0:0:
123,185,67172,1,2,3:2:0:0:
161,125,67260,1,0,3:2:0:0:
123,185,67347,1,2,3:2:0:0:
103,110,67521,1,0,3:2:0:0:
103,110,67696,1,0,3:2:0:0:
123,185,67870,1,2,3:2:0:0:
123,185,68044,1,2,3:2:0:0:
103,110,68219,1,0,3:2:0:0:
123,185,68393,1,2,3:2:0:0:
145,176,68481,1,0,3:2:0:0:
123,185,68568,1,2,3:2:0:0:
145,176,68655,1,0,3:2:0:0:
103,110,68742,1,0,3:2:0:0:
123,185,68917,1,2,3:2:0:0:
103,110,69004,1,0,3:2:0:0:
103,110,69091,1,0,3:2:0:0:
103,110,69178,1,0,3:2:0:0:
123,185,69265,1,2,3:2:0:0:
103,110,69353,1,0,3:2:0:0:
103,110,69440,1,0,3:2:0:0:
103,110,69527,1,0,3:2:0:0:
103,110,69614,1,8,3:2:0:0:
103,110,69701,1,0,3:2:0:0:
103,110,69789,1,0,3:2:0:0:
103,110,69876,1,0,3:2:0:0:
103,110,69963,1,0,3:2:0:0:
103,110,70050,1,0,3:2:0:0:
103,110,70137,1,8,3:2:0:0:
103,110,70225,1,0,3:2:0:0:
103,110,70312,1,0,3:2:0:0:
103,110,70399,1,0,3:2:0:0:
103,110,70486,1,0,3:2:0:0:
103,110,70574,1,0,3:2:0:0:
103,110,70661,1,8,3:2:0:0:
123,185,70835,1,2,3:2:0:0:
103,110,70922,1,0,3:2:0:0:
123,185,71010,1,10,0:0:0:0:
125,172,71097,1,8,0:0:0:0:
123,185,71184,1,10,0:0:0:0:
125,172,71271,1,8,0:0:0:0:
125,172,71358,1,8,0:3:0:0:
125,172,71446,1,8,0:3:0:0:
125,172,71533,1,4,0:3:0:0:
125,172,71620,1,4,0:3:0:0:
123,185,71707,1,6,3:2:0:0:
123,185,72056,1,2,3:2:0:0:
123,185,72231,1,2,0:0:0:0:
167,142,72405,1,8,0:2:0:0:
123,185,72579,1,2,0:0:0:0:
123,185,72754,1,2,0:0:0:0:
112,121,72928,1,8,0:2:0:0:
123,185,73451,1,10,0:0:0:0:
123,185,73626,1,2,0:0:0:0:
112,121,73975,1,8,0:2:0:0:
123,185,74149,1,2,0:0:0:0:
123,185,74498,1,2,3:2:0:0:
147,148,74847,1,0,3:2:0:0:
123,185,75021,1,2,0:0:0:0:
123,185,75196,1,10,0:2:0:0:
112,121,75719,1,8,0:2:0:0:
112,121,76242,1,8,0:2:0:0:
123,185,76591,1,2,0:0:0:0:
123,185,76765,1,10,0:0:0:0:
123,185,77289,1,2,3:2:0:0:
123,185,77463,1,2,0:0:0:0:
123,185,77637,1,2,3:2:0:0:
121,156,77986,1,8,0:0:0:0:
140,140,78510,1,8,0:0:0:0:
123,185,79033,1,10,0:2:0:0:
123,185,79207,1,2,0:0:0:0:
141,134,79556,1,8,0:0:0:0:
123,185,79731,1,2,0:0:0:0:
123,185,80079,1,2,3:2:0:0:
109,116,80428,1,0,3:2:0:0:
124,206,80777,1,8,0:0:0:0:
124,206,81300,1,8,0:0:0:0:
124,206,81824,1,8,0:0:0:0:
123,185,82172,1,2,0:0:0:0:
123,185,82347,1,10,0:0:0:0:
107,207,82521,1,0,3:2:0:0:
107,207,82608,1,0,3:2:0:0:
107,207,82696,1,0,3:2:0:0:
107,207,82783,1,0,3:2:0:0:
123,185,82870,1,6,3:2:0:0:
123,185,83219,1,2,3:2:0:0:
123,185,83393,1,2,0:0:0:0:
113,156,83568,1,8,0:0:0:0:
123,185,83742,1,2,0:0:0:0:
123,185,84091,1,10,0:0:0:0:
123,185,84440,1,2,0:0:0:0:
125,139,84614,1,8,0:0:0:0:
125,139,85137,1,8,0:0:0:0:
123,185,85486,1,2,0:0:0:0:
123,185,85661,1,2,3:2:0:0:
124,127,86010,1,0,3:2:0:0:
123,185,86184,1,2,0:0:0:0:
123,185,86358,1,10,0:0:0:0:
123,185,86882,1,10,0:0:0:0:
123,185,87056,1,2,0:0:0:0:
123,185,87143,1,2,0:0:0:0:
123,185,87231,1,2,0:0:0:0:
123,148,87405,1,8,0:0:0:0:
123,185,87754,1,2,0:0:0:0:
123,185,87928,1,10,0:0:0:0:
123,185,88277,1,2,0:0:0:0:
100,110,88451,1,0,3:2:0:0:
123,185,88626,1,2,0:0:0:0:
100,110,88800,1,0,3:2:0:0:
98,133,89149,1,8,0:2:0:0:
123,185,89324,1,2,0:0:0:0:
123,185,89498,1,2,0:0:0:0:
123,185,89672,1,10,0:0:0:0:
123,185,90196,1,10,0:0:0:0:
123,185,90370,1,2,0:0:0:0:
124,134,90719,1,8,0:0:0:0:
123,185,90893,1,2,0:0:0:0:
123,185,91242,1,2,3:2:0:0:
100,142,91591,1,0,3:2:0:0:
184,197,91940,1,8,0:0:0:0:
184,197,92463,1,8,0:0:0:0:
184,197,92986,1,8,0:0:0:0:
175,195,93335,1,8,0:0:0:0:
175,195,93422,1,8,0:0:0:0:
175,195,93510,1,8,0:0:0:0:
175,195,93597,1,8,0:0:0:0:
175,195,93684,1,8,0:3:0:0:
175,195,93771,1,8,0:3:0:0:
175,195,93858,1,4,0:3:0:0:
175,195,93946,1,4,0:3:0:0:
123,185,94033,1,6,3:2:0:0:
123,185,94207,1,2,0:0:0:0:
83,197,94382,1,0,3:2:0:0:
123,185,94731,1,10,0:0:0:0:
123,185,95254,1,10,0:0:0:0:
123,185,95777,1,10,0:0:0:0:
123,185,96300,1,10,0:0:0:0:
123,185,96824,1,2,3:2:0:0:
123,185,96998,1,2,0:0:0:0:
63,139,97172,1,0,3:2:0:0:
123,185,97521,1,10,0:0:0:0:
123,185,98044,1,10,0:0:0:0:
123,185,98568,1,10,0:0:0:0:
123,185,99091,1,10,0:0:0:0:
123,185,99614,1,2,3:2:0:0:
123,185,99789,1,2,0:0:0:0:
125,135,99963,1,0,3:2:0:0:
123,185,100312,1,10,0:0:0:0:
123,185,100486,1,2,0:0:0:0:
123,185,100661,1,2,0:0:0:0:
123,185,100835,1,10,0:0:0:0:
127,112,101358,1,8,0:0:0:0:
127,112,101882,1,8,0:0:0:0:
123,185,102405,1,2,3:2:0:0:
123,185,102579,1,2,0:0:0:0:
97,132,102754,1,0,3:2:0:0:
123,185,103103,1,10,0:0:0:0:
123,185,103277,1,2,0:0:0:0:
123,185,103451,1,2,0:0:0:0:
123,185,103626,1,10,0:0:0:0:
123,185,104149,1,10,0:0:0:0:
123,185,104324,1,2,0:0:0:0:
129,93,104672,1,8,0:0:0:0:
123,185,104847,1,2,3:2:0:0:
134,131,104934,1,0,3:2:0:0:
134,131,105021,1,0,3:2:0:0:
134,131,105108,1,0,3:2:0:0:
123,185,105196,1,6,3:2:0:0:
123,185,105370,1,2,0:0:0:0:
111,128,105544,1,0,3:2:0:0:
123,185,105893,1,10,0:0:0:0:
123,185,106242,1,2,0:0:0:0:
123,185,106417,1,10,0:0:0:0:
123,185,106940,1,10,0:0:0:0:
123,185,107463,1,10,0:0:0:0:
123,185,107986,1,2,3:2:0:0:
123,185,108161,1,2,0:0:0:0:
125,115,108335,1,0,3:2:0:0:
123,185,108684,1,10,0:0:0:0:
123,185,109207,1,10,0:0:0:0:
123,185,109382,1,2,0:0:0:0:
123,185,109731,1,10,0:0:0:0:
123,185,110254,1,10,0:0:0:0:
123,185,110777,1,2,3:2:0:0:
123,185,110951,1,2,0:0:0:0:
126,134,111126,1,0,3:2:0:0:
123,185,111475,1,10,0:0:0:0:
123,185,111649,1,2,0:0:0:0:
123,185,111824,1,2,0:0:0:0:
123,185,111998,1,10,0:0:0:0:
133,109,112521,1,8,0:0:0:0:
133,109,113044,1,8,0:0:0:0:
123,185,113568,1,2,3:2:0:0:
123,185,113742,1,2,0:0:0:0:
130,147,113917,1,0,3:2:0:0:
123,185,114265,1,10,0:0:0:0:
123,185,114440,1,2,0:0:0:0:
123,185,114614,1,2,0:0:0:0:
123,185,114789,1,10,0:0:0:0:
137,116,115312,1,8,0:0:0:0:
151,136,115486,1,0,3:2:0:0:
151,136,115574,1,0,3:2:0:0:
149,122,115661,1,8,0:0:0:0:
149,122,115835,1,8,0:0:0:0:
149,122,116010,1,8,0:3:0:0:
149,122,116184,1,4,0:3:0:0:
149,122,116358,1,4,3:2:0:0:
203,268,126824,5,0,3:2:0:0:
203,268,126998,1,8,0:2:0:0:
203,268,127172,1,8,3:2:0:0:
203,268,127347,1,8,3:2:0:0:
191,263,127521,1,4,3:2:0:0:
148,192,127870,1,2,3:2:0:0:
148,192,128044,1,2,3:2:0:0:
148,192,128219,1,10,0:2:0:0:
148,192,128568,1,2,3:2:0:0:
148,192,128742,1,10,0:2:0:0:
163,154,128917,1,0,3:2:0:0:
148,192,129091,1,2,0:2:0:0:
153,156,129440,1,0,3:2:0:0:
163,154,129614,1,8,0:2:0:0:
121,181,129963,1,2,3:2:0:0:
153,156,130137,1,8,0:2:0:0:
121,181,130312,1,2,3:2:0:0:
121,181,130486,1,2,0:2:0:0:
121,181,130835,1,2,0:2:0:0:
121,181,131184,1,2,0:2:0:0:
158,170,131358,1,0,3:2:0:0:
121,181,131707,1,2,0:2:0:0:
121,181,131882,1,2,0:2:0:0:
163,155,132405,1,8,0:2:0:0:
157,170,132579,1,8,0:2:0:0:
121,181,132754,1,10,3:2:0:0:
121,181,132928,1,10,3:2:0:0:
121,181,133103,1,2,3:2:0:0:
128,184,133277,1,2,0:2:0:0:
160,162,133451,1,0,3:2:0:0:
160,162,133626,1,0,3:2:0:0:
128,184,133800,1,10,0:2:0:0:
128,184,133975,1,2,0:2:0:0:
128,184,134149,1,2,3:2:0:0:
143,153,134324,1,8,0:2:0:0:
160,162,134498,1,0,3:2:0:0:
128,184,134847,1,2,0:2:0:0:
128,184,135021,1,2,0:2:0:0:
128,134,135196,1,8,0:2:0:0:
128,184,135370,1,2,0:2:0:0:
128,184,135544,1,2,3:2:0:0:
109,146,135719,1,8,0:0:0:0:
128,184,135893,1,2,3:2:0:0:
128,184,136242,1,2,3:2:0:0:
126,117,136417,1,0,3:2:0:0:
126,117,136591,1,8,0:2:0:0:
93,133,136940,1,0,3:2:0:0:
138,109,137289,1,0,3:2:0:0:
93,133,137637,1,0,3:2:0:0:
133,154,137986,1,8,0:2:0:0:
137,116,138161,1,8,0:2:0:0:
137,116,138335,1,8,3:2:0:0:
137,116,138510,1,8,3:2:0:0:
97,78,138684,1,4,3:2:0:0:
128,184,138858,1,2,0:2:0:0:
128,184,139033,1,2,3:2:0:0:
197,150,139207,1,8,0:2:0:0:
128,184,139382,1,2,3:2:0:0:
128,184,139731,1,2,3:2:0:0:
128,184,139905,1,10,0:2:0:0:
144,163,140079,1,0,3:2:0:0:
128,184,140254,1,2,0:2:0:0:
126,176,140428,1,0,3:2:0:0:
102,106,140603,1,0,3:2:0:0:
93,100,140777,1,8,0:0:0:0:
128,184,141126,1,2,3:2:0:0:
128,184,141300,1,10,0:2:0:0:
128,184,141475,1,2,3:2:0:0:
128,184,141824,1,2,3:2:0:0:
128,184,141998,1,2,0:2:0:0:
93,100,142172,1,0,3:2:0:0:
128,184,142521,1,2,3:2:0:0:
128,184,142696,1,2,0:2:0:0:
128,184,142870,1,2,3:2:0:0:
136,126,143219,1,0,3:2:0:0:
93,100,143568,1,0,3:2:0:0:
128,184,143917,1,2,3:2:0:0:
128,184,144091,1,2,0:2:0:0:
128,184,144265,1,2,3:2:0:0:
93,100,144440,1,0,3:2:0:0:
128,184,144614,1,2,3:2:0:0:
93,100,144789,1,0,3:2:0:0:
128,184,144963,1,2,3:2:0:0:
93,100,145137,1,0,3:2:0:0:
128,184,145312,1,2,3:2:0:0:
128,184,145486,1,2,3:2:0:0:
93,100,145661,1,0,3:2:0:0:
89,89,145835,1,0,3:2:0:0:
128,184,146010,1,2,3:2:0:0:
128,184,146184,1,2,3:2:0:0:
89,89,146358,1,0,3:2:0:0:
128,184,146533,1,2,3:2:0:0:
128,184,146707,1,2,3:2:0:0:
89,89,146882,1,0,3:2:0:0:
123,185,147056,5,2,3:2:0:0:
103,110,147143,1,0,3:2:0:0:
103,110,147230,1,0,3:2:0:0:
103,110,147317,1,0,3:2:0:0:
123,185,147404,1,2,3:2:0:0:
103,110,147492,1,0,3:2:0:0:
103,110,147579,1,0,3:2:0:0:
103,110,147666,1,0,3:2:0:0:
103,110,147753,1,8,3:2:0:0:
103,110,147840,1,0,3:2:0:0:
103,110,147928,1,0,3:2:0:0:
103,110,148015,1,0,3:2:0:0:
103,110,148102,1,0,3:2:0:0:
103,110,148189,1,0,3:2:0:0:
103,110,148276,1,8,3:2:0:0:
103,110,148364,1,0,3:2:0:0:
103,110,148451,1,0,3:2:0:0:
103,110,148538,1,0,3:2:0:0:
103,110,148625,1,0,3:2:0:0:
103,110,148713,1,0,3:2:0:0:
103,110,148800,1,8,3:2:0:0:
123,185,148974,1,2,3:2:0:0:
103,110,149061,1,0,3:2:0:0:
123,185,149149,1,10,0:0:0:0:
125,172,149236,1,8,0:0:0:0:
123,185,149323,1,10,0:0:0:0:
125,172,149410,1,8,0:0:0:0:
125,172,149497,1,8,0:3:0:0:
125,172,149585,1,8,0:3:0:0:
125,172,149672,1,4,0:3:0:0:
125,172,149759,1,4,0:3:0:0:
123,185,149846,1,6,3:2:0:0:
123,185,150195,1,2,3:2:0:0:
123,185,150370,1,2,0:0:0:0:
167,142,150544,1,8,0:2:0:0:
123,185,150718,1,2,0:0:0:0:
123,185,150893,1,2,0:0:0:0:
112,121,151067,1,8,0:2:0:0:
123,185,151590,1,10,0:0:0:0:
123,185,151765,1,2,0:0:0:0:
112,121,152114,1,8,0:2:0:0:
123,185,152288,1,2,0:0:0:0:
123,185,152637,1,2,3:2:0:0:
147,148,152986,1,0,3:2:0:0:
123,185,153160,1,2,0:0:0:0:
123,185,153335,1,10,0:2:0:0:
112,121,153858,1,8,0:2:0:0:
112,121,154381,1,8,0:2:0:0:
123,185,154730,1,2,0:0:0:0:
123,185,154904,1,10,0:0:0:0:
123,185,155428,1,2,3:2:0:0:
123,185,155602,1,2,0:0:0:0:
123,185,155776,1,2,3:2:0:0:
121,156,156125,1,8,0:0:0:0:
140,140,156649,1,8,0:0:0:0:
123,185,157172,1,10,0:2:0:0:
123,185,157346,1,2,0:0:0:0:
141,134,157695,1,8,0:0:0:0:
123,185,157870,1,2,0:0:0:0:
123,185,158218,1,2,3:2:0:0:
109,116,158567,1,0,3:2:0:0:
124,206,158916,1,8,0:0:0:0:
124,206,159439,1,8,0:0:0:0:
124,206,159963,1,8,0:0:0:0:
123,185,160311,1,2,0:0:0:0:
123,185,160486,1,10,0:0:0:0:
107,207,160660,1,0,3:2:0:0:
107,207,160747,1,0,3:2:0:0:
107,207,160835,1,0,3:2:0:0:
107,207,160922,1,0,3:2:0:0:
123,185,161009,1,6,3:2:0:0:
123,185,161358,1,2,3:2:0:0:
123,185,161532,1,2,0:0:0:0:
113,156,161707,1,8,0:0:0:0:
123,185,161881,1,2,0:0:0:0:
123,185,162230,1,10,0:0:0:0:
123,185,162579,1,2,0:0:0:0:
125,139,162753,1,8,0:0:0:0:
125,139,163276,1,8,0:0:0:0:
123,185,163625,1,2,0:0:0:0:
123,185,163800,1,2,3:2:0:0:
124,127,164149,1,0,3:2:0:0:
123,185,164323,1,2,0:0:0:0:
123,185,164497,1,10,0:0:0:0:
123,185,165021,1,10,0:0:0:0:
123,185,165195,1,2,0:0:0:0:
123,185,165282,1,2,0:0:0:0:
123,185,165370,1,2,0:0:0:0:
123,148,165544,1,8,0:0:0:0:
123,185,165893,1,2,0:0:0:0:
123,185,166067,1,10,0:0:0:0:
123,185,166416,1,2,0:0:0:0:
100,110,166590,1,0,3:2:0:0:
123,185,166765,1,2,0:0:0:0:
100,110,166939,1,0,3:2:0:0:
98,133,167288,1,8,0:2:0:0:
123,185,167463,1,2,0:0:0:0:
123,185,167637,1,2,0:0:0:0:
123,185,167811,1,10,0:0:0:0:
123,185,168335,1,10,0:0:0:0:
123,185,168509,1,2,0:0:0:0:
124,134,168858,1,8,0:0:0:0:
123,185,169032,1,2,0:0:0:0:
123,185,169381,1,2,3:2:0:0:
100,142,169730,1,0,3:2:0:0:
159,142,169905,1,2,0:2:0:0:
184,197,170079,1,8,0:0:0:0:
184,197,170602,1,8,0:0:0:0:
184,197,171125,1,8,0:0:0:0:
175,195,171474,1,8,0:0:0:0:
175,195,171561,1,8,0:0:0:0:
175,195,171649,1,8,0:0:0:0:
175,195,171736,1,8,0:0:0:0:
175,195,171823,1,8,0:3:0:0:
175,195,171910,1,8,0:3:0:0:
175,195,171997,1,4,0:3:0:0:
175,195,172085,1,4,0:3:0:0:
123,185,172172,1,6,3:2:0:0:
123,185,172346,1,2,0:0:0:0:
83,197,172521,1,0,3:2:0:0:
123,185,172870,1,10,0:0:0:0:
123,185,173393,1,10,0:0:0:0:
123,185,173916,1,10,0:0:0:0:
123,185,174439,1,10,0:0:0:0:
123,185,174963,1,2,3:2:0:0:
123,185,175137,1,2,0:0:0:0:
63,139,175311,1,0,3:2:0:0:
123,185,175660,1,10,0:0:0:0:
123,185,176183,1,10,0:0:0:0:
123,185,176707,1,10,0:0:0:0:
123,185,177230,1,10,0:0:0:0:
123,185,177753,1,2,3:2:0:0:
123,185,177928,1,2,0:0:0:0:
125,135,178102,1,0,3:2:0:0:
123,185,178451,1,10,0:0:0:0:
123,185,178625,1,2,0:0:0:0:
123,185,178800,1,2,0:0:0:0:
123,185,178974,1,10,0:0:0:0:
127,112,179497,1,8,0:0:0:0:
127,112,180021,1,8,0:0:0:0:
123,185,180544,1,2,3:2:0:0:
123,185,180718,1,2,0:0:0:0:
97,132,180893,1,0,3:2:0:0:
123,185,181242,1,10,0:0:0:0:
123,185,181416,1,2,0:0:0:0:
123,185,181590,1,2,0:0:0:0:
123,185,181765,1,10,0:0:0:0:
123,185,182288,1,10,0:0:0:0:
123,185,182463,1,2,0:0:0:0:
129,93,182811,1,8,0:0:0:0:
123,185,182986,1,2,3:2:0:0:
134,131,183073,1,0,3:2:0:0:
134,131,183160,1,0,3:2:0:0:
134,131,183247,1,0,3:2:0:0:
123,185,183335,1,6,3:2:0:0:
123,185,183509,1,2,0:0:0:0:
111,128,183683,1,0,3:2:0:0:
123,185,184032,1,10,0:0:0:0:
123,185,184381,1,2,0:0:0:0:
123,185,184556,1,10,0:0:0:0:
123,185,185079,1,10,0:0:0:0:
123,185,185602,1,10,0:0:0:0:
123,185,186125,1,2,3:2:0:0:
123,185,186300,1,2,0:0:0:0:
125,115,186474,1,0,3:2:0:0:
123,185,186823,1,10,0:0:0:0:
123,185,187346,1,10,0:0:0:0:
123,185,187521,1,2,0:0:0:0:
123,185,187870,1,10,0:0:0:0:
123,185,188393,1,10,0:0:0:0:
123,185,188916,1,2,3:2:0:0:
123,185,189090,1,2,0:0:0:0:
126,134,189265,1,0,3:2:0:0:
123,185,189614,1,10,0:0:0:0:
123,185,189788,1,2,0:0:0:0:
123,185,189963,1,2,0:0:0:0:
123,185,190137,1,10,0:0:0:0:
133,109,190660,1,8,0:0:0:0:
133,109,191183,1,8,0:0:0:0:
123,185,191707,1,2,3:2:0:0:
123,185,191881,1,2,0:0:0:0:
130,147,192056,1,0,3:2:0:0:
123,185,192404,1,10,0:0:0:0:
123,185,192579,1,2,0:0:0:0:
123,185,192753,1,2,0:0:0:0:
123,185,192928,1,10,0:0:0:0:
137,116,193451,1,8,0:0:0:0:
151,136,193625,1,0,3:2:0:0:
151,136,193713,1,0,3:2:0:0:
149,122,193800,1,8,0:0:0:0:
149,122,193974,1,8,0:0:0:0:
149,122,194149,1,8,0:3:0:0:
149,122,194323,1,4,0:3:0:0:
149,122,194497,1,4,3:2:0:0:
