osu file format v14

[General]
AudioFilename: audio.mp3
AudioLeadIn: 0
PreviewTime: 17192
Countdown: 0
SampleSet: Soft
StackLeniency: 0.7
Mode: 0
LetterboxInBreaks: 0
WidescreenStoryboard: 1

[Editor]
Bookmarks: 2127,2388,4475,4735,6562,6822,8648,8909,10735,10996,12822,13083,15170,16735,25605,33953,42301,50648
DistanceSpacing: 1.05
BeatDivisor: 4
GridSize: 4
TimelineZoom: 1.5

[Metadata]
Title:07734 (TV Size)
TitleUnicode:07734 (TV Size)
Artist:Kousaki Satoru, mito
ArtistUnicode:神前 暁、ミト
Creator:Chaoslitz
Version:Narkvar's Insane
Source:続・終物語
Tags:Zoku Owarimonogatari Zokuowarimonogatari Monogatari 阿良々木 暦 Araragi Koyomi Reverse 神谷 浩史 Kamiya Hiroshi MONACA クラムボン clammbon meg rock anime japanese opening op こよみリバース Narkvar GIDZ electronic
BeatmapID:2842365
BeatmapSetID:1368856

[Difficulty]
HPDrainRate:5
CircleSize:4.5
OverallDifficulty:6
ApproachRate:7
SliderMultiplier:2
SliderTickRate:1

[Events]
//Background and Video events
Video,-163,"video.avi"
0,0,"bg.jpg",0,0
//Break Periods
//Storyboard Layer 0 (Background)
//Storyboard Layer 1 (Fail)
//Storyboard Layer 2 (Pass)
//Storyboard Layer 3 (Foreground)
//Storyboard Layer 4 (Overlay)
//Storyboard Sound Samples

[TimingPoints]
562,521.739130434783,4,2,1,80,1,0
562,-100,4,2,1,80,0,0
2127,-100,4,2,1,80,0,0
2648,-100,4,2,1,80,0,0
4996,-100,4,2,1,80,0,0
6301,-100,4,2,1,80,0,0
6822,-100,4,2,1,80,0,0
8909,-100,4,2,1,90,0,0
9170,-100,4,2,3,90,0,0
10475,-100,4,2,3,90,0,0
10735,-100,4,2,3,90,0,0
12562,-100,4,2,3,90,0,0
12822,-100,4,2,3,90,0,0
13083,-100,4,2,3,95,0,0
14648,-100,4,2,3,95,0,0
14909,-100,4,2,3,95,0,0
16735,-100,4,2,10,80,0,0
16996,-100,4,2,10,10,0,0
17257,-100,4,2,2,70,0,0
20518,-100,4,2,2,10,0,0
20648,-100,4,2,2,70,0,0
21431,-100,4,2,2,70,0,0
28866,-100,4,2,2,10,0,0
28996,-100,4,2,2,70,0,0
29779,-100,4,2,2,70,0,0
31866,-100,4,2,2,70,0,0
32909,-100,4,2,2,70,0,0
33953,-100,4,2,4,80,0,1
41779,-100,4,2,10,80,0,1
42040,-100,4,2,4,80,0,1
42170,-100,4,2,4,80,0,0
42301,-100,4,2,4,90,0,1
50648,-100,4,2,4,80,0,0
55344,-100,4,2,4,85,0,0
56909,-100,4,2,4,85,0,0
57431,-100,4,2,4,90,0,0
58475,-100,4,2,4,95,0,0

[Colours]
Combo1 : 19,182,206
Combo2 : 244,151,10
Combo3 : 149,188,42
SliderBorder : 175,13,81
SliderTrackOverride : 70,173,166

[HitObjects]
45,97,301,5,12,0:0:0:0:
45,97,562,6,0,L|164:76,1,100,14|0,3:2|0:0,0:0:0:0:
201,142,953,1,2,3:2:0:0:
201,142,1083,2,0,L|255:149,1,50,0|0,0:0|0:0,0:0:0:0:
340,68,1344,2,0,L|286:75,1,50,2|0,3:2|0:0,0:0:0:0:
201,142,1735,5,2,3:2:0:0:
339,212,2127,1,0,3:0:0:0:
416,177,2388,1,0,3:0:0:0:
293,152,2648,6,0,P|264:202|280:258,1,100,0|0,3:0|0:0,0:0:0:0:
314,336,3040,1,2,3:2:0:0:
314,336,3170,2,0,P|289:323|254:322,1,50,0|0,0:0|0:0,0:0:0:0:
196,351,3431,2,0,P|171:364|136:365,1,50,0|2,3:0|0:0,0:0:0:0:
13,343,3822,5,0,3:0:0:0:
151,286,4214,1,0,3:0:0:0:
75,256,4475,1,12,3:2:0:0:
238,359,4735,6,0,L|224:246,1,100,14|0,3:2|0:0,0:0:0:0:
278,197,5127,2,0,P|316:164|374:167,1,100,2|0,3:2|0:0,0:0:0:0:
439,234,5518,2,0,L|453:121,1,100,2|0,3:2|0:0,0:0:0:0:
357,54,5909,2,0,L|371:167,1,100,2|0,3:2|0:0,0:0:0:0:
396,307,6301,5,0,3:0:0:0:
396,307,6562,1,0,3:0:0:0:
325,255,6822,6,0,L|205:237,1,100,2|0,3:2|0:0,0:0:0:0:
170,292,7214,1,2,3:2:0:0:
170,292,7344,2,0,L|109:305,1,50,0|0,0:0|0:0,0:0:0:0:
46,268,7605,1,2,3:2:0:0:
105,129,7996,5,0,3:0:0:0:
170,292,8388,1,0,3:0:0:0:
117,360,8648,1,12,3:2:0:0:
112,236,8909,6,0,P|163:211|207:221,1,100,14|0,3:2|0:0,0:0:0:0:
272,278,9301,2,0,P|343:288|379:273,1,100,10|0,3:2|0:0,0:0:0:0:
442,226,9692,2,0,L|452:123,1,100,10|0,3:2|0:0,0:0:0:0:
359,178,10083,2,0,L|355:62,1,100,10|0,3:2|0:0,0:0:0:0:
284,14,10475,2,0,L|272:75,1,50,10|0,3:2|0:0,0:0:0:0:
191,49,10735,2,0,L|204:109,1,50,10|0,3:0|0:0,0:0:0:0:
182,206,10996,6,0,P|131:230|74:212,1,100,10|0,3:2|0:0,0:0:0:0:
206,127,11388,2,0,P|252:159|265:217,1,100,10|0,3:2|0:0,0:0:0:0:
127,148,11779,2,0,P|131:91|175:51,1,100,10|0,3:2|0:0,0:0:0:0:
114,6,12170,2,0,L|230:20,1,100,10|0,3:2|0:0,0:0:0:0:
298,93,12562,2,0,L|222:101,1,50,8|0,3:2|0:0,0:0:0:0:
380,175,12822,2,0,L|330:166,1,50,10|0,3:0|0:0,0:0:0:0:
484,64,13083,6,0,L|465:177,1,100,10|0,3:2|0:0,0:0:0:0:
398,297,13475,2,0,L|381:179,1,100,10|0,3:2|0:0,0:0:0:0:
300,361,13866,2,0,L|316:253,1,100,10|0,3:2|0:0,0:0:0:0:
233,206,14257,2,0,P|186:182|117:189,1,100,10|0,3:2|0:0,0:0:0:0:
43,268,14648,2,0,P|62:248|68:214,1,50,10|0,3:2|0:0,0:0:0:0:
43,110,14909,2,0,P|50:136|77:158,1,50,10|0,3:0|0:0,0:0:0:0:
166,282,15170,5,2,0:0:0:0:
166,282,15301,1,2,0:0:0:0:
252,251,15562,1,2,0:0:0:0:
332,297,15822,1,2,0:0:0:0:
423,255,16083,1,2,0:0:0:0:
423,255,16214,1,2,0:0:0:0:
492,338,16475,1,2,0:0:0:0:
408,379,16735,6,0,L|420:279,1,100,4|0,0:2|0:0,0:0:0:0:
507,105,17257,6,0,B|438:129|438:129|314:90,1,200,8|8,0:0|0:3,0:0:0:0:
217,13,18301,6,0,L|235:136,1,100,10|0,0:3|0:0,0:0:0:0:
240,150,18692,1,0,0:0:0:0:
240,150,18822,1,8,0:3:0:0:
58,268,19344,6,0,L|86:49,1,200,10|8,0:0|0:3,0:0:0:0:
175,122,20388,6,0,L|280:97,1,100,10|2,0:3|0:0,0:0:0:0:
272,98,20909,1,8,0:3:0:0:
492,238,21431,6,0,B|431:254|431:254|378:303|378:303|304:321,1,200,10|8,0:0|0:3,0:0:0:0:
164,374,22214,1,2,0:0:0:0:
89,330,22475,2,0,L|72:228,1,100,10|0,0:3|0:0,0:0:0:0:
68,198,22866,1,2,0:0:0:0:
68,198,22996,2,0,L|47:302,1,100,10|0,0:1|0:0,0:0:0:0:
210,275,23518,6,0,B|305:298|305:298|407:255,1,200,10|8,0:0|0:3,0:0:0:0:
504,186,24562,6,0,L|374:156,1,100,10|2,0:3|0:0,0:0:0:0:
406,163,25083,1,10,0:1:0:0:
206,25,25475,5,2,0:1:0:0:
206,25,25605,2,0,L|225:188,1,150,8|0,0:0|3:0,0:0:0:0:
179,257,26127,2,0,P|130:277|78:259,1,100,8|0,0:3|0:0,0:0:0:0:
284,209,26648,6,0,L|265:328,1,100,10|0,0:3|0:0,0:0:0:0:
268,307,27170,1,8,0:3:0:0:
365,297,27692,6,0,P|419:298|463:179,1,200,10|8,0:0|0:3,0:0:0:0:
291,97,28735,6,0,L|408:75,1,100,10|2,0:3|0:0,0:0:0:0:
425,74,29127,1,2,0:0:0:0:
425,74,29257,1,8,0:3:0:0:
304,185,29779,6,0,P|225:163|214:50,1,200,10|8,0:0|0:3,0:0:0:0:
53,17,30562,1,2,0:0:0:0:
53,17,30822,2,0,P|97:45|116:97,1,100,10|2,0:3|0:0,0:0:0:0:
120,120,31214,1,2,0:3:0:0:
120,120,31344,1,8,0:0:0:0:
42,229,31866,6,2,P|47:325|142:328,1,200,2|0,0:1|0:0,0:1:0:0:
277,343,32648,5,2,0:0:0:0:
208,311,32909,2,0,L|179:193,1,100,2|0,0:0|0:0,0:0:0:0:
227,152,33301,1,0,0:0:0:0:
227,152,33431,2,0,L|220:214,1,50,2|0,0:0|0:0,0:0:0:0:
208,311,33692,2,0,P|229:298|264:288,1,50,0|0,0:0|0:0,0:0:0:0:
372,231,33953,6,0,P|423:250|484:249,1,100,14|0,3:1|0:0,0:0:0:0:
506,182,34344,2,0,P|484:125|491:61,1,100,2|0,0:0|0:0,0:0:0:0:
503,17,34735,1,10,0:1:0:0:
412,128,34996,2,0,L|297:103,1,100,2|0,3:2|0:0,0:0:0:0:
256,57,35388,2,0,L|197:70,1,50,2|8,0:0|3:2,0:0:0:0:
130,147,35779,1,0,0:0:0:0:
41,18,36040,6,0,L|24:130,1,100,8|0,3:1|0:0,0:0:0:0:
83,215,36431,1,0,0:0:0:0:
83,215,36562,2,0,P|131:229|180:213,1,100,0|8,3:0|0:1,0:0:0:0:
280,96,37083,2,0,L|263:208,1,100,0|0,3:0|0:0,0:0:0:0:
328,290,37475,1,0,0:0:0:0:
328,290,37605,2,0,P|376:304|425:288,1,100,10|2,3:2|0:0,0:0:0:0:
479,197,38127,6,0,P|449:243|445:308,1,100,10|0,3:1|0:0,0:0:0:0:
388,376,38518,2,0,P|373:322|342:269,1,100,2|0,0:0|0:0,0:0:0:0:
303,222,38909,1,10,0:1:0:0:
237,340,39170,2,0,L|126:308,1,100,2|0,3:2|0:0,0:0:0:0:
3,367,39562,2,0,B|74:355,1,50,2|8,0:0|3:2,0:0:0:0:
154,306,39953,1,0,0:0:0:0:
0,240,40214,6,0,L|118:220,1,100,8|0,3:1|0:0,0:0:0:0:
177,188,40605,1,0,0:0:0:0:
177,188,40735,2,0,B|187:149|187:149|164:86,1,100,0|8,3:0|0:1,0:0:0:0:
84,30,41257,6,0,B|74:69|74:69|97:132,1,100,0|0,3:0|0:0,0:0:0:0:
177,188,41648,1,0,0:0:0:0:
177,188,41779,2,0,L|295:168,1,100,14|2,3:2|0:0,0:0:0:0:
483,293,42301,6,0,P|437:278|369:288,1,100,14|0,3:1|0:0,0:0:0:0:
316,348,42692,2,0,L|301:293,1,50,2|8,0:0|3:0,0:0:0:0:
279,197,43083,1,10,0:1:0:0:
227,340,43344,2,0,P|176:348|121:313,1,100,2|0,3:2|0:0,0:0:0:0:
62,236,43735,2,0,L|51:295,1,50,2|8,0:0|3:2,0:0:0:0:
34,384,44127,1,0,0:0:0:0:
185,269,44388,6,0,L|172:144,1,100,8|0,3:1|0:0,0:0:0:0:
96,123,44779,1,0,0:0:0:0:
100,127,44909,2,0,L|225:114,1,100,8|8,3:0|0:1,0:0:0:0:
240,37,45431,6,0,L|253:162,1,100,0|0,3:0|0:0,0:0:0:0:
324,180,45822,1,8,0:1:0:0:
324,180,45953,2,0,L|199:193,1,100,10|2,3:2|0:0,0:0:0:0:
130,326,46475,6,0,P|177:348|228:336,1,100,10|0,3:1|0:0,0:0:0:0:
292,294,46866,2,0,L|352:284,1,50,2|8,0:0|3:0,0:0:0:0:
444,346,47257,1,10,0:1:0:0:
466,167,47518,6,0,L|453:277,1,100,2|0,3:2|0:0,0:0:0:0:
363,365,47909,2,0,L|350:304,1,50,2|8,0:0|3:2,0:0:0:0:
331,201,48301,1,10,0:1:0:0:
232,274,48562,6,0,P|193:240|140:235,1,100,0|0,3:0|0:0,0:0:0:0:
92,279,48953,1,0,0:0:0:0:
92,279,49083,2,0,P|118:230|114:168,1,100,8|8,3:0|0:1,0:0:0:0:
36,125,49605,6,0,P|75:91|128:86,1,100,0|0,3:0|0:0,0:0:0:0:
190,139,49996,1,0,0:0:0:0:
190,139,50127,2,0,L|258:121,2,50,8|8|8,3:2|0:0|0:1,0:0:0:0:
366,35,50648,6,0,L|481:63,1,100,14|0,3:1|0:0,0:0:0:0:
512,121,51170,2,0,L|397:149,1,100,10|0,3:1|0:0,0:0:0:0:
326,198,51692,2,0,L|441:226,1,100,10|0,3:1|0:0,0:0:0:0:
478,324,52214,1,10,3:1:0:0:
385,343,52475,1,0,0:0:0:0:
268,258,52735,6,0,P|243:215|255:153,1,100,10|0,3:1|0:0,0:0:0:0:
302,91,53127,1,0,0:0:0:0:
314,84,53257,2,0,L|206:70,1,100,10|0,3:1|0:0,0:0:0:0:
122,176,53779,2,0,L|227:163,1,100,10|0,3:1|0:0,0:0:0:0:
118,82,54170,1,0,0:0:0:0:
109,73,54301,2,0,L|1:59,1,100,10|0,3:1|0:0,0:0:0:0:
26,208,54822,6,0,L|51:309,1,100,10|8,3:1|0:1,0:0:0:0:
130,359,55344,1,10,3:1:0:0:
204,309,55605,1,8,0:1:0:0:
284,356,55866,1,10,3:1:0:0:
369,301,56127,1,8,0:1:0:0:
369,301,56257,1,0,0:0:0:0:
369,301,56388,2,0,L|479:291,1,100,10|8,3:1|0:1,0:0:0:0:
498,166,56909,5,8,3:1:0:0:
448,158,57040,1,8,0:1:0:0:
399,150,57170,1,8,0:1:0:0:
349,143,57301,1,8,0:1:0:0:
300,135,57431,2,0,L|275:192,1,50,10|8,3:1|0:1,0:0:0:0:
220,269,57692,2,0,L|205:211,1,50,8|8,0:1|0:1,0:0:0:0:
130,47,57953,5,10,3:1:0:0:
73,31,58083,1,8,0:1:0:0:
28,65,58214,1,8,0:1:0:0:
28,121,58344,1,8,0:1:0:0:
69,157,58475,1,10,3:1:0:0:
125,148,58605,1,8,0:1:0:0:
151,98,58735,1,10,0:1:0:0:
130,47,58866,1,8,0:1:0:0:
