osu file format v14

[General]
AudioFilename: audio.mp3
AudioLeadIn: 0
PreviewTime: 17192
Countdown: 0
SampleSet: Soft
StackLeniency: 0.7
Mode: 0
LetterboxInBreaks: 0
WidescreenStoryboard: 0

[Editor]
Bookmarks: 2127,2388,4475,4735,6562,6822,8648,8909,10735,10996,12822,13083,15170,16735,25605,33953,42301,50648,55605
DistanceSpacing: 0.5
BeatDivisor: 8
GridSize: 32
TimelineZoom: 2.5

[Metadata]
Title:07734 (TV Size)
TitleUnicode:07734 (TV Size)
Artist:Kousaki Satoru, mito
ArtistUnicode:神前 暁、ミト
Creator:Chaoslitz
Version:GIDZ's Insane
Source:続・終物語
Tags:Zoku Owarimonogatari Zokuowarimonogatari Monogatari 阿良々木 暦 Araragi Koyomi Reverse 神谷 浩史 Kamiya Hiroshi MONACA クラムボン clammbon meg rock anime japanese opening op こよみリバース Narkvar GIDZ electronic
BeatmapID:2888377
BeatmapSetID:1368856

[Difficulty]
HPDrainRate:4.8
CircleSize:3.5
OverallDifficulty:6
ApproachRate:8
SliderMultiplier:1.8
SliderTickRate:1

[Events]
//Background and Video events
Video,-163,"video.avi"
0,0,"bg.jpg",0,0
//Break Periods
//Storyboard Layer 0 (Background)
//Storyboard Layer 1 (Fail)
//Storyboard Layer 2 (Pass)
//Storyboard Layer 3 (Foreground)
//Storyboard Layer 4 (Overlay)
//Storyboard Sound Samples

[TimingPoints]
562,521.739130434783,4,2,1,80,1,0
953,-125,4,2,1,80,0,0
1344,-100,4,2,1,80,0,0
1735,-125,4,2,1,80,0,0
3040,-100,4,2,1,80,0,0
3431,-125,4,2,1,80,0,0
4475,-100,4,2,1,80,0,0
5127,-125,4,2,1,80,0,0
5518,-100,4,2,1,80,0,0
5909,-125,4,2,1,80,0,0
6301,-100,4,2,1,80,0,0
7996,-125,4,2,1,80,0,0
8388,-100,4,2,1,80,0,0
8909,-100,4,2,1,90,0,0
9170,-100,4,2,3,90,0,0
9235,-100,4,2,3,90,0,0
9301,-100,4,2,3,90,0,0
9627,-100,4,2,3,90,0,0
9692,-100,4,2,3,90,0,0
10018,-100,4,2,3,90,0,0
10083,-100,4,2,3,90,0,0
10409,-100,4,2,3,90,0,0
10475,-83.3333333333333,4,2,3,90,0,0
10996,-100,4,2,3,90,0,0
11322,-100,4,2,3,90,0,0
11388,-100,4,2,3,90,0,0
11714,-100,4,2,3,90,0,0
11779,-100,4,2,3,90,0,0
12105,-100,4,2,3,90,0,0
12170,-100,4,2,3,90,0,0
12496,-100,4,2,3,90,0,0
12562,-83.3333333333333,4,2,3,90,0,0
13083,-83.3333333333333,4,2,3,95,0,0
13214,-100,4,2,3,95,0,0
13801,-100,4,2,3,95,0,0
13866,-100,4,2,3,95,0,0
14192,-100,4,2,3,95,0,0
14257,-100,4,2,3,95,0,0
14583,-100,4,2,3,95,0,0
14648,-83.3333333333333,4,2,3,95,0,0
16475,-125,4,2,3,95,0,0
16735,-83.3333333333333,4,2,10,80,0,0
17257,-100,4,2,2,70,0,0
20518,-100,4,2,2,10,0,0
20648,-100,4,2,2,70,0,0
28866,-100,4,2,2,10,0,0
28996,-100,4,2,2,70,0,0
31866,-166.666666666667,4,2,2,70,0,0
32909,-125,4,2,2,70,0,0
33431,-83.3333333333333,4,2,2,70,0,0
33953,-100,4,2,4,80,0,1
41779,-83.3333333333333,4,2,10,80,0,1
42040,-83.3333333333333,4,2,4,80,0,1
42170,-100,4,2,4,80,0,0
42301,-83.3333333333333,4,2,4,90,0,1
50648,-100,4,2,4,80,0,0
50844,-100,4,2,4,80,0,0
50909,-100,4,2,4,80,0,0
51040,-100,4,2,4,80,0,0
51170,-100,4,2,4,80,0,0
51366,-100,4,2,4,80,0,0
51431,-100,4,2,4,80,0,0
51562,-100,4,2,4,80,0,0
51692,-100,4,2,4,80,0,0
52931,-100,4,2,4,80,0,0
52996,-100,4,2,4,80,0,0
53127,-100,4,2,4,80,0,0
53257,-100,4,2,4,80,0,0
53453,-100,4,2,4,80,0,0
53518,-100,4,2,4,80,0,0
53648,-100,4,2,4,80,0,0
53779,-100,4,2,4,80,0,0
55018,-100,4,2,4,80,0,0
55083,-100,4,2,4,80,0,0
55279,-100,4,2,4,80,0,0
55344,-100,4,2,4,85,0,0
55540,-100,4,2,4,85,0,0
55605,-100,4,2,4,85,0,0
55866,-100,4,2,4,85,0,0
56062,-100,4,2,4,85,0,0
56127,-100,4,2,4,85,0,0
56322,-100,4,2,4,85,0,0
56388,-100,4,2,4,85,0,0
56583,-100,4,2,4,85,0,0
56648,-100,4,2,4,85,0,0
56909,-100,4,2,4,85,0,0
57431,-100,4,2,4,90,0,0
58475,-100,4,2,4,95,0,0

[Colours]
Combo1 : 19,182,206
Combo2 : 244,151,10
Combo3 : 149,188,42
SliderBorder : 175,13,81
SliderTrackOverride : 70,173,166

[HitObjects]
53,234,301,6,0,P|77:226|66:209,1,45,0|0,0:0|0:0,0:0:0:0:
89,140,562,6,0,B|118:138|135:162|135:162|157:163|173:147,1,90,14|0,3:2|0:0,0:0:0:0:
226,46,953,2,0,P|187:49|165:80,1,72,2|0,3:2|0:0,0:0:0:0:
245,132,1344,2,0,P|294:119|293:68,1,90,2|0,3:2|0:0,0:0:0:0:
168,150,1735,2,0,P|166:192|188:221,1,72,2|0,3:2|0:0,0:0:0:0:
262,227,2127,5,0,3:0:0:0:
298,207,2257,1,0,0:0:0:0:
339,206,2388,1,0,3:0:0:0:
376,223,2518,1,0,0:0:0:0:
402,252,2648,6,0,P|414:296|399:334,1,72,0|0,3:0|0:0,0:0:0:0:
333,325,3040,2,0,P|281:310|242:341,1,90,2|0,3:2|0:0,0:0:0:0:
191,370,3431,2,0,P|160:363|150:320,1,72,0|0,3:0|0:0,0:0:0:0:
183,257,3822,1,0,3:0:0:0:
173,243,3953,1,0,0:0:0:0:
18,184,4214,1,0,3:0:0:0:
198,136,4475,6,0,P|209:156|232:142,1,45,12|0,3:2|0:0,0:0:0:0:
294,100,4735,6,0,B|322:87|322:87|306:166,1,90,14|0,3:2|0:0,0:0:0:0:
319,239,5127,2,0,P|368:209|391:216,1,72,2|0,3:2|0:0,0:0:0:0:
400,308,5518,2,0,P|353:332|304:312,1,90,2|0,3:2|0:0,0:0:0:0:
227,215,5909,2,0,P|227:166|232:129,1,72,2|0,3:2|0:0,0:0:0:0:
338,144,6301,2,0,P|345:174|348:207,1,45,0|0,3:0|0:0,0:0:0:0:
252,291,6562,2,0,P|222:298|189:300,1,45,0|0,3:0|0:0,0:0:0:0:
115,155,6822,6,0,B|148:147|148:147|134:211,1,90,2|0,3:2|0:0,0:0:0:0:
121,325,7214,1,2,3:2:0:0:
121,325,7344,2,0,B|104:322|104:322|119:283,1,45,0|0,0:0|0:0,0:0:0:0:
207,299,7605,2,0,B|228:287|250:304|254:297|280:316|300:302,1,90,2|0,3:2|0:0,0:0:0:0:
390,243,7996,2,0,P|359:220|317:233,1,72,0|0,3:0|0:0,0:0:0:0:
379,334,8388,2,0,P|409:342|439:334,1,45,0|0,3:0|0:0,0:0:0:0:
482,227,8648,2,0,P|492:194|486:168,1,45,12|0,3:2|0:0,0:0:0:0:
337,130,8909,6,0,B|309:148|306:180|306:180|336:212|325:244,1,112.5,14|0,3:2|0:0,0:0:0:0:
326,236,9301,2,0,P|263:227|195:220,1,112.5,10|0,3:2|0:0,0:0:0:0:
197,223,9692,2,0,B|181:210|178:178|178:178|208:146|197:114,1,112.5,10|0,3:2|0:0,0:0:0:0:
197,110,10083,2,0,P|134:119|69:126,1,112.5,10|0,3:2|0:0,0:0:0:0:
24,186,10475,6,0,P|54:207|93:203,1,53.9999983520508,10|0,3:2|0:0,0:0:0:0:
100,341,10735,2,0,P|123:309|121:278,1,53.9999983520508,10|0,3:0|0:0,0:0:0:0:
197,223,10996,6,0,B|228:232|253:207|253:207|284:202|311:227,1,112.5,10|0,3:2|0:0,0:0:0:0:
306,229,11388,2,0,P|319:291|326:356,1,112.5,10|0,3:2|0:0,0:0:0:0:
338,349,11779,2,0,B|368:352|393:327|393:327|424:322|451:347,1,112.5,10|0,3:2|0:0,0:0:0:0:
452,344,12171,2,0,P|465:282|473:215,1,112.5,10|0,3:2|0:0,0:0:0:0:
432,140,12562,6,0,P|407:149|391:171,1,53.9999983520508,8|0,3:2|0:0,0:0:0:0:
259,84,12822,2,0,P|287:110|291:141,1,53.9999983520508,10|0,3:0|0:0,0:0:0:0:
223,236,13083,5,10,3:2:0:0:
171,179,13214,2,0,P|195:162|226:161,1,45,2|0,0:0|0:0,0:0:0:0:
309,319,13475,2,0,B|273:298|257:320|251:311|231:333|197:311,1,112.5,10|0,3:2|0:0,0:0:0:0:
187,304,13866,2,0,P|125:294|87:338,1,112.5,10|0,3:2|0:0,0:0:0:0:
77,333,14257,2,0,P|52:290|53:218,1,112.5,10|0,3:2|0:0,0:0:0:0:
126,129,14648,6,0,P|151:155|157:185,1,53.9999983520508,10|0,3:2|0:0,0:0:0:0:
282,211,14909,2,0,P|275:254|253:276,1,53.9999983520508,10|0,3:0|0:0,0:0:0:0:
184,338,15170,5,2,0:0:0:0:
169,344,15301,1,2,0:0:0:0:
125,239,15562,1,2,0:0:0:0:
234,137,15822,1,2,0:0:0:0:
91,89,16083,1,2,0:0:0:0:
94,106,16214,1,2,0:0:0:0:
177,86,16475,2,0,P|188:69|217:64,1,36,0|0,0:0|0:0,0:0:0:0:
307,121,16735,6,0,B|302:139|313:157|313:157|356:116|356:116|341:82|288:59,1,161.999995056153,4|0,0:2|0:0,0:0:0:0:
232,160,17257,6,0,B|212:161|195:180|195:180|175:162|151:163,1,90,8|0,0:0|0:0,0:0:0:0:
134,161,17648,1,0,0:0:0:0:
121,171,17779,1,8,0:3:0:0:
121,171,18301,6,0,P|133:207|133:219,1,45,10|0,0:3|0:0,0:0:0:0:
20,296,18562,2,0,P|55:284|119:293,1,90,0|8,0:0|0:3,0:0:0:0:
107,288,19344,6,0,B|150:286|150:286|153:291|153:291|209:289,1,90,10|0,0:0|0:0,0:0:0:0:
212,289,19735,1,0,0:0:0:0:
233,292,19866,1,8,0:3:0:0:
233,292,20388,6,0,P|246:306|276:290,1,45,10|0,0:3|0:0,0:0:0:0:
421,232,20648,2,0,P|414:211|394:213,1,45,2|2,0:0|0:0,0:0:0:0:
306,223,20909,1,8,0:3:0:0:
306,223,21431,6,0,B|316:192|304:178|304:178|314:167|314:167|299:146|310:122,1,90,10|0,0:0|0:0,0:0:0:0:
305,122,21822,1,0,0:0:0:0:
305,103,21953,1,8,0:3:0:0:
133,45,22214,6,0,L|134:94,1,45,2|0,0:0|0:0,0:0:0:0:
135,126,22475,1,10,0:3:0:0:
180,215,22735,2,0,P|139:229|89:214,1,90,0|10,0:0|0:1,0:0:0:0:
94,217,23518,6,0,B|94:317,1,90,10|0,0:0|0:0,0:0:0:0:
112,308,23909,1,0,0:0:0:0:
133,312,24040,1,8,0:3:0:0:
133,312,24562,6,0,L|155:252,1,45,10|0,0:3|0:0,0:0:0:0:
292,197,24822,2,0,L|268:253,1,45,2|0,0:0|0:0,0:0:0:0:
262,335,25083,2,0,B|298:319|298:319|354:341|354:341|403:329,1,135,10|2,0:1|0:1,0:0:0:0:
475,174,25605,6,0,P|423:152|383:171,1,90,8|0,0:0|0:0,0:0:0:0:
386,178,25996,1,0,3:0:0:0:
387,196,26127,1,8,0:3:0:0:
274,238,26388,1,0,0:0:0:0:
363,85,26648,6,0,P|367:66|366:39,1,45,10|0,0:3|0:0,0:0:0:0:
279,55,26909,2,0,L|180:48,1,90,0|8,0:0|0:3,0:0:0:0:
274,238,27431,1,0,0:0:0:0:
203,337,27692,6,0,P|148:357|109:337,1,90,10|0,0:0|0:0,0:0:0:0:
106,336,28083,1,0,0:0:0:0:
98,319,28214,1,8,0:3:0:0:
187,221,28475,1,0,0:0:0:0:
85,185,28735,6,0,L|82:125,1,45,10|0,0:3|0:0,0:0:0:0:
189,50,28996,2,0,L|192:112,1,45,2|2,0:0|0:0,0:0:0:0:
187,221,29257,1,8,0:3:0:0:
92,287,29518,1,0,0:0:0:0:
53,110,29779,6,0,B|85:88|85:88|82:154,1,90,10|0,0:0|0:0,0:0:0:0:
83,157,30170,1,0,3:0:0:0:
83,175,30301,1,8,0:3:0:0:
187,221,30562,1,2,0:0:0:0:
203,337,30822,5,10,0:3:0:0:
281,268,31083,1,2,0:0:0:0:
281,268,31214,2,0,P|315:244|368:257,1,90,2|0,0:3|0:0,0:0:0:0:
385,277,31605,1,0,0:0:0:0:
486,186,31866,6,0,P|434:190|391:160,1,107.999996704102,2|0,0:1|0:1,0:0:0:0:
295,110,32648,2,0,L|287:166,1,53.9999983520508,2|0,0:0|0:0,0:0:0:0:
201,228,33040,6,0,L|205:185,1,36,2|0,0:3|0:0,0:0:0:0:
158,120,33301,1,0,0:0:0:0:
158,120,33431,2,0,P|71:144|67:227,1,161.999995056153,2|0,0:0|0:0,0:0:0:0:
138,365,33953,6,0,L|239:354,1,90,14|0,3:1|0:0,0:0:0:0:
319,321,34344,2,0,P|295:267|253:257,1,90,2|0,0:0|0:0,0:0:0:0:
178,268,34735,2,0,L|116:263,1,45,10|0,0:1|0:0,0:0:0:0:
249,173,34996,2,0,P|271:218|262:273,1,90,2|0,3:2|0:0,0:0:0:0:
319,321,35388,2,0,L|358:314,2,22.5,2|0|8,0:0|0:0|3:2,0:0:0:0:
385,222,35779,1,0,0:0:0:0:
435,127,36040,6,0,B|472:118|472:118|451:149|443:183,1,90,8|0,3:1|0:0,0:0:0:0:
385,222,36431,1,0,0:0:0:0:
367,214,36562,2,0,P|342:204|309:201,1,45,0|0,3:0|0:0,0:0:0:0:
239,213,36822,1,8,0:1:0:0:
201,104,37083,2,0,P|167:123|207:130,1,90,0|0,3:0|0:0,0:0:0:0:
282,130,37475,2,0,P|303:125|321:127,2,22.5,0|0|10,0:0|0:0|3:2,0:0:0:0:
117,212,37866,1,2,0:0:0:0:
162,335,38127,6,0,P|222:307|260:313,1,90,10|0,3:1|0:0,0:0:0:0:
354,356,38518,2,0,B|327:351|327:351|321:318|353:290,1,90,2|0,0:0|0:0,0:0:0:0:
456,243,38909,2,0,L|404:235,1,45,10|0,0:1|0:0,0:0:0:0:
267,225,39170,2,0,P|312:212|321:165,1,90,2|0,3:2|0:0,0:0:0:0:
389,123,39562,2,0,P|400:141|401:163,2,22.5,2|0|8,0:0|0:0|3:2,0:0:0:0:
275,40,39953,1,0,0:0:0:0:
183,169,40214,6,0,P|202:129|229:160,1,90,8|0,3:1|0:0,0:0:0:0:
265,280,40605,1,0,0:0:0:0:
251,270,40735,2,0,P|213:255|192:255,1,45,0|0,3:0|0:0,0:0:0:0:
351,327,40996,2,0,P|389:312|410:313,1,45,8|0,0:1|0:0,0:0:0:0:
155,331,41257,6,0,P|121:295|127:238,1,90,0|0,3:0|0:0,0:0:0:0:
123,220,41648,1,0,0:0:0:0:
74,156,41779,2,0,B|122:135|122:135|173:155|173:155|233:138,1,161.999995056153,14|0,3:2|0:0,0:0:0:0:
436,103,42301,6,0,P|387:115|336:81,1,107.999996704102,14|0,3:1|0:0,0:0:0:0:
319,48,42692,1,2,0:0:0:0:
191,18,42822,2,0,P|181:40|187:86,1,53.9999983520508,8|0,3:0|0:0,0:0:0:0:
225,140,43083,2,0,P|264:161|294:161,1,53.9999983520508,10|0,0:1|0:0,0:0:0:0:
416,200,43344,6,0,P|353:241|352:288,1,107.999996704102,2|0,3:2|0:0,0:0:0:0:
418,325,43735,2,0,L|453:324,2,26.9999991760254,2|0|8,0:0|0:0|3:2,0:0:0:0:
275,326,44127,1,0,0:0:0:0:
275,326,44388,6,0,L|142:318,1,107.999996704102,8|0,3:1|0:0,0:0:0:0:
123,315,44779,1,0,0:0:0:0:
64,219,44909,2,0,P|87:186|84:149,1,53.9999983520508,8|0,3:0|0:0,0:0:0:0:
109,82,45170,2,0,P|142:105|176:101,1,53.9999983520508,8|0,0:1|0:0,0:0:0:0:
272,162,45431,6,0,P|237:135|247:186,1,107.999996704102,0|0,3:0|0:0,0:0:0:0:
297,241,45822,2,0,P|315:231|337:230,2,26.9999991760254,8|0|10,0:1|0:0|3:2,0:0:0:0:
205,334,46214,1,2,0:0:0:0:
391,303,46475,6,0,B|392:267|416:252|416:252|416:221|392:192,1,107.999996704102,10|0,3:1|0:0,0:0:0:0:
376,170,46866,1,2,0:0:0:0:
319,84,46996,2,0,P|311:46|323:18,1,53.9999983520508,8|0,0:0|0:0,0:0:0:0:
434,17,47257,2,0,P|442:48|433:78,1,53.9999983520508,10|0,0:1|0:0,0:0:0:0:
217,191,47518,2,0,P|317:167|392:172,2,161.999995056153,2|2|10,3:2|0:0|0:1,0:0:0:0:
194,331,48562,6,0,P|123:312|71:308,1,107.999996704102,0|0,3:0|0:0,0:0:0:0:
46,316,48953,1,0,0:0:0:0:
0,244,49083,2,0,P|-10:196|37:210,1,107.999996704102,8|8,3:0|0:1,0:0:0:0:
70,224,49475,1,0,0:0:0:0:
156,195,49605,2,0,P|120:149|73:133,1,107.999996704102,0|0,3:0|0:0,0:0:0:0:
84,19,50127,5,8,3:2:0:0:
142,58,50257,1,8,0:0:0:0:
192,8,50388,1,8,0:1:0:0:
307,90,50648,6,0,P|258:84|229:83,1,67.5,14|0,3:1|0:0,0:0:0:0:
232,91,50909,2,0,P|242:126|245:152,1,45,0|0,0:0|0:0,0:0:0:0:
219,237,51170,2,0,P|263:230|302:228,1,67.5,10|0,3:1|0:0,0:0:0:0:
297,227,51431,2,0,P|287:262|286:290,1,45,0|0,0:0|0:0,0:0:0:0:
348,351,51692,6,0,P|380:301|421:310,1,90,10|0,3:1|0:0,0:0:0:0:
434,323,52083,1,0,0:0:0:0:
488,247,52214,2,0,P|456:196|420:197,1,90,10|0,3:1|0:0,0:0:0:0:
474,88,52735,6,0,P|425:94|392:96,1,67.5,10|0,3:1|0:0,0:0:0:0:
395,96,52996,2,0,P|405:61|406:35,1,45,0|0,0:0|0:0,0:0:0:0:
308,24,53257,2,0,P|263:15|224:19,1,67.5,10|0,3:1|0:0,0:0:0:0:
231,20,53518,2,0,P|241:55|242:82,1,45,0|0,0:0|0:0,0:0:0:0:
96,135,53779,6,0,P|135:116|186:144,1,90,10|0,3:1|0:0,0:0:0:0:
186,167,54170,1,0,0:0:0:0:
336,177,54301,2,0,P|296:139|248:153,1,90,10|0,3:1|0:0,0:0:0:0:
468,357,54822,6,0,P|497:312|498:281,1,67.5,10|0,3:1|0:0,0:0:0:0:
505,282,55083,2,0,P|493:229|472:207,1,67.5,8|0,0:1|0:0,0:0:0:0:
482,201,55344,2,0,P|437:171|406:170,1,67.5,10|0,3:1|0:0,0:0:0:0:
406,171,55605,1,8,0:1:0:0:
304,256,55866,6,0,B|285:285|285:285|250:273,1,67.5,10|0,3:1|0:0,0:0:0:0:
236,278,56127,2,0,B|202:285|202:285|185:251,1,67.5,8|0,0:1|0:0,0:0:0:0:
170,248,56388,2,0,B|141:228|141:228|153:194,1,67.5,10|0,3:1|0:0,0:0:0:0:
146,180,56648,1,8,0:1:0:0:
219,87,56909,5,8,3:1:0:0:
262,97,57040,1,8,0:1:0:0:
302,77,57170,1,8,0:1:0:0:
323,37,57301,1,8,0:1:0:0:
357,8,57431,1,10,3:1:0:0:
401,3,57562,1,8,0:1:0:0:
444,14,57692,1,8,0:1:0:0:
480,40,57822,1,8,0:1:0:0:
502,119,57953,6,0,L|494:166,1,45,10|8,3:1|0:1,0:0:0:0:
399,170,58214,2,0,L|407:217,1,45,8|8,0:1|0:1,0:0:0:0:
512,249,58475,2,0,L|504:296,1,45,10|8,3:1|0:1,0:0:0:0:
410,306,58735,2,0,L|418:353,1,45,10|8,3:1|0:1,0:0:0:0:
