osu file format v14

[General]
AudioFilename: audio.mp3
AudioLeadIn: 0
PreviewTime: -1
Countdown: 1
SampleSet: Soft
StackLeniency: 0.7
Mode: 0
LetterboxInBreaks: 0
WidescreenStoryboard: 0

[Editor]
DistanceSpacing: 1
BeatDivisor: 4
GridSize: 4
TimelineZoom: 1

[Metadata]
Title:Koyomi-Oniichan
TitleUnicode:Koyomi-Oniichan
Artist:Kousaki Satoru
ArtistUnicode:Kousaki Satoru
Creator:Sonix
Version:Zzz
Source:
Tags:
BeatmapID:1327735
BeatmapSetID:629054

[Difficulty]
HPDrainRate:5
CircleSize:4.2
OverallDifficulty:6
ApproachRate:6
SliderMultiplier:2.1
SliderTickRate:1

[Events]
//Background and Video events
0,0,"nisemonogatari_06a.jpg",0,0
//Break Periods
//Storyboard Layer 0 (Background)
//Storyboard Layer 1 (Fail)
//Storyboard Layer 2 (Pass)
//Storyboard Layer 3 (Foreground)
//Storyboard Sound Samples

[TimingPoints]
540,750,4,2,0,30,1,0

[Colours]
Combo1 : 128,0,0
Combo2 : 0,255,168
Combo3 : 255,128,0

[HitObjects]
232,248,540,6,0,L|120:236,1,105
196,156,1290,2,0,P|224:96|216:52,1,105
116,88,2040,1,0,0:0:0:0:
324,96,2790,6,0,B|368:96|368:96|392:104|392:104|448:104,1,105
352,176,3540,2,0,P|332:240|352:304,1,105
440,240,4290,1,0,0:0:0:0:
288,92,5040,5,0,0:0:0:0:
244,188,5415,1,0,0:0:0:0:
304,276,5790,1,0,0:0:0:0:
348,180,6165,1,0,0:0:0:0:
200,280,6540,6,0,P|104:264|88:196,1,157.5
162,212,7290,1,0,0:0:0:0:
204,116,7665,5,0,0:0:0:0:
300,160,8040,2,0,P|396:144|412:76,1,157.5
338,92,8790,1,0,0:0:0:0:
236,108,9165,6,0,L|120:92,1,105
277,33,10102,5,0,0:0:0:0:
284,37,10290,2,0,P|318:83|312:144,1,105
283,228,11040,1,0,0:0:0:0:
81,104,12540,6,0,L|66:214,1,105
163,168,13290,2,0,P|247:151|284:167,1,105
224,255,14040,1,0,0:0:0:0:
428,207,14790,6,0,P|436:121|416:86,1,105
335,153,15540,2,0,P|249:161|214:141,1,105
141,105,16290,1,0,0:0:0:0:
349,78,17040,5,0,0:0:0:0:
406,166,17415,1,0,0:0:0:0:
301,169,17790,2,0,P|254:122|246:78,1,105
406,166,18540,6,0,P|376:247|301:275,1,157.5
262,268,19290,2,0,P|179:257|155:265,1,105
100,348,20040,6,0,P|64:306|73:204,1,157.5
97,163,20790,1,0,0:0:0:0:
201,164,21165,6,0,P|274:139|296:108,1,105
165,23,22102,1,0,0:0:0:0:
154,23,22290,2,0,P|81:48|59:79,1,105
151,128,23040,1,0,0:0:0:0:
151,128,24540,5,0,0:0:0:0:
359,154,25290,1,0,0:0:0:0:
233,322,26040,1,0,0:0:0:0:
151,128,26790,1,0,0:0:0:0:
359,154,27540,6,0,L|470:164,1,105
398,245,28290,2,0,L|287:235,1,105
275,338,29040,2,0,P|149:332|81:249,1,210
214,197,30165,5,0,0:0:0:0:
307,77,30540,2,0,P|364:189|326:289,1,210
64,179,32040,6,0,P|132:72|238:55,1,210
336,185,33540,6,0,P|400:185|438:167,1,105
370,86,34290,2,0,P|306:86|268:104,1,105
184,165,35040,1,0,0:0:0:0:
184,165,36540,5,0,0:0:0:0:
245,365,37290,1,0,0:0:0:0:
446,304,38040,1,0,0:0:0:0:
384,102,38790,1,0,0:0:0:0:
314,300,39540,6,0,P|376:321|421:310,1,105
376,215,40290,1,0,0:0:0:0:
465,269,40665,1,0,0:0:0:0:
473,164,41040,2,0,P|418:113|289:149,1,210
465,269,42165,5,0,0:0:0:0:
310,268,42540,2,0,P|223:249|162:141,1,210
370,180,44040,2,0,P|397:264|334:371,1,210
267,169,45540,1,0,0:0:0:0:
324,80,46290,1,0,0:0:0:0:
428,73,47040,1,0,0:0:0:0:
428,73,48165,5,0,0:0:0:0:
435,80,48352,1,0,0:0:0:0:
442,87,48540,2,0,P|473:169|445:246,1,157.5
402,223,49290,2,0,P|333:206|299:215,1,105
344,309,50040,2,0,P|261:311|200:250,1,157.5
300,132,51165,5,0,0:0:0:0:
290,126,51352,1,0,0:0:0:0:
280,121,51540,2,0,P|195:102|121:128,1,157.5
136,174,52290,2,0,P|154:237|141:275,1,105
54,330,53040,2,0,P|119:373|217:345,1,157.5
252,152,54165,6,0,L|329:158,1,52.5
312,104,54540,2,0,P|387:121|418:200,1,157.5
419,241,55290,1,0,0:0:0:0:
334,187,55665,5,0,0:0:0:0:
329,289,56040,2,0,P|299:359|216:376,1,157.5
176,371,56790,1,0,0:0:0:0:
244,297,57165,5,0,0:0:0:0:
142,271,57540,2,0,P|120:217|142:114,1,157.5
189,129,58290,2,0,P|262:133|301:118,1,105
387,80,59040,1,0,0:0:0:0:
387,80,60165,5,0,0:0:0:0:
382,89,60352,1,0,0:0:0:0:
377,98,60540,2,0,P|373:203|420:253,1,157.5
445,270,61290,2,0,P|464:331|451:382,1,105
358,330,62040,2,0,P|268:300|205:320,1,157.5
288,203,63165,6,0,L|301:146,1,52.5
247,150,63540,2,0,P|222:105|279:17,1,157.5
320,6,64290,1,0,0:0:0:0:
299,93,64665,1,0,0:0:0:0:
432,54,65040,2,0,P|466:122|463:207,1,157.5
309,174,66165,5,0,0:0:0:0:
299,170,66352,1,0,0:0:0:0:
288,167,66540,2,0,P|201:153|130:184,1,157.5
86,170,67290,2,0,P|44:132|27:78,1,105
131,75,68040,2,0,B|178:105|236:48|301:83,1,157.5
335,91,68790,1,0,0:0:0:0:
421,151,69165,5,0,0:0:0:0:
381,248,69540,2,0,P|294:265|210:236,1,157.5
180,226,70290,2,0,P|121:210|62:227,1,105
121,314,71040,1,0,0:0:0:0:
256,192,71415,12,0,74040,0:0:0:0:
