osu file format v14

[General]
AudioFilename: this is a new beatmap.mp3
AudioLeadIn: 0
PreviewTime: 7445
Countdown: 0
SampleSet: Soft
StackLeniency: 0.7
Mode: 0
LetterboxInBreaks: 0
WidescreenStoryboard: 0

[Editor]
DistanceSpacing: 1
BeatDivisor: 2
GridSize: 4
TimelineZoom: 1

[Metadata]
Title:Fun Fun Fun dayo, Lucky*Star
TitleUnicode:フンフンフン♪だよ、らき☆すた
Artist:Kousaki Satoru
ArtistUnicode:神前暁
Creator:Gabe
Version:Normal
Source:らき☆すた
Tags:bgm lalala koppepan Lucky Star Veus
BeatmapID:1183803
BeatmapSetID:559776

[Difficulty]
HPDrainRate:3
CircleSize:4
OverallDifficulty:3
ApproachRate:3
SliderMultiplier:0.8
SliderTickRate:1

[Events]
//Background and Video events
0,0,"because Irreversible was losing his shit.jpg",0,0
//Break Periods
//Storyboard Layer 0 (Background)
//Storyboard Layer 1 (Fail)
//Storyboard Layer 2 (Pass)
//Storyboard Layer 3 (Foreground)
//Storyboard Sound Samples

[TimingPoints]
649,468.75,4,2,0,46,1,0
23149,-100,4,2,0,46,0,1
28774,-100,4,2,0,46,0,0
45649,-100,4,2,0,46,0,1
59477,-100,4,2,0,66,0,0
59594,-100,4,2,0,46,0,0
75649,-100,4,2,0,46,0,1
81977,-100,4,2,0,16,0,0
83149,-100,4,2,0,46,0,1
88774,-100,4,2,0,46,0,0

[Colours]
Combo1 : 254,239,205
Combo2 : 251,217,244

[HitObjects]
36,352,649,6,0,L|124:336,1,80
168,280,1586,2,0,L|256:264,1,80
280,192,2524,5,0,0:0:0:0:
340,244,2992,1,0,0:0:0:0:
396,300,3461,1,0,0:0:0:0:
456,352,3930,1,0,0:0:0:0:
476,276,4399,6,0,L|492:188,1,80
448,128,5336,2,0,L|464:40,1,80
388,16,6274,5,0,0:0:0:0:
328,68,6742,1,0,0:0:0:0:
268,120,7211,1,0,0:0:0:0:
232,104,7445,2,0,L|208:56,2,40,0|0|2,0:0|0:0|0:0,0:0:0:0:
212,140,8149,5,0,0:0:0:0:
168,208,8617,2,0,L|192:248,1,40,2|0,0:0|0:0,0:0:0:0:
236,308,9320,2,0,L|212:356,2,40,0|0|2,0:0|0:0|0:0,0:0:0:0:
272,288,10024,5,0,0:0:0:0:
340,244,10492,2,0,P|366:243|390:250,1,40,2|0,0:0|0:0,0:0:0:0:
452,280,11195,2,0,L|456:324,2,40,0|0|2,0:0|0:0|0:0,0:0:0:0:
460,240,11899,6,0,L|452:196,1,40
464,160,12367,2,0,L|456:116,1,40,2|0,0:0|0:0,0:0:0:0:
436,88,12836,2,0,P|412:84|384:88,1,40,0|2,0:0|0:0,0:0:0:0:
320,112,13539,2,0,L|264:96,2,40,2|0|0,0:0|0:0|0:0,0:0:0:0:
312,272,14945,2,0,L|368:288,2,40,0|0|2,0:0|0:0|0:0,0:0:0:0:
280,248,15649,5,0,0:0:0:0:
228,188,16117,2,0,L|189:177,1,40,2|0,0:0|0:0,0:0:0:0:
152,108,16820,2,0,L|190:97,2,40,0|0|2,0:0|0:0|0:0,0:0:0:0:
124,136,17524,5,0,0:0:0:0:
72,196,17992,2,0,L|33:206,1,40,2|0,0:0|0:0,0:0:0:0:
20,284,18695,2,0,P|8:304|4:324,2,40,0|0|2,0:0|0:0|0:0,0:0:0:0:
60,280,19399,6,0,L|120:296,1,40
140,292,19867,2,0,L|200:308,1,40,2|0,0:0|0:0,0:0:0:0:
220,304,20336,2,0,L|280:320,1,40,0|2,0:0|0:0,0:0:0:0:
324,360,21039,2,0,P|336:340|340:320,2,40,2|0|0,0:0|0:0|0:0,0:0:0:0:
256,88,23149,6,0,L|208:76,1,40,2|2,0:0|0:0,0:0:0:0:
184,52,23617,2,0,L|136:40,1,40,8|2,0:0|0:0,0:0:0:0:
68,24,24320,1,2,0:0:0:0:
24,88,24789,1,0,0:0:0:0:
12,128,25024,6,0,P|16:152|24:168,1,40,2|2,0:0|0:0,0:0:0:0:
56,188,25492,2,0,P|88:192|108:180,1,40,8|2,0:0|0:0,0:0:0:0:
168,160,26195,1,2,0:0:0:0:
224,104,26664,1,0,0:0:0:0:
264,112,26899,6,0,L|308:136,1,40,2|2,0:0|0:0,0:0:0:0:
316,168,27367,2,0,L|360:204,1,40,8|2,0:0|0:0,0:0:0:0:
396,256,28070,2,0,P|404:288|392:336,1,80,2|2,0:0|0:0,0:0:0:0:
364,360,28774,5,2,0:0:0:0:
256,304,29477,1,2,0:0:0:0:
180,332,29945,2,0,L|140:348,2,40,0|0|2,0:0|0:0|0:0,0:0:0:0:
184,292,30649,5,0,0:0:0:0:
188,212,31117,2,0,L|225:197,1,40,2|0,0:0|0:0,0:0:0:0:
276,136,31820,2,0,L|264:84,2,40,0|0|2,0:0|0:0|0:0,0:0:0:0:
308,164,32524,5,0,0:0:0:0:
372,212,32992,2,0,L|384:264,1,40,2|0,0:0|0:0,0:0:0:0:
452,288,33695,2,0,L|460:249,2,40,0|0|2,0:0|0:0|0:0,0:0:0:0:
428,320,34399,6,0,P|408:340|392:340,1,40
360,348,34867,2,0,L|300:336,1,40,2|0,0:0|0:0,0:0:0:0:
284,324,35336,2,0,L|212:312,1,40,0|2,0:0|0:0,0:0:0:0:
208,248,36039,2,0,L|280:236,2,40,2|0|0,0:0|0:0|0:0,0:0:0:0:
96,136,37445,2,0,L|76:72,2,40,0|0|2,0:0|0:0|0:0,0:0:0:0:
132,156,38149,5,0,0:0:0:0:
200,116,38617,2,0,L|248:108,1,40,2|0,0:0|0:0,0:0:0:0:
280,40,39320,2,0,L|232:32,2,40,0|0|2,0:0|0:0|0:0,0:0:0:0:
316,60,40024,5,0,0:0:0:0:
392,84,40492,2,0,L|440:76,1,40,2|0,0:0|0:0,0:0:0:0:
460,152,41195,2,0,L|420:158,2,40,0|0|2,0:0|0:0|0:0,0:0:0:0:
492,176,41899,6,0,P|500:192|500:216,1,40
484,252,42367,2,0,L|476:296,1,40,2|0,0:0|0:0,0:0:0:0:
440,312,42836,2,0,L|412:356,1,40,0|2,0:0|0:0,0:0:0:0:
344,320,43539,2,0,L|341:280,2,40,2|0|0,0:0|0:0|0:0,0:0:0:0:
64,352,45649,6,0,P|52:328|64:268,1,80,2|0,0:0|0:0,0:0:0:0:
80,244,46352,1,0,0:0:0:0:
100,212,46586,2,0,P|108:173|94:136,1,80,2|2,0:0|0:0,0:0:0:0:
48,72,47524,6,0,P|86:80|123:66,1,80,2|0,0:0|0:0,0:0:0:0:
160,48,48227,1,0,0:0:0:0:
200,52,48461,2,0,L|288:64,1,80,2|2,0:0|0:0,0:0:0:0:
340,116,49399,6,0,L|419:105,1,80,2|0,0:0|0:0,0:0:0:0:
456,84,50102,1,0,0:0:0:0:
484,112,50336,2,0,P|496:156|496:168,1,40,2|0,0:0|0:0,0:0:0:0:
492,192,50805,2,0,P|461:225|450:231,1,40,2|0,0:0|0:0,0:0:0:0:
428,236,51274,5,2,0:0:0:0:
312,200,51977,1,0,0:0:0:0:
256,304,52680,1,0,0:0:0:0:
184,340,53149,6,0,P|177:300|186:262,1,80,2|0,0:0|0:0,0:0:0:0:
208,228,53852,1,0,0:0:0:0:
200,188,54086,2,0,L|112:176,1,80,2|2,0:0|0:0,0:0:0:0:
112,96,55024,6,0,L|200:108,1,80,2|0,0:0|0:0,0:0:0:0:
232,112,55727,1,0,0:0:0:0:
272,108,55961,2,0,P|308:84|320:44,1,80,2|2,0:0|0:0,0:0:0:0:
392,16,56899,6,0,L|464:64,1,80,2|0,0:0|0:0,0:0:0:0:
484,92,57602,1,0,0:0:0:0:
472,132,57836,2,0,L|500:200,2,40,2|0|2,0:0|0:0|0:0,0:0:0:0:
400,172,58774,6,0,L|384:208,2,40
376,140,59477,1,2,0:0:0:0:
312,92,59945,6,0,L|296:55,2,40,0|0|2,0:0|0:0|0:0,0:0:0:0:
288,124,60648,1,0,0:0:0:0:
232,180,61117,2,0,L|247:216,1,40,2|0,0:0|0:0,0:0:0:0:
192,276,61820,2,0,L|176:239,2,40,0|0|2,0:0|0:0|0:0,0:0:0:0:
224,304,62524,5,0,0:0:0:0:
300,332,62992,2,0,P|320:332|340:324,1,40,2|0,0:0|0:0,0:0:0:0:
372,252,63695,2,0,P|390:259|405:274,2,40,0|0|2,0:0|0:0|0:0,0:0:0:0:
336,232,64399,6,0,P|317:224|302:209,1,40
292,172,64867,2,0,L|280:96,1,40,2|0,0:0|0:0,0:0:0:0:
292,92,65336,2,0,L|308:48,1,40,0|2,0:0|0:0,0:0:0:0:
384,48,66039,2,0,L|420:32,2,40,2|0|0,0:0|0:0|0:0,0:0:0:0:
236,108,67445,2,0,L|200:124,2,40,0|0|2,0:0|0:0|0:0,0:0:0:0:
256,72,68149,5,0,0:0:0:0:
192,24,68617,2,0,P|160:24|136:32,1,40,2|0,0:0|0:0,0:0:0:0:
96,84,69320,2,0,L|52:120,2,40,0|0|2,0:0|0:0|0:0,0:0:0:0:
132,100,70024,5,0,0:0:0:0:
200,140,70492,2,0,L|244:176,1,40,2|0,0:0|0:0,0:0:0:0:
312,176,71195,2,0,L|348:132,2,40,0|0|2,0:0|0:0|0:0,0:0:0:0:
316,216,71899,6,0,L|360:252,1,40
384,252,72367,2,0,L|428:288,1,40,2|0,0:0|0:0,0:0:0:0:
440,308,72836,2,0,L|484:344,1,40,0|2,0:0|0:0,0:0:0:0:
500,260,73539,2,0,P|512:216|504:196,2,40,2|0|0,0:0|0:0|0:0,0:0:0:0:
296,68,75649,6,0,L|248:56,1,40,2|2,0:0|0:0,0:0:0:0:
220,68,76117,2,0,L|172:56,1,40,8|2,0:0|0:0,0:0:0:0:
104,72,76820,1,2,0:0:0:0:
80,148,77289,1,0,0:0:0:0:
112,172,77524,6,0,P|136:176|152:184,1,40,2|2,0:0|0:0,0:0:0:0:
188,200,77992,2,0,P|220:204|240:192,1,40,8|2,0:0|0:0,0:0:0:0:
300,168,78695,1,2,0:0:0:0:
360,220,79164,1,0,0:0:0:0:
400,212,79399,6,0,L|444:236,1,40,2|2,0:0|0:0,0:0:0:0:
456,264,79867,2,0,L|500:300,1,40,8|2,0:0|0:0,0:0:0:0:
428,344,80570,2,0,P|396:352|348:340,1,80,2|2,0:0|0:0,0:0:0:0:
324,312,81274,5,2,0:0:0:0:
224,244,81977,2,0,L|120:252,1,80
108,268,82680,2,0,L|52:272,1,40
44,240,83149,6,0,L|40:196,1,40,2|2,0:0|0:0,0:0:0:0:
72,176,83617,2,0,L|68:132,1,40,8|2,0:0|0:0,0:0:0:0:
60,56,84320,1,2,0:0:0:0:
136,84,84789,1,0,0:0:0:0:
164,112,85024,6,0,P|188:108|204:100,1,40,2|2,0:0|0:0,0:0:0:0:
236,80,85492,2,0,P|260:76|280:80,1,40,8|2,0:0|0:0,0:0:0:0:
340,128,86195,1,2,0:0:0:0:
416,96,86664,1,0,0:0:0:0:
440,128,86899,6,0,L|416:172,1,40,2|2,0:0|0:0,0:0:0:0:
428,204,87367,2,0,L|404:248,1,40,8|2,0:0|0:0,0:0:0:0:
356,300,88070,2,0,P|324:308|276:296,1,80,2|2,0:0|0:0,0:0:0:0:
248,272,88774,5,2,0:0:0:0:
116,360,89711,1,0,0:0:0:0:
32,224,90649,6,0,L|24:176,1,40,2|2,0:0|0:0,0:0:0:0:
44,148,91117,2,0,L|36:100,1,40,0|2,0:0|0:0,0:0:0:0:
128,32,92289,6,0,P|156:56|204:48,1,80,2|2,0:0|0:0,0:0:0:0:
232,36,92992,1,0,0:0:0:0:
324,112,93695,5,2,0:0:0:0:
