osu file format v14

[General]
AudioFilename: audio.mp3
AudioLeadIn: 0
PreviewTime: 77559
Countdown: 0
SampleSet: Soft
StackLeniency: 0.7
Mode: 0
LetterboxInBreaks: 0
WidescreenStoryboard: 1

[Editor]
Bookmarks: 256326,282628,295778,335024,341599
DistanceSpacing: 0.27
BeatDivisor: 3
GridSize: 4
TimelineZoom: 2.000001

[Metadata]
Title:monolithize phases
TitleUnicode:monolithize phases
Artist:Koujimachi Yousan-kan
ArtistUnicode:麹町養蚕館
Creator:Moly
Version:Scattered Hypocrisy
Source:
Tags:babelism C78 バベリズム paraoka haru*nya
BeatmapID:1641891
BeatmapSetID:510348

[Difficulty]
HPDrainRate:5
CircleSize:4.2
OverallDifficulty:8.6
ApproachRate:9.6
SliderMultiplier:2.99999990463257
SliderTickRate:1

[Events]
//Background and Video events
0,0,"bg2.jpg",0,0
//Break Periods
2,154409,159340
2,188107,201924
//Storyboard Layer 0 (Background)
//Storyboard Layer 1 (Fail)
//Storyboard Layer 2 (Pass)
//Storyboard Layer 3 (Foreground)
//Storyboard Sound Samples

[TimingPoints]
300,821.917808219178,4,2,1,23,1,0
506,821.917808219178,4,2,1,23,1,0
506,-133.333333333333,4,2,1,23,0,0
11601,-200,4,2,1,23,0,0
18246,410.958904109589,4,2,2,40,1,0
18382,410.958904109589,4,2,2,70,1,0
18382,-107.52688172043,4,2,2,70,0,0
21258,-107.52688172043,4,2,9,90,0,0
21669,-107.52688172043,4,2,2,70,0,0
23998,-107.52688172043,4,2,10,83,0,0
24272,-107.52688172043,4,2,2,90,0,0
24546,-107.52688172043,4,2,10,70,0,0
24683,-107.52688172043,4,2,3,90,0,0
24820,-107.52688172043,4,2,2,70,0,0
24957,410.958904109589,4,2,2,70,1,0
24957,-107.52688172043,4,2,2,83,0,0
25230,-107.52688172043,4,2,4,70,0,0
27833,-107.52688172043,4,2,9,90,0,0
28244,-107.52688172043,4,2,4,70,0,0
29477,-107.52688172043,4,2,10,83,0,0
29614,-107.52688172043,4,2,2,70,0,0
29888,-107.52688172043,4,2,2,70,0,0
30025,-107.52688172043,4,2,10,83,0,0
30299,-107.52688172043,4,2,3,70,0,0
30436,-107.52688172043,4,2,2,70,0,0
30573,-107.52688172043,4,2,10,70,0,0
30710,-107.52688172043,4,2,3,70,0,0
30847,-107.52688172043,4,2,10,83,0,0
30984,-107.52688172043,4,2,2,83,0,0
31532,-107.52688172043,4,2,2,70,0,0
31806,-107.52688172043,4,2,5,70,0,0
34409,-107.52688172043,4,2,9,90,0,0
34820,-107.52688172043,4,2,5,70,0,0
37422,-107.52688172043,4,2,2,90,0,0
37559,-107.52688172043,4,2,2,70,0,0
37696,-107.52688172043,4,2,5,70,0,0
37833,-107.52688172043,4,2,3,90,0,0
37970,-107.52688172043,4,2,2,70,0,0
38107,-107.52688172043,4,2,2,83,0,0
38381,-107.52688172043,4,2,4,70,0,0
43039,-107.52688172043,4,2,2,90,0,0
43176,-107.52688172043,4,2,10,70,0,0
43450,-107.52688172043,4,2,3,90,0,0
43587,-107.52688172043,4,2,2,70,0,0
43724,-107.52688172043,4,2,10,70,0,0
43861,-107.52688172043,4,2,2,90,0,0
43998,-107.52688172043,4,2,10,70,0,0
44135,-107.52688172043,4,2,2,70,0,0
44683,-107.52688172043,4,2,3,83,0,0
44957,-107.52688172043,4,2,5,70,0,0
49614,-107.52688172043,4,2,2,90,0,0
49751,-107.52688172043,4,2,10,70,0,0
50025,-107.52688172043,4,2,3,90,0,0
50162,-107.52688172043,4,2,2,70,0,0
50436,-107.52688172043,4,2,3,90,0,0
50573,-107.52688172043,4,2,2,70,0,0
50847,-107.52688172043,4,2,2,90,0,0
50984,-107.52688172043,4,2,2,70,0,0
51258,-107.52688172043,4,2,3,70,0,0
51532,-107.52688172043,4,2,5,70,0,0
57833,-107.52688172043,4,2,2,83,0,0
58107,-107.52688172043,4,2,5,70,0,0
62765,-107.52688172043,4,2,2,90,0,0
62902,-107.52688172043,4,2,5,70,0,0
64409,-133.333333333333,4,2,3,70,0,0
64683,-133.333333333333,4,2,5,70,0,0
70984,-107.52688172043,4,2,2,70,0,0
71258,-107.52688172043,4,2,5,70,0,0
73450,-107.52688172043,4,2,2,89,0,0
73587,-107.52688172043,4,2,5,70,0,0
77559,-107.52688172043,4,2,2,70,0,1
77833,-107.52688172043,4,2,5,70,0,1
84135,-107.52688172043,4,2,2,70,0,1
84409,-107.52688172043,4,2,5,70,0,1
89066,-107.52688172043,4,2,2,70,0,1
89203,-107.52688172043,4,2,5,70,0,1
90710,-107.52688172043,4,2,2,70,0,0
90984,-107.52688172043,4,2,5,70,0,0
97285,-107.52688172043,4,2,2,70,0,0
97559,-107.52688172043,4,2,5,70,0,0
101806,-78.7401574803149,4,2,5,70,0,0
102217,-107.52688172043,4,2,5,70,0,0
102628,-107.52688172043,4,2,2,83,0,0
102902,-107.52688172043,4,2,2,70,0,0
103039,-107.52688172043,4,2,3,83,0,0
103313,-107.52688172043,4,2,5,70,0,0
103861,-107.52688172043,4,2,2,70,0,0
104135,-107.52688172043,4,2,5,70,0,0
110436,-107.52688172043,4,2,2,70,0,0
110710,-107.52688172043,4,2,5,70,0,0
113724,-140.845070422535,4,2,2,70,0,0
113998,-140.845070422535,4,2,5,70,0,0
117285,-140.845070422535,4,2,4,70,0,0
117833,-140.845070422535,4,2,5,70,0,0
120299,-200,4,2,2,70,0,0
121737,-200,4,2,5,45,0,0
121840,-151.515151515152,4,2,5,70,0,0
123176,-149.253731343284,4,2,5,70,0,0
123381,-149.253731343284,4,2,2,86,0,0
123792,-149.253731343284,4,2,5,70,0,0
126052,-149.253731343284,4,2,5,57,0,0
126463,-149.253731343284,4,2,5,70,0,0
126874,-149.253731343284,4,2,2,83,0,0
127080,-149.253731343284,4,2,5,70,0,0
133244,-149.253731343284,4,2,2,70,0,0
133450,-149.253731343284,4,2,5,80,0,0
138998,-149.253731343284,4,2,5,70,0,0
139100,-149.253731343284,4,2,5,70,0,0
139820,-149.253731343284,4,2,3,79,0,0
139922,-149.253731343284,4,2,5,70,0,0
146189,-149.253731343284,4,2,2,70,0,0
146395,-149.253731343284,4,2,5,70,0,0
150915,-149.253731343284,4,2,2,84,0,0
151326,-149.253731343284,4,2,5,70,0,0
153998,-149.253731343284,4,2,2,40,0,0
160984,-80,4,2,2,83,0,0
161087,-80,4,2,5,70,0,0
167559,-80,4,2,2,83,0,1
167662,-80,4,2,5,70,0,1
172491,-80,4,2,5,70,0,0
174135,-80,4,2,2,70,0,0
174237,-80,4,2,5,70,0,0
179066,-80,4,2,5,70,0,1
180710,-86.9565217391304,4,2,2,70,0,0
187285,-86.9565217391304,4,2,2,5,0,0
203724,-111.111111111111,4,2,2,50,0,0
204032,-111.111111111111,4,2,2,5,0,0
204135,-111.111111111111,4,2,2,50,0,0
204443,-111.111111111111,4,2,2,5,0,0
204546,-111.111111111111,4,2,2,50,0,0
204854,-111.111111111111,4,2,2,5,0,0
204957,-111.111111111111,4,2,2,50,0,0
205265,-111.111111111111,4,2,2,5,0,0
205367,-181.818181818182,4,2,2,50,0,0
206600,-181.818181818182,4,2,2,70,0,0
207833,-100,4,2,2,75,0,0
208347,-100,4,2,2,50,0,0
209477,-133.333333333333,4,2,2,50,0,0
209991,-133.333333333333,4,2,2,25,0,0
211121,-200,4,2,2,25,0,0
211635,-200,4,2,2,50,0,0
216874,-178.571428571429,4,2,2,30,0,0
243998,-250,4,2,2,30,0,0
244820,-263.157894736842,4,2,2,30,0,0
245641,-277.777777777778,4,2,2,30,0,0
246463,-294.117647058824,4,2,2,30,0,0
247285,-312.5,4,2,2,30,0,0
248107,-333.333333333333,4,2,2,30,0,0
248929,-357.142857142857,4,2,2,30,0,0
249340,-50,4,2,2,30,0,0
249751,-384.615384615385,4,2,2,30,0,0
255915,-200,4,2,2,30,0,0
256326,-80,4,2,2,83,0,1
256429,-80,4,2,5,70,0,1
262902,-80,4,2,2,70,0,0
263004,-80,4,2,5,70,0,0
268655,-94.876660341556,4,2,2,70,0,0
269477,-80,4,2,2,83,0,0
269683,-80,4,2,5,70,0,0
270915,-113.636363636364,4,2,5,70,0,0
271121,-80,4,2,5,70,0,0
280984,-80,4,2,5,70,0,1
282628,-114.942528735632,4,2,2,83,0,0
282833,-114.942528735632,4,2,5,60,0,0
289203,-114.942528735632,4,2,2,83,0,0
289409,-114.942528735632,4,2,5,70,0,0
295778,-114.942528735632,4,2,2,25,0,0
296189,-250,4,2,2,30,0,0
327422,-250,4,2,2,55,0,0
328449,410.958904109589,4,2,2,70,1,0
328449,-72.992700729927,4,2,2,83,0,1
328551,-72.992700729927,4,2,5,70,0,1
335024,-72.992700729927,4,2,2,83,0,1
335127,-72.992700729927,4,2,5,70,0,1
341394,-72.992700729927,4,2,2,83,0,1
341496,-72.992700729927,4,2,5,70,0,1
346120,-72.992700729927,4,2,2,80,0,1
346325,-72.992700729927,4,2,5,70,0,1
349305,-72.992700729927,4,2,2,40,0,1
349407,-72.992700729927,4,2,2,25,0,1
349639,-72.992700729927,4,2,2,14,0,1
349664,-72.992700729927,4,2,2,5,0,1
349739,588,4,2,2,30,1,0
350033,566.627953110911,4,2,2,30,1,0
350033,-238.095238095238,4,2,2,30,0,0
350599,493.9,4,2,2,30,1,0
351090,570.4,4,2,2,30,1,0
351090,-238.095238095238,4,2,2,30,0,0
351660,466.738461538461,4,2,2,30,1,0
351893,429.971428571429,4,2,2,30,1,0
351947,773.699999999999,4,2,2,30,1,0
351947,-238.095238095238,4,2,2,30,0,0
352720,572.928571428571,4,2,2,30,1,0
353006,760.017808219178,4,2,2,30,1,0
353766,586,4,2,2,30,1,0
354059,543.428571428571,4,2,2,30,1,0
354059,-238.095238095238,4,2,2,30,0,0
354602,516.120512820513,4,2,2,30,1,0
355118,561.828571428571,4,2,2,30,1,0
355118,-238.095238095238,4,2,2,30,0,0
355399,458.538461538462,4,2,2,30,1,0
355628,448.958904109589,4,2,2,30,1,0
355684,598,4,2,2,30,1,0
355684,-238.095238095238,4,2,2,30,0,0
355983,481,4,2,2,30,1,0
356945,569.254561152171,4,2,2,30,1,0
357229,598.52427184466,4,2,2,30,1,0
357528,592.3,4,2,2,30,1,0
357824,568.037735849057,4,2,2,30,1,0
358108,574.428571428571,4,2,2,30,1,0
358395,800.017808219178,4,2,2,30,1,0
359195,680.666666666667,4,2,2,30,1,0
359535,598,4,2,2,30,1,0
359834,656.666666666667,4,2,2,30,1,0
360162,658.666666666667,4,2,2,30,1,0
360491,584,4,2,2,30,1,0
361075,575.028571428571,4,2,2,30,1,0
361075,-238.095238095238,4,2,2,30,0,0
361650,644.078947368421,4,2,2,30,1,0
362294,749,4,2,2,30,1,0
363043,4174.70000000002,4,2,2,30,1,0
363043,-800,4,2,2,5,0,0

[HitObjects]
188,213,300,5,0,0:0:0:0:
188,213,506,2,0,L|300:218,1,112.500000715256,2|0,0:0|0:0,0:0:0:0:
371,173,1327,1,2,0:0:0:0:
371,173,1533,2,0,P|376:145|371:118,1,56.2500003576279
307,62,1944,2,0,L|138:69,1,168.750001072884,2|0,0:0|0:0,0:0:0:0:
90,138,2766,6,0,B|98:205|98:205|126:234|126:234|133:294,1,168.750001072884,2|0,0:0|0:0,0:0:0:0:
216,278,3588,2,0,L|208:333,1,56.2500003576279,2|0,0:0|0:0,0:0:0:0:
299,291,3999,2,0,L|291:346,1,56.2500003576279,2|0,0:0|0:0,0:0:0:0:
269,213,4410,1,2,0:0:0:0:
352,226,4615,1,0,0:0:0:0:
216,278,4821,1,0,0:0:0:0:
238,134,5026,1,2,0:0:0:0:
238,134,5848,5,0,0:0:0:0:
352,226,6053,1,2,0:0:0:0:
216,278,6259,1,0,0:0:0:0:
155,121,6464,1,0,0:0:0:0:
269,213,6670,1,0,0:0:0:0:
132,265,6875,1,2,0:0:0:0:
132,265,7492,5,0,0:0:0:0:
185,199,7698,1,2,0:0:0:0:
269,213,7903,1,0,0:0:0:0:
299,293,8108,1,0,0:0:0:0:
246,358,8314,6,0,L|190:363,1,56.2500003576279,2|0,0:0|0:0,0:0:0:0:
410,233,8725,2,0,L|354:228,1,56.2500003576279,2|0,0:0|0:0,0:0:0:0:
216,278,9136,2,0,L|160:283,1,56.2500003576279,2|0,0:0|0:0,0:0:0:0:
436,318,9547,2,0,L|380:313,1,56.2500003576279,2|0,0:0|0:0,0:0:0:0:
328,143,9958,6,0,L|159:158,1,168.750001072884,2|0,0:0|0:0,0:0:0:0:
159,158,10985,5,2,0:0:0:0:
110,230,11190,1,0,0:0:0:0:
246,268,11396,1,0,0:0:0:0:
214,85,11601,5,2,0:0:0:0:
256,192,11807,12,0,17766,0:0:0:0:
261,58,18246,5,8,0:0:0:0:
261,58,18382,2,0,B|312:31|368:47|328:69|394:79|439:57,2,185.999999905396,8|8|10,0:0|0:0|0:0,0:0:0:0:
309,135,19066,1,10,0:0:0:0:
309,135,19203,2,0,P|298:180|309:224,1,92.9999999526978,10|0,0:0|0:0,0:0:0:0:
398,254,19477,1,10,0:0:0:0:
397,254,19614,2,0,P|333:316|246:294,1,185.999999905396,10|10,0:0|0:0,0:0:0:0:
148,323,20025,6,0,B|157:253|157:253|186:221|186:221|196:150,2,185.999999905396,10|10|10,0:0|0:0|0:0,0:0:0:0:
246,294,20710,1,8,0:0:0:0:
246,294,20847,2,0,P|287:316|333:316,1,92.9999999526978,10|0,0:0|0:0,0:0:0:0:
397,248,21121,1,10,0:0:0:0:
424,339,21258,5,2,0:0:0:0:
490,270,21395,2,0,P|488:224|465:184,1,92.9999999526978,8|2,0:0|0:0,0:0:0:0:
440,94,21669,6,0,B|393:108|375:157|375:157|330:139|288:169,2,185.999999905396,10|10|10,0:0|0:0|0:0,0:0:0:0:
465,184,22354,1,10,0:0:0:0:
465,184,22491,2,0,P|487:223|490:270,1,92.9999999526978,10|0,0:0|0:0,0:0:0:0:
424,339,22765,1,10,0:0:0:0:
424,339,22902,2,0,L|239:318,1,185.999999905396,10|10,0:0|0:0,0:0:0:0:
156,374,23313,6,0,B|148:312|148:312|156:282|156:282|141:253|141:253|133:194,2,185.999999905396,10|10|10,0:0|0:0|0:0,0:0:0:0:
239,318,23998,2,8,L|285:323,2,46.4999999763489
62,384,24272,6,0,B|54:325|54:325|39:296|39:296|47:266|47:266|40:205,1,185.999999905396,12|8,0:0|0:0,0:0:0:0:
143,101,24683,2,0,L|132:194,1,92.9999999526978,4|0,0:0|0:0,0:0:0:0:
143,285,24957,6,0,B|212:276|212:276|250:296|250:296|323:289,1,185.999999905396,12|8,0:0|0:0,0:0:0:0:
415,279,25367,1,10,0:0:0:0:
474,206,25504,2,0,P|475:160|457:118,1,92.9999999526978,8|8,0:0|0:0,0:0:0:0:
374,50,25778,2,0,P|372:96|351:137,1,92.9999999526978,8|2,0:0|0:0,0:0:0:0:
267,178,26052,1,8,0:0:0:0:
173,178,26189,2,0,P|141:144|127:100,1,92.9999999526978,8|8,0:0|0:0,0:0:0:0:
220,96,26463,1,8,0:0:0:0:
219,260,26600,6,0,P|174:269|129:260,1,92.9999999526978,8|2,0:0|0:0,0:0:0:0:
67,189,26874,1,8,0:0:0:0:
36,277,27011,2,2,P|44:302|55:321,2,46.4999999763489
98,101,27285,1,8,0:0:0:0:
128,260,27422,6,0,P|219:262|288:202,1,185.999999905396,8|8,0:0|0:0,0:0:0:0:
244,89,27833,5,2,0:0:0:0:
355,98,27970,1,8,0:0:0:0:
466,108,28107,1,2,0:0:0:0:
446,329,28244,6,0,L|261:346,1,185.999999905396,8|8,0:0|0:0,0:0:0:0:
168,354,28655,1,10,0:0:0:0:
168,354,28724,1,2,0:0:0:0:
167,353,28792,2,0,P|153:310|162:266,1,92.9999999526978,8|8,0:0|0:0,0:0:0:0:
231,200,29066,1,8,0:0:0:0:
231,200,29203,2,0,L|316:239,1,92.9999999526978,0|8,0:0|0:0,0:0:0:0:
407,217,29477,1,8,0:0:0:0:
407,217,29546,1,8,0:0:0:0:
407,217,29614,1,8,0:0:0:0:
380,306,29751,1,8,0:0:0:0:
343,150,29888,5,12,0:0:0:0:
471,284,30025,1,8,0:0:0:0:
316,239,30162,1,8,0:0:0:0:
496,194,30299,2,0,P|515:153|513:107,2,92.9999999526978,4|0|8,0:0|0:0|0:0,0:0:0:0:
343,150,30710,1,4,0:0:0:0:
380,306,30847,1,8,0:0:0:0:
226,259,30984,1,8,0:0:0:0:
208,259,31052,1,8,0:0:0:0:
191,255,31120,1,8,0:0:0:0:
175,249,31189,1,8,0:0:0:0:
159,241,31257,1,8,0:0:0:0:
145,231,31326,1,8,0:0:0:0:
133,218,31394,1,8,0:0:0:0:
123,204,31463,1,8,0:0:0:0:
117,189,31532,6,0,L|304:180,1,185.999999905396,12|8,0:0|0:0,0:0:0:0:
488,168,31943,1,4,0:0:0:0:
395,175,32080,2,0,P|381:132|345:98,1,92.9999999526978,10|10,0:0|0:0,0:0:0:0:
351,258,32354,2,0,L|445:263,1,92.9999999526978,10|4,0:0|0:0,0:0:0:0:
302,180,32628,1,10,0:0:0:0:
259,263,32765,2,0,P|273:306|309:340,1,92.9999999526978,10|4,0:0|0:0,0:0:0:0:
351,258,33039,1,10,0:0:0:0:
209,186,33176,6,0,P|179:220|168:265,1,92.9999999526978,8|4,0:0|0:0,0:0:0:0:
302,180,33450,2,0,L|297:86,1,92.9999999526978,10|6,0:0|0:0,0:0:0:0:
168,265,33724,2,0,P|182:308|215:340,1,92.9999999526978,8|10,0:0|0:0,0:0:0:0:
297,87,33998,2,0,L|111:95,1,185.999999905396,10|10,0:0|0:0,0:0:0:0:
18,100,34409,1,2,0:0:0:0:
115,187,34546,1,8,0:0:0:0:
60,16,34683,1,2,0:0:0:0:
21,192,34820,6,0,P|36:236|70:268,1,92.9999999526978,8|4,0:0|0:0,0:0:0:0:
208,181,35093,1,8,0:0:0:0:
115,187,35230,2,0,P|125:142|155:107,1,92.9999999526978,10|10,0:0|0:0,0:0:0:0:
260,254,35504,1,8,0:0:0:0:
207,181,35641,2,0,P|251:165|296:171,1,92.9999999526978,10|4,0:0|0:0,0:0:0:0:
313,327,35915,1,10,0:0:0:0:
260,254,36052,2,0,P|232:290|224:336,1,92.9999999526978,10|4,0:0|0:0,0:0:0:0:
402,318,36326,1,10,0:0:0:0:
386,163,36463,6,0,L|376:70,1,92.9999999526978,8|4,0:0|0:0,0:0:0:0:
136,163,36737,2,0,L|145:70,1,92.9999999526978,8|2,0:0|0:0,0:0:0:0:
261,220,37011,2,8,L|261:127,1,92.9999999526978,0|4,0:0|0:0,0:0:0:0:
261,103,37217,2,8,L|261:56,1,46.4999999763489
73,232,37422,6,0,L|82:325,1,92.9999999526978,12|0,0:0|0:0,0:0:0:0:
261,380,37696,1,4,0:0:0:0:
440,325,37833,2,0,L|449:232,1,92.9999999526978,4|0,0:0|0:0,0:0:0:0:
347,86,38107,6,0,P|260:55|174:86,1,185.999999905396,12|10,0:0|0:0,0:0:0:0:
149,270,38518,1,4,0:0:0:0:
158,178,38655,2,0,L|251:187,1,92.9999999526978,10|10,0:0|0:0,0:0:0:0:
241,278,38929,2,0,P|224:322|190:352,1,92.9999999526978,10|4,0:0|0:0,0:0:0:0:
73,215,39203,1,10,0:0:0:0:
149,270,39340,2,0,P|112:299|67:308,1,92.9999999526978,10|0,0:0|0:0,0:0:0:0:
83,122,39614,1,6,0:0:0:0:
73,215,39751,6,0,P|30:199|1:165,1,92.9999999526978,8|4,0:0|0:0,0:0:0:0:
93,29,40025,2,0,P|136:45|166:79,1,92.9999999526978,10|8,0:0|0:0,0:0:0:0:
149,270,40299,2,0,P|112:299|67:308,1,92.9999999526978,10|12,0:0|0:0,0:0:0:0:
166,79,40573,6,0,B|216:70|276:98|231:107|281:139|338:127,1,185.999999905396,10|10,0:0|0:0,0:0:0:0:
315,36,40984,1,10,0:0:0:0:
188,172,41121,1,4,0:0:0:0:
370,214,41258,1,10,0:0:0:0:
337,127,41395,6,0,P|300:154|279:195,1,92.9999999526978,10|10,0:0|0:0,0:0:0:0:
401,301,41669,2,0,P|438:274|459:233,1,92.9999999526978,10|4,0:0|0:0,0:0:0:0:
402,55,41943,2,0,P|360:34|314:35,1,92.9999999526978,10|10,0:0|0:0,0:0:0:0:
183,169,42217,2,0,P|184:215|206:255,1,92.9999999526978,10|0,0:0|0:0,0:0:0:0:
425,141,42491,1,4,0:0:0:0:
425,141,42559,1,4,0:0:0:0:
425,141,42628,1,4,0:0:0:0:
425,141,42696,1,4,0:0:0:0:
425,141,42765,2,0,P|423:94|401:54,1,92.9999999526978,8|4,0:0|0:0,0:0:0:0:
142,325,43039,6,0,P|183:346|229:345,1,92.9999999526978,4|8,0:0|0:0,0:0:0:0:
295,278,43313,1,8,0:0:0:0:
143,80,43450,6,0,P|105:106|84:147,1,92.9999999526978,4|0,0:0|0:0,0:0:0:0:
113,237,43724,1,8,0:0:0:0:
363,211,43861,6,0,P|360:165|336:125,1,92.9999999526978,4|8,0:0|0:0,0:0:0:0:
245,102,44135,1,8,0:0:0:0:
295,278,44272,1,8,0:0:0:0:
471,228,44409,1,8,0:0:0:0:
421,52,44546,1,8,0:0:0:0:
270,190,44683,6,0,B|222:202|202:250|202:250|158:231|115:259,1,185.999999905396,12|8,0:0|0:0,0:0:0:0:
29,294,45093,1,0,0:0:0:0:
29,294,45230,2,0,P|55:331|97:351,1,92.9999999526978,4|8,0:0|0:0,0:0:0:0:
115,259,45504,6,0,L|130:74,1,185.999999905396,10|10,0:0|0:0,0:0:0:0:
218,128,45915,1,8,0:0:0:0:
218,128,46052,2,0,L|210:220,1,92.9999999526978,6|0,0:0|0:0,0:0:0:0:
255,302,46326,6,0,P|339:334|424:302,1,185.999999905396,10|10,0:0|0:0,0:0:0:0:
483,217,46737,1,0,0:0:0:0:
483,217,46874,2,0,P|437:219|394:203,1,92.9999999526978,6|8,0:0|0:0,0:0:0:0:
301,219,47148,6,0,B|276:174|276:174|303:42,1,185.999999905396,10|10,0:0|0:0,0:0:0:0:
211,24,47559,1,8,0:0:0:0:
394,60,47696,1,6,0:0:0:0:
193,115,47833,1,6,0:0:0:0:
303,42,47970,6,0,P|331:126|417:149,1,185.999999905396,10|10,0:0|0:0,0:0:0:0:
482,84,48381,1,0,0:0:0:0:
506,170,48518,2,0,P|485:211|446:236,1,92.9999999526978,6|0,0:0|0:0,0:0:0:0:
394,60,48792,1,10,0:0:0:0:
482,84,48929,1,4,0:0:0:0:
417,149,49066,5,8,0:0:0:0:
394,152,49134,1,8,0:0:0:0:
371,149,49203,1,8,0:0:0:0:
350,140,49271,1,8,0:0:0:0:
331,126,49340,1,4,0:0:0:0:
316,109,49408,1,8,0:0:0:0:
306,88,49477,1,4,0:0:0:0:
302,65,49545,1,8,0:0:0:0:
303,42,49613,5,4,0:0:0:0:
394,60,49751,1,8,0:0:0:0:
213,25,49888,1,8,0:0:0:0:
274,200,50025,5,4,0:0:0:0:
244,113,50162,1,8,0:0:0:0:
247,109,50230,1,8,0:0:0:0:
250,105,50299,1,8,0:0:0:0:
244,287,50436,5,4,0:0:0:0:
395,200,50573,1,8,0:0:0:0:
396,204,50641,1,8,0:0:0:0:
398,209,50710,1,8,0:0:0:0:
184,183,50847,5,4,0:0:0:0:
455,304,50984,1,8,0:0:0:0:
214,374,51121,1,8,0:0:0:0:
136,97,51258,6,0,B|205:88|205:88|243:108|243:108|316:101,1,185.999999905396,4|8,0:0|0:0,0:0:0:0:
408,92,51669,2,0,L|399:0,2,92.9999999526978,0|6|0,0:0|0:0|0:0,0:0:0:0:
369,176,52080,1,10,0:0:0:0:
316,100,52217,1,0,0:0:0:0:
462,168,52354,1,10,0:0:0:0:
331,260,52491,1,8,0:0:0:0:
369,176,52628,1,6,0:0:0:0:
384,334,52765,1,0,0:0:0:0:
236,265,52902,6,0,P|146:268|89:198,1,185.999999905396,10|10,0:0|0:0,0:0:0:0:
98,105,53313,2,0,L|190:114,2,92.9999999526978,0|6|0,0:0|0:0|0:0,0:0:0:0:
13,143,53724,1,10,0:0:0:0:
23,51,53861,1,4,0:0:0:0:
3,235,53998,1,10,0:0:0:0:
108,13,54135,2,0,L|200:22,2,92.9999999526978,0|6|0,0:0|0:0|0:0,0:0:0:0:
98,105,54546,6,0,L|283:123,1,185.999999905396,10|10,0:0|0:0,0:0:0:0:
468,141,54957,2,0,L|477:48,2,92.9999999526978,0|6|0,0:0|0:0|0:0,0:0:0:0:
413,216,55367,1,10,0:0:0:0:
375,132,55504,1,8,0:0:0:0:
506,225,55641,1,10,0:0:0:0:
358,291,55778,1,8,0:0:0:0:
468,141,55915,1,6,0:0:0:0:
451,300,56052,1,4,0:0:0:0:
321,207,56189,6,0,P|268:291|309:367,1,185.999999905396,10|10,0:0|0:0,0:0:0:0:
413,216,56600,2,0,L|422:123,1,92.9999999526978,8|6,0:0|0:0,0:0:0:0:
451,300,56874,1,4,0:0:0:0:
321,207,57011,2,0,L|330:114,1,92.9999999526978,10|6,0:0|0:0,0:0:0:0:
359,291,57285,1,8,0:0:0:0:
268,282,57422,1,8,0:0:0:0:
413,216,57559,1,8,0:0:0:0:
302,362,57696,1,8,0:0:0:0:
230,197,57833,6,0,L|248:12,1,185.999999905396,12|8,0:0|0:0,0:0:0:0:
137,187,58244,2,0,L|146:95,2,92.9999999526978,0|6|0,0:0|0:0|0:0,0:0:0:0:
220,289,58655,1,10,0:0:0:0:
127,280,58792,1,2,0:0:0:0:
230,197,58929,1,10,0:0:0:0:
166,365,59066,1,10,0:0:0:0:
137,187,59203,1,6,0:0:0:0:
305,250,59340,1,8,0:0:0:0:
51,225,59477,6,0,P|58:137|137:94,1,185.999999905396,10|10,0:0|0:0,0:0:0:0:
230,197,59888,2,0,L|221:289,2,92.9999999526978,8|6|0,0:0|0:0|0:0,0:0:0:0:
137,187,60299,1,10,0:0:0:0:
323,206,60436,1,4,0:0:0:0:
239,104,60573,1,10,0:0:0:0:
220,289,60710,2,0,P|254:319|297:335,1,92.9999999526978,10|6,0:0|0:0,0:0:0:0:
422,292,60984,1,0,0:0:0:0:
446,163,61121,6,0,B|429:28|429:28|385:3,1,185.999999905396,10|10,0:0|0:0,0:0:0:0:
248,76,61532,2,0,L|341:86,2,92.9999999526978,0|6|0,0:0|0:0|0:0,0:0:0:0:
155,67,61943,1,10,0:0:0:0:
136,252,62080,1,4,0:0:0:0:
307,176,62217,1,10,0:0:0:0:
200,166,62354,5,8,0:0:0:0:
136,252,62491,1,8,0:0:0:0:
180,351,62628,1,8,0:0:0:0:
244,265,62765,5,12,0:0:0:0:
29,240,62902,1,4,0:0:0:0:
200,166,63039,1,4,0:0:0:0:
180,351,63176,5,8,0:0:0:0:
307,177,63313,1,6,0:0:0:0:
136,252,63450,1,8,0:0:0:0:
351,276,63587,5,8,0:0:0:0:
200,166,63724,1,4,0:0:0:0:
287,362,63861,1,8,0:0:0:0:
415,189,63998,5,4,0:3:0:0:
244,265,64135,1,4,0:0:0:0:
458,287,64272,1,4,0:0:0:0:
307,177,64409,6,0,P|238:157|168:188,1,150.000000953674,12|10,0:0|0:0,0:0:0:0:
169,187,64820,2,0,P|150:219|144:256,2,75.0000004768372,6|2|0,0:0|0:0|0:0,0:0:0:0:
106,334,65230,2,0,P|78:310|60:278,1,75.0000004768372,2|10,0:0|0:0,0:0:0:0:
120,115,65504,2,0,P|155:102|193:103,1,75.0000004768372,10|6,0:0|0:0,0:0:0:0:
303,236,65778,1,2,0:0:0:0:
303,236,65915,1,0,0:0:0:0:
303,236,66052,6,0,P|337:248|375:248,1,75.0000004768372,10|0,0:0|0:0,0:0:0:0:
485,115,66326,2,0,P|478:78|459:46,1,75.0000004768372,10|6,0:0|0:0,0:0:0:0:
289,17,66600,1,2,0:0:0:0:
289,17,66737,1,8,0:0:0:0:
289,17,66874,2,0,P|260:40|242:73,1,75.0000004768372,2|4,0:0|0:0,0:0:0:0:
303,236,67148,1,10,0:0:0:0:
303,236,67285,2,0,P|375:248|439:212,1,150.000000953674,6|0,0:0|0:0,0:0:0:0:
485,115,67696,6,0,P|459:46|396:9,1,150.000000953674,10|10,0:0|0:0,0:0:0:0:
395,9,68107,2,0,L|389:86,2,75.0000004768372,6|2|2,0:0|0:0|0:0,0:0:0:0:
310,41,68518,2,0,L|304:118,1,75.0000004768372,2|8,0:0|0:0,0:0:0:0:
376,244,68792,2,0,L|382:170,1,75.0000004768372,10|6,0:0|0:0,0:0:0:0:
225,73,69066,1,2,0:0:0:0:
225,73,69203,1,4,0:0:0:0:
225,73,69340,6,0,L|219:150,1,75.0000004768372,10|0,0:0|0:0,0:0:0:0:
291,276,69614,2,0,L|297:202,1,75.0000004768372,10|6,0:0|0:0,0:0:0:0:
140,105,69888,1,10,0:0:0:0:
140,105,70025,1,8,0:0:0:0:
140,105,70162,6,0,L|134:182,1,75.0000004768372,6|2,0:0|0:0,0:0:0:0:
206,308,70436,1,8,0:0:0:0:
310,41,70573,1,6,0:0:0:0:
228,216,70984,6,0,B|297:207|297:207|335:227|335:227|408:220,1,185.999999905396,12|8,0:0|0:0,0:0:0:0:
500,207,71395,1,4,0:0:0:0:
400,127,71532,1,0,0:0:0:0:
416,311,71669,1,2,0:0:0:0:
491,119,71806,2,0,P|474:75|440:44,1,92.9999999526978,10|10,0:0|0:0,0:0:0:0:
307,134,72080,2,0,P|323:177|357:208,1,92.9999999526978,10|6,0:0|0:0,0:0:0:0:
400,127,72354,1,10,0:0:0:0:
214,141,72491,1,8,0:0:0:0:
357,208,72628,6,0,P|402:215|446:201,1,92.9999999526978,10|0,0:0|0:0,0:0:0:0:
260,65,72902,6,0,P|215:51|170:58,1,92.9999999526978,4|8,0:0|0:0,0:0:0:0:
446,201,73176,6,0,P|475:165|485:120,1,92.9999999526978,6|8,0:0|0:0,0:0:0:0:
170,58,73450,6,0,P|136:89|119:132,1,92.9999999526978,4|0,0:0|0:0,0:0:0:0:
485,120,73724,6,0,P|468:76|434:45,1,92.9999999526978,6|10,0:0|0:0,0:0:0:0:
120,132,73998,6,0,P|130:176|159:212,1,92.9999999526978,6|8,0:0|0:0,0:0:0:0:
400,127,74272,5,8,0:0:0:0:
214,141,74409,1,4,0:0:0:0:
434,45,74546,1,4,0:0:0:0:
366,209,74683,5,8,0:0:0:0:
346,57,74820,1,4,0:0:0:0:
420,279,74957,1,4,0:0:0:0:
279,221,75093,5,8,0:0:0:0:
453,197,75230,1,4,0:0:0:0:
246,303,75367,1,4,0:0:0:0:
257,70,75504,5,8,0:0:0:0:
366,209,75641,1,4,0:0:0:0:
136,163,75778,1,4,0:0:0:0:
313,140,75915,5,8,0:0:0:0:
157,315,76052,1,8,0:0:0:0:
149,323,76121,1,8,0:0:0:0:
141,331,76189,1,8,0:0:0:0:
334,290,76326,5,4,0:0:0:0:
136,163,76463,1,8,0:0:0:0:
128,154,76532,1,8,0:0:0:0:
120,146,76600,1,8,0:0:0:0:
366,209,76737,5,4,0:0:0:0:
90,247,76874,1,8,0:0:0:0:
78,249,76943,1,8,0:0:0:0:
67,251,77011,1,8,0:0:0:0:
420,279,77148,2,0,P|454:197|400:127,1,185.999999905396,4|4,0:0|0:0,0:0:0:0:
222,33,77559,6,0,L|206:218,1,185.999999905396,12|8,0:0|0:0,0:0:0:0:
94,368,77970,2,0,B|131:332|131:332|265:343,1,185.999999905396,4|8,0:0|0:0,0:0:0:0:
450,359,78381,1,10,0:0:0:0:
371,190,78518,1,0,0:0:0:0:
363,282,78655,1,10,0:0:0:0:
469,129,78792,1,6,0:0:0:0:
286,228,78929,1,0,0:0:0:0:
448,244,79066,1,10,0:0:0:0:
283,112,79203,6,0,B|233:110|204:152|204:152|164:120|112:140,1,185.999999905396,10|10,0:0|0:0,0:0:0:0:
30,237,79614,2,0,L|14:52,1,185.999999905396,6|10,0:0|0:0,0:0:0:0:
106,43,80025,1,2,0:0:0:0:
122,228,80162,1,4,0:0:0:0:
190,81,80299,1,10,0:0:0:0:
129,320,80436,2,0,P|223:334|310:303,1,185.999999905396,6|0,0:0|0:0,0:0:0:0:
449,182,80847,6,0,P|357:172|280:120,1,185.999999905396,10|10,0:0|0:0,0:0:0:0:
195,17,81258,2,0,L|179:202,1,185.999999905396,6|10,0:0|0:0,0:0:0:0:
170,294,81669,1,10,0:0:0:0:
271,210,81806,1,8,0:0:0:0:
93,240,81943,1,10,0:0:0:0:
263,302,82080,1,6,0:0:0:0:
178,202,82217,1,8,0:0:0:0:
209,378,82354,1,6,0:0:0:0:
347,263,82491,6,0,L|331:78,1,185.999999905396,10|10,0:0|0:0,0:0:0:0:
144,93,82902,2,0,B|21:81|21:81|55:80|77:56,1,185.999999905396,6|4,0:0|0:0,0:0:0:0:
236,84,83313,1,8,0:0:0:0:
74,177,83450,1,8,0:0:0:0:
275,0,83587,1,8,0:0:0:0:
201,270,83724,2,0,B|324:258|324:258|290:257|267:233,1,185.999999905396,6|0,0:0|0:0,0:0:0:0:
100,186,84135,6,0,L|116:371,1,185.999999905396,12|8,0:0|0:0,0:0:0:0:
201,270,84546,2,0,B|252:243|308:259|268:281|334:291|379:269,1,185.999999905396,4|10,0:0|0:0,0:0:0:0:
333,186,84957,1,10,0:0:0:0:
247,352,85093,1,0,0:0:0:0:
428,188,85230,1,10,0:0:0:0:
196,114,85367,1,6,0:0:0:0:
297,271,85504,1,2,0:0:0:0:
327,31,85641,1,10,0:0:0:0:
99,126,85778,6,0,B|10:123|-20:94|-20:94|13:99|36:80,1,185.999999905396,10|10,0:0|0:0,0:0:0:0:
222,49,86189,2,0,B|193:91|193:91|208:225,1,185.999999905396,6|10,0:0|0:0,0:0:0:0:
218,317,86600,1,10,0:0:0:0:
115,235,86737,1,4,0:0:0:0:
310,306,86874,1,10,0:0:0:0:
124,327,87011,2,0,P|41:294|22:207,1,185.999999905396,6|2,0:0|0:0,0:0:0:0:
298,211,87422,6,0,P|381:243|400:331,1,185.999999905396,10|10,0:0|0:0,0:0:0:0:
208,225,87833,2,0,L|218:132,2,92.9999999526978,6|10|2,0:0|0:0|0:0,0:0:0:0:
197,317,88244,1,10,0:0:0:0:
133,169,88381,1,8,0:0:0:0:
133,169,88450,1,8,0:0:0:0:
133,169,88518,1,2,0:0:0:0:
283,281,88655,1,6,0:0:0:0:
122,261,88792,1,8,0:0:0:0:
294,189,88929,1,4,0:0:0:0:
47,205,89066,5,12,0:0:0:0:
283,281,89203,1,4,0:0:0:0:
283,281,89272,1,4,0:0:0:0:
283,281,89340,1,4,0:0:0:0:
122,261,89477,5,10,0:0:0:0:
369,245,89614,1,8,0:0:0:0:
197,317,89751,1,8,0:0:0:0:
380,153,89888,5,8,0:0:0:0:
358,337,90025,1,4,0:0:0:0:
306,97,90162,1,4,0:0:0:0:
369,245,90299,5,4,0:0:0:0:
232,41,90436,1,4,0:0:0:0:
197,317,90573,1,4,0:0:0:0:
221,134,90710,6,0,P|305:98|319:11,1,185.999999905396,12|8,0:0|0:0,0:0:0:0:
319,12,91121,2,0,B|357:45|357:45|378:178,1,185.999999905396,4|2,0:0|0:0,0:0:0:0:
392,268,91532,5,10,0:0:0:0:
334,339,91669,1,8,0:0:0:0:
246,364,91806,1,10,0:0:0:0:
159,334,91943,2,0,P|105:261|104:169,1,185.999999905396,4|0,0:0|0:0,0:0:0:0:
155,94,92354,5,10,0:0:0:0:
240,60,92491,1,2,0:0:0:0:
329,82,92628,1,10,0:0:0:0:
389,151,92765,2,0,B|386:205|371:242|371:242|328:216|312:170,1,185.999999905396,6|2,0:0|0:0,0:0:0:0:
329,82,93176,5,10,0:0:0:0:
240,60,93313,1,4,0:0:0:0:
155,94,93450,1,10,0:0:0:0:
104,168,93587,2,0,P|104:260|159:334,1,185.999999905396,6|0,0:0|0:0,0:0:0:0:
246,364,93998,5,10,0:0:0:0:
334,339,94135,1,2,0:0:0:0:
392,268,94272,1,10,0:0:0:0:
396,176,94409,2,0,B|384:53|384:53|383:87|359:109,1,185.999999905396,4|10,0:0|0:0,0:0:0:0:
306,185,94820,6,0,L|213:175,1,92.9999999526978,10|10,0:0|0:0,0:0:0:0:
121,165,95093,1,10,0:0:0:0:
157,249,95230,2,0,P|69:241|28:162,1,185.999999905396,6|0,0:0|0:0,0:0:0:0:
121,165,95641,6,0,P|137:122|172:91,1,92.9999999526978,10|6,0:0|0:0,0:0:0:0:
213,175,95915,1,10,0:0:0:0:
157,249,96052,2,0,P|111:256|67:240,1,92.9999999526978,6|0,0:0|0:0,0:0:0:0:
268,101,96326,1,6,2:0:0:0:
305,185,96463,2,0,P|288:227|253:258,1,92.9999999526978,10|6,0:0|0:0,0:0:0:0:
213,175,96737,1,6,0:0:0:0:
269,101,96874,2,0,P|314:93|358:109,1,92.9999999526978,10|2,0:0|0:0,0:0:0:0:
253,258,97148,1,6,0:0:0:0:
115,202,97285,6,0,B|123:132|123:132|155:100|155:100|164:29,1,185.999999905396,12|10,0:0|0:0,0:0:0:0:
115,202,97696,2,0,P|196:242|285:221,1,185.999999905396,4|2,0:0|0:0,0:0:0:0:
343,151,98107,1,10,0:0:0:0:
344,60,98244,1,10,0:0:0:0:
289,0,98381,1,2,0:0:0:0:
432,91,98518,6,0,B|485:80|508:37|508:37|477:17|423:11,1,185.999999905396,6|0,0:0|0:0,0:0:0:0:
344,60,98929,1,10,0:0:0:0:
343,151,99066,1,10,0:0:0:0:
285,220,99203,1,10,0:0:0:0:
196,242,99340,2,0,P|114:201|77:118,1,185.999999905396,6|2,0:0|0:0,0:0:0:0:
133,43,99751,5,10,0:0:0:0:
222,59,99888,1,10,0:0:0:0:
282,128,100025,1,2,0:0:0:0:
284,219,100162,2,0,P|227:291|139:313,1,185.999999905396,6|0,0:0|0:0,0:0:0:0:
53,280,100573,1,10,0:0:0:0:
4,203,100710,1,2,0:0:0:0:
10,112,100847,1,10,0:0:0:0:
70,43,100984,2,0,P|160:28|242:68,1,185.999999905396,6|2,0:0|0:0,0:0:0:0:
257,160,101395,6,0,L|142:172,1,92.9999999526978,10|8,0:0|0:0,0:0:0:0:
72,179,101669,1,8,0:0:0:0:
349,150,101806,6,0,B|354:103|396:72|396:72|426:103|437:140|432:169|415:199|396:218,1,253.999989987691,6|0,0:0|0:0,0:0:0:0:
311,234,102217,1,10,0:0:0:0:
311,234,102628,6,0,L|126:214,1,185.999999905396,12|0,0:0|0:0,0:0:0:0:
208,317,103039,2,0,B|137:327|137:327|105:356|105:356|35:365,1,185.999999905396,4|0,0:0|0:0,0:0:0:0:
35,178,103450,2,0,L|23:271,1,92.9999999526978,8|4,0:0|0:0,0:0:0:0:
23,270,103655,1,4,0:0:0:0:
23,270,103724,1,4,0:0:0:0:
111,118,103861,6,0,B|168:110|215:144|170:151|228:183|278:177,1,185.999999905396,12|10,0:0|0:0,0:0:0:0:
279,177,104272,2,0,B|289:106|289:106|318:74|318:74|327:4,1,185.999999905396,4|2,0:0|0:0,0:0:0:0:
381,150,104683,2,0,L|474:138,2,92.9999999526978,8|8|10,0:0|0:0|0:0,0:0:0:0:
392,242,105093,2,0,L|485:230,2,92.9999999526978,6|2|10,0:0|0:0|0:0,0:0:0:0:
299,253,105504,5,10,0:0:0:0:
210,240,105641,1,0,0:0:0:0:
160,165,105778,1,10,0:0:0:0:
181,77,105915,2,0,P|261:35|345:66,1,185.999999905396,6|10,0:0|0:0,0:0:0:0:
380,149,106326,1,10,0:0:0:0:
341,230,106463,1,8,0:0:0:0:
254,256,106600,1,10,0:0:0:0:
176,211,106737,2,0,B|121:212|91:250|91:250|118:276|170:291,1,185.999999905396,4|0,0:0|0:0,0:0:0:0:
254,256,107148,5,10,0:0:0:0:
341,230,107285,1,0,0:0:0:0:
380,149,107422,1,10,0:0:0:0:
346,66,107559,2,0,P|261:34|181:76,1,185.999999905396,4|10,0:0|0:0,0:0:0:0:
170,169,107970,2,0,L|263:181,2,92.9999999526978,10|10|2,0:0|0:0|0:0,0:0:0:0:
181,76,108381,2,0,L|274:88,2,92.9999999526978,4|2|2,0:0|0:0|0:0,0:0:0:0:
88,64,108792,6,0,L|76:157,2,92.9999999526978,10|2|10,0:0|0:0|0:0,0:0:0:0:
170,169,109203,2,0,L|158:262,2,92.9999999526978,4|0|0,0:0|0:0|0:0,0:0:0:0:
262,180,109614,2,0,L|250:273,2,92.9999999526978,10|8|2,0:0|0:0|0:0,0:0:0:0:
365,98,110025,2,0,L|353:191,2,92.9999999526978,4|0|2,0:0|0:0|0:0,0:0:0:0:
342,285,110436,6,0,L|158:261,1,185.999999905396,12|8,0:0|0:0,0:0:0:0:
157,260,110847,2,0,P|74:298|43:383,1,185.999999905396,4|10,0:0|0:0,0:0:0:0:
169,166,111258,2,0,L|261:178,2,92.9999999526978,10|10|10,0:0|0:0|0:0,0:0:0:0:
78,187,111669,2,0,L|65:95,2,92.9999999526978,4|2|6,0:0|0:0|0:0,0:0:0:0:
90,279,112080,5,8,0:0:0:0:
167,328,112217,1,2,0:0:0:0:
259,338,112354,1,10,0:0:0:0:
345,305,112491,2,0,P|380:276|408:237,1,92.9999999526978,4|10,0:0|0:0,0:0:0:0:
431,148,112765,1,8,0:0:0:0:
412,57,112902,6,0,L|319:67,2,92.9999999526978,4|10|8,0:0|0:0|0:0,0:0:0:0:
431,148,113313,1,8,0:0:0:0:
407,237,113450,1,8,0:0:0:0:
345,305,113587,1,0,0:0:0:0:
259,338,113724,6,0,L|116:329,2,141.999988335674,12|4|6,0:0|0:0|0:0,0:0:0:0:
345,305,114546,2,0,P|361:244|348:149,1,141.999988335674,10|0,0:0|0:0,0:0:0:0:
303,90,115093,1,2,0:0:0:0:
262,171,115367,6,0,L|191:161,1,70.9999941678368,10|0,0:0|0:0,0:0:0:0:
178,165,115641,2,0,P|166:199|165:234,1,70.9999941678368,0|8,0:0|0:0,0:0:0:0:
170,248,115915,2,0,L|99:257,1,70.9999941678368,6|4,0:0|0:0,0:0:0:0:
85,259,116189,2,0,L|76:117,1,141.999988335674,10|6,0:0|0:0,0:0:0:0:
70,26,116737,1,6,0:0:0:0:
167,110,117011,6,0,P|227:68|252:3,2,141.999988335674,10|6|6,0:0|0:0|0:0,0:0:0:0:
75,116,117833,2,0,P|105:179|170:204,1,141.999988335674,8|8,0:0|0:0,0:0:0:0:
170,204,118176,1,8,0:0:0:0:
170,204,118244,1,8,0:0:0:0:
234,273,118381,6,0,L|305:264,1,70.9999941678368,8|0,0:0|0:0,0:0:0:0:
316,257,118655,2,0,P|318:221|310:186,1,70.9999941678368,10|0,0:0|0:0,0:0:0:0:
301,175,118929,2,0,L|372:183,1,70.9999941678368,2|10,0:0|0:0,0:0:0:0:
385,184,119203,2,0,L|402:43,2,141.999988335674,2|8|8,0:0|0:0|0:0,0:0:0:0:
398,187,119888,2,0,L|433:191,2,35.4999970839184,8|4|4,0:0|0:0|0:0,0:0:0:0:
315,231,120299,6,0,B|311:253|294:260|294:260|352:260|400:283|400:283|361:294|345:330|345:330|290:330|238:346|238:346|214:312|171:294|171:294|167:319|155:344|132:363|99:362,1,524.9999833107,4|2,0:0|0:0,0:0:0:0:
90,358,121840,2,2,L|84:308,1,49.4999982753754
54,63,122559,5,0,0:0:0:0:
65,161,122765,1,0,0:0:0:0:
77,259,122970,1,0,0:0:0:0:
89,357,123176,1,4,0:0:0:0:
169,298,123381,6,0,B|244:288|244:288|287:311|287:311|363:302,1,200.999984102631,12|4,0:0|0:0,0:0:0:0:
463,292,123998,5,12,0:0:0:0:
435,42,124203,1,4,0:0:0:0:
233,192,124409,1,8,0:0:0:0:
449,167,124614,5,4,0:0:0:0:
219,67,124820,1,8,0:0:0:0:
246,316,125025,1,4,0:0:0:0:
246,316,125128,1,4,0:0:0:0:
246,316,125230,2,0,L|251:365,1,50.2499960256579,8|4,0:0|0:0,0:0:0:0:
443,117,125436,2,0,L|448:166,1,50.2499960256579,4|4,0:0|0:0,0:0:0:0:
227,142,125641,2,0,L|232:191,1,50.2499960256579,8|4,0:0|0:0,0:0:0:0:
463,292,125847,2,0,L|468:341,1,50.2499960256579,4|4,0:0|0:0,0:0:0:0:
346,244,126052,5,8,0:0:0:0:
353,241,126154,1,8,0:0:0:0:
360,245,126257,1,8,0:0:0:0:
360,254,126360,1,8,0:0:0:0:
353,258,126462,1,8,0:0:0:0:
345,255,126565,1,8,0:0:0:0:
344,247,126669,6,0,L|349:197,1,50.2499960256579,8|8,0:0|0:0,0:0:0:0:
455,186,126874,2,0,P|439:138|444:88,1,100.499992051316,12|8,0:0|0:0,0:0:0:0:
448,79,127183,1,8,0:0:0:0:
454,70,127285,2,0,B|419:54|407:22|407:22|340:34|309:103,1,200.999984102631,4|8,0:0|0:0,0:0:0:0:
349,196,127902,1,8,0:0:0:0:
244,26,128107,1,4,0:0:0:0:
283,277,128313,6,0,B|161:289|161:289|149:244|117:228,1,200.999984102631,8|8,0:0|0:0,0:0:0:0:
62,312,128929,1,4,0:0:0:0:
254,373,129135,1,8,0:0:0:0:
211,177,129340,1,0,0:0:0:0:
196,157,129443,1,4,0:0:0:0:
203,133,129546,1,8,0:0:0:0:
210,109,129648,1,0,0:0:0:0:
218,85,129751,2,0,L|238:29,1,50.2499960256579,4|4,0:0|0:0,0:0:0:0:
295,132,129957,6,0,P|344:131|386:157,1,100.499992051316,8|0,0:0|0:0,0:0:0:0:
395,172,130265,1,8,0:0:0:0:
399,188,130367,2,0,P|321:246|224:230,1,200.999984102631,4|8,0:0|0:0,0:0:0:0:
210,220,130881,1,4,0:0:0:0:
198,207,130984,2,0,P|191:182|189:157,1,50.2499960256579,8|0,0:0|0:0,0:0:0:0:
108,99,131189,2,0,P|97:121|90:145,1,50.2499960256579,4|4,0:0|0:0,0:0:0:0:
8,332,131395,6,0,B|50:367|50:367|195:352,1,200.999984102631,8|8,0:0|0:0,0:0:0:0:
395,330,132011,1,4,0:0:0:0:
295,341,132217,1,8,0:0:0:0:
276,308,132320,1,4,0:0:0:0:
267,271,132422,1,4,0:0:0:0:
268,234,132525,1,0,0:0:0:0:
278,198,132628,1,4,0:0:0:0:
301,167,132730,1,4,0:0:0:0:
310,130,132833,1,8,0:0:0:0:
309,93,132936,1,8,0:0:0:0:
293,58,133039,1,8,0:0:0:0:
274,90,133141,1,8,0:0:0:0:
243,112,133244,6,0,L|143:101,1,100.499992051316,12|4,0:0|0:0,0:0:0:0:
108,116,133552,1,8,0:0:0:0:
87,147,133655,1,4,0:0:0:0:
106,245,133861,5,8,0:0:0:0:
21,69,134066,1,0,0:0:0:0:
0,320,134272,1,8,0:0:0:0:
228,213,134477,1,4,0:0:0:0:
106,245,134683,2,0,P|126:290|162:325,1,100.499992051316,8|0,0:0|0:0,0:0:0:0:
349,180,135093,6,0,P|328:134|292:99,1,100.499992051316,8|4,0:0|0:0,0:0:0:0:
293,327,135504,2,0,B|431:341|431:341|448:314|442:281,1,200.999984102631,8|8,0:0|0:0,0:0:0:0:
370,98,136121,1,4,0:0:0:0:
356,92,136223,1,4,0:0:0:0:
341,89,136326,2,0,P|316:90|292:99,1,50.2499960256579,8|8,0:0|0:0,0:0:0:0:
257,194,136532,6,0,L|157:183,1,100.499992051316,8|0,0:0|0:0,0:0:0:0:
148,192,136840,1,8,0:0:0:0:
139,201,136943,2,0,B|148:61|148:61|156:97|187:112,1,200.999984102631,4|8,0:0|0:0,0:0:0:0:
187,285,137559,2,0,L|87:296,1,100.499992051316,8|4,0:0|0:0,0:0:0:0:
80,306,137867,1,4,0:0:0:0:
72,316,137970,6,0,B|147:308|147:308|189:333|189:333|265:326,1,200.999984102631,8|8,0:0|0:0,0:0:0:0:
425,204,138587,1,4,0:0:0:0:
340,258,138792,1,4,0:0:0:0:
331,225,138894,1,4,0:0:0:0:
329,192,138997,1,12,0:0:0:0:
335,159,139100,1,4,0:0:0:0:
355,127,139203,1,8,0:0:0:0:
358,89,139305,1,8,0:0:0:0:
340,57,139408,1,8,0:0:0:0:
308,38,139511,1,8,0:0:0:0:
271,39,139613,1,8,0:0:0:0:
240,59,139716,1,8,0:0:0:0:
224,93,139820,6,0,L|231:148,1,50.2499960256579,12|0,0:0|0:0,0:0:0:0:
229,256,140025,1,0,0:0:0:0:
209,225,140128,1,8,0:0:0:0:
175,209,140230,2,0,L|75:221,1,100.499992051316,4|0,0:0|0:0,0:0:0:0:
86,120,140641,1,8,0:0:0:0:
14,313,140847,2,0,L|114:325,1,100.499992051316,8|4,0:0|0:0,0:0:0:0:
312,347,141258,6,0,B|277:313|277:313|296:160,1,200.999984102631,8|8,0:0|0:0,0:0:0:0:
394,174,141874,1,4,0:0:0:0:
194,150,142080,1,8,0:0:0:0:
177,148,142182,1,4,0:0:0:0:
159,145,142285,2,0,L|60:134,1,100.499992051316,8|8,0:0|0:0,0:0:0:0:
147,244,142696,1,4,0:0:0:0:
171,45,142902,6,0,L|270:56,1,100.499992051316,8|0,0:0|0:0,0:0:0:0:
276,67,143210,1,8,0:0:0:0:
281,78,143313,2,0,P|334:157|431:152,1,200.999984102631,4|8,0:0|0:0,0:0:0:0:
445,53,143929,1,8,0:0:0:0:
491,249,144135,1,4,0:0:0:0:
321,355,144340,6,0,L|117:344,1,200.999984102631,8|8,0:0|0:0,0:0:0:0:
19,338,144957,1,4,0:0:0:0:
29,137,145162,1,8,0:0:0:0:
64,122,145264,1,4,0:0:0:0:
102,118,145367,1,8,0:0:0:0:
138,126,145470,1,4,0:0:0:0:
171,143,145572,1,4,0:0:0:0:
195,172,145676,1,4,0:0:0:0:
229,186,145778,1,8,0:0:0:0:
267,190,145881,1,8,0:0:0:0:
303,183,145984,2,0,L|312:118,1,50.2499960256579,0|0,0:0|0:0,0:0:0:0:
381,29,146189,6,0,P|390:77|423:114,1,100.499992051316,12|0,0:0|0:0,0:0:0:0:
434,120,146498,1,8,0:0:0:0:
445,125,146600,2,0,L|510:116,1,50.2499960256579,4|8,0:0|0:0,0:0:0:0:
491,208,146806,1,8,0:0:0:0:
480,213,146909,1,4,0:0:0:0:
469,219,147011,2,0,L|404:210,1,50.2499960256579,8|0,0:0|0:0,0:0:0:0:
319,198,147217,1,8,0:0:0:0:
485,309,147422,1,4,0:0:0:0:
319,198,147628,6,0,B|330:123|330:123|365:89|365:89|378:14,1,200.999984102631,8|8,0:2|0:2,0:2:0:0:
477,30,148244,1,4,0:0:0:0:
276,38,148450,1,8,0:0:0:0:
265,28,148552,2,0,P|217:14|168:23,1,100.499992051316,4|8,0:0|0:0,0:0:0:0:
154,29,148861,2,0,P|133:43|120:64,1,50.2499960256579,8|0,0:0|0:0,0:0:0:0:
22,88,149066,2,0,P|33:109|37:134,1,50.2499960256579,4|4,0:0|0:0,0:0:0:0:
12,233,149272,1,8,0:0:0:0:
21,241,149374,1,8,0:0:0:0:
31,248,149477,6,0,L|146:235,1,100.499992051316,8|8,0:0|0:0,0:0:0:0:
305,337,149888,2,0,P|322:294|378:259,1,100.499992051316,4|8,0:0|0:0,0:0:0:0:
379,266,150196,1,4,0:0:0:0:
393,270,150299,2,0,L|403:322,1,50.2499960256579,8|4,0:0|0:0,0:0:0:0:
290,134,150504,2,0,L|300:186,1,50.2499960256579,8|8,0:0|0:0,0:0:0:0:
491,251,150710,1,8,0:0:0:0:
309,35,150915,6,0,B|234:48|234:48|200:83|200:83|125:94,1,200.999984102631,12|8,0:2|0:2,0:2:0:0:
6,259,151532,2,0,L|105:272,1,100.499992051316,12|0,0:0|0:0,0:0:0:0:
320,345,151943,2,0,L|220:358,1,100.499992051316,8|4,0:0|0:0,0:0:0:0:
281,151,152354,2,0,L|380:164,1,100.499992051316,12|0,0:0|0:0,0:0:0:0:
389,177,152662,1,4,0:0:0:0:
396,189,152765,6,0,P|433:156|454:111,1,100.499992051316,8|4,0:0|0:0,0:0:0:0:
440,73,153073,1,4,0:0:0:0:
395,67,153175,1,8,0:0:0:0:
350,61,153278,1,4,0:0:0:0:
310,84,153381,1,8,0:0:0:0:
265,78,153483,1,8,0:0:0:0:
220,73,153586,1,8,0:0:0:0:
179,93,153689,1,4,0:0:0:0:
134,87,153791,1,8,0:0:0:0:
89,82,153894,1,8,0:0:0:0:
166,10,153998,5,8,0:0:0:0:
232,150,160984,6,0,B|184:156|184:156|153:190,1,93.7499970197678,12|0,0:0|0:0,0:0:0:0:
324,138,161189,2,0,L|313:44,1,93.7499970197678
152,283,161395,2,0,P|221:342|313:339,2,187.499994039536,4|2|8,0:0|0:0|0:0,0:0:0:0:
153,189,161909,5,0,0:0:0:0:
71,234,162011,2,0,P|57:278|71:333,1,93.7499970197678,2|0,0:0|0:0,0:0:0:0:
152,94,162217,2,0,P|119:60|75:45,1,93.7499970197678,4|0,0:0|0:0,0:0:0:0:
233,235,162422,2,0,P|278:224|312:193,1,93.7499970197678,2|0,0:0|0:0,0:0:0:0:
382,267,162628,6,0,B|411:220|411:220|399:88,1,187.499994039536,8|2,0:0|0:0,0:0:0:0:
344,14,162936,1,0,0:0:0:0:
304,96,163039,2,0,P|267:66|251:23,1,93.7499970197678,4|0,0:0|0:0,0:0:0:0:
492,79,163244,2,0,L|501:172,1,93.7499970197678,2|0,0:0|0:0,0:0:0:0:
282,290,163450,6,0,L|291:196,1,93.7499970197678,10|2,0:0|0:0,0:0:0:0:
72,79,163655,2,0,L|81:172,1,93.7499970197678,2|0,0:0|0:0,0:0:0:0:
54,360,163861,2,0,B|121:351|121:351|165:378|165:378|233:370,1,187.499994039536,4|2,0:0|0:0,0:0:0:0:
417,346,164169,1,0,0:0:0:0:
417,346,164272,6,0,P|424:297|410:255,1,93.7499970197678,8|0,0:0|0:0,0:0:0:0:
225,279,164477,2,0,P|218:328|232:369,1,93.7499970197678,2|0,0:0|0:0,0:0:0:0:
325,358,164683,1,4,0:0:0:0:
317,267,164785,1,0,0:0:0:0:
261,194,164888,2,0,P|212:187|170:201,1,93.7499970197678,2|0,0:0|0:0,0:0:0:0:
80,233,165093,6,0,B|88:161|88:161|120:129|120:129|129:59,2,187.499994039536,8|2|4,0:0|0:0|0:0,0:0:0:0:
68,326,165607,1,0,0:0:0:0:
68,326,165710,2,0,L|161:314,1,93.7499970197678,2|0,0:0|0:0,0:0:0:0:
296,184,165915,2,0,L|202:172,1,93.7499970197678,8|0,0:0|0:0,0:0:0:0:
342,366,166121,2,0,L|435:354,1,93.7499970197678,2|0,0:0|0:0,0:0:0:0:
471,267,166326,1,4,0:0:0:0:
413,191,166429,1,0,0:0:0:0:
448,103,166531,1,2,0:0:0:0:
390,27,166634,1,0,0:0:0:0:
295,41,166737,5,0,0:0:0:0:
295,41,167559,6,0,B|276:84|276:84|295:126,1,93.7499970197678,12|0,0:0|0:0,0:0:0:0:
193,212,167765,2,0,B|212:169|212:169|192:126,1,93.7499970197678
153,40,167970,2,0,P|63:55|21:135,1,187.499994039536,4|2,0:0|0:0,0:0:0:0:
9,232,168278,1,0,0:0:0:0:
9,232,168381,6,0,L|102:240,1,93.7499970197678,8|0,0:0|0:0,0:0:0:0:
93,332,168587,1,2,0:0:0:0:
181,360,168689,1,0,0:0:0:0:
267,327,168792,1,4,0:0:0:0:
311,246,168895,1,0,0:0:0:0:
295,156,168998,2,0,L|202:164,1,93.7499970197678,2|0,0:0|0:0,0:0:0:0:
359,324,169203,6,0,L|452:332,1,93.7499970197678,8|0,0:0|0:0,0:0:0:0:
334,55,169409,2,0,L|148:71,2,187.499994039536,2|4|2,0:0|0:0|0:0,0:0:0:0:
427,45,169922,1,0,0:0:0:0:
494,131,170025,5,10,0:0:0:0:
494,131,170093,1,2,0:0:0:0:
494,131,170162,1,2,0:0:0:0:
494,131,170230,2,0,P|499:177|488:222,1,93.7499970197678
445,307,170436,1,4,0:0:0:0:
354,281,170539,1,0,0:0:0:0:
265,307,170641,1,2,0:0:0:0:
174,281,170744,1,0,0:0:0:0:
85,307,170847,6,0,L|77:213,1,93.7499970197678,8|0,0:0|0:0,0:0:0:0:
141,63,171052,2,0,B|108:31|108:31|61:26,1,93.7499970197678,2|0,0:0|0:0,0:0:0:0:
68,119,171258,1,4,0:0:0:0:
154,159,171361,1,0,0:0:0:0:
226,102,171463,2,0,B|236:57|236:57|218:13,1,93.7499970197678,2|0,0:0|0:0,0:0:0:0:
322,86,171669,6,0,B|311:131|311:131|330:175,1,93.7499970197678,8|0,0:0|0:0,0:0:0:0:
368,260,171874,2,0,L|461:267,1,93.7499970197678,2|0,0:0|0:0,0:0:0:0:
501,116,172080,2,0,L|407:123,1,93.7499970197678,4|0,0:0|0:0,0:0:0:0:
276,251,172285,1,2,0:0:0:0:
276,251,172388,1,0,0:0:0:0:
330,174,172491,6,0,B|263:161|263:161|218:186|218:186|150:174,1,187.499994039536,8|2,0:0|0:0,0:0:0:0:
90,246,172799,1,0,0:0:0:0:
57,158,172902,2,0,P|75:115|115:84,1,93.7499970197678,4|0,0:0|0:0,0:0:0:0:
122,333,173107,2,0,L|30:350,1,93.7499970197678,2|0,0:0|0:0,0:0:0:0:
183,261,173313,5,10,0:0:0:0:
183,261,173415,1,2,0:0:0:0:
151,174,173518,2,0,P|197:170|243:192,1,93.7499970197678,2|0,0:0|0:0,0:0:0:0:
303,348,173724,2,0,L|211:365,1,93.7499970197678,4|0,0:0|0:0,0:0:0:0:
304,119,173929,1,2,0:0:0:0:
304,119,174032,1,0,0:0:0:0:
304,119,174135,6,0,P|330:157|334:207,1,93.7499970197678,12|0,0:0|0:0,0:0:0:0:
151,174,174340,2,0,L|168:82,1,93.7499970197678
429,217,174546,2,0,B|379:290|379:290|260:278,2,187.499994039536,4|2|8,0:0|0:0|0:0,0:0:0:0:
512,174,175059,5,0,0:0:0:0:
507,268,175163,2,0,L|455:346,1,93.7499970197678,2|0,0:0|0:0,0:0:0:0:
271,373,175367,2,0,L|396:384,1,93.7499970197678,4|0,0:0|0:0,0:0:0:0:
429,217,175573,2,0,L|377:295,1,93.7499970197678,2|0,0:0|0:0,0:0:0:0:
280,280,175778,6,0,B|251:233|251:233|263:101,1,187.499994039536,8|2,0:0|0:0,0:0:0:0:
168,93,176087,1,0,0:0:0:0:
262,101,176190,2,0,P|256:55|228:18,1,93.7499970197678,4|0,0:0|0:0,0:0:0:0:
74,85,176395,2,0,P|80:131|107:168,1,93.7499970197678,2|0,0:0|0:0,0:0:0:0:
188,337,176600,6,0,P|225:309|243:266,1,93.7499970197678,10|2,0:0|0:0,0:0:0:0:
350,114,176806,2,0,P|307:95|261:101,1,93.7499970197678,2|0,0:0|0:0,0:0:0:0:
330,325,177011,2,0,P|419:329|473:257,1,187.499994039536,4|2,0:0|0:0,0:0:0:0:
498,164,177320,1,0,0:0:0:0:
498,164,177422,6,0,P|451:160|409:182,1,93.7499970197678,8|0,0:0|0:0,0:0:0:0:
350,114,177628,2,0,P|323:153|321:199,1,93.7499970197678,2|0,0:0|0:0,0:0:0:0:
345,297,177833,1,4,0:0:0:0:
345,297,177936,1,0,0:0:0:0:
345,297,178039,2,0,P|298:300|256:278,1,93.7499970197678,2|0,0:0|0:0,0:0:0:0:
200,204,178244,6,0,B|130:213|130:213|98:245|98:245|26:253,2,187.499994039536,8|2|4,0:0|0:0|0:0,0:0:0:0:
274,146,178758,1,0,0:0:0:0:
188,110,178861,2,0,L|63:125,1,93.7499970197678,2|0,0:0|0:0,0:0:0:0:
286,239,179066,5,8,0:0:0:0:
361,182,179169,1,0,0:0:0:0:
349,89,179272,2,0,L|332:-3,1,93.7499970197678,2|0,0:0|0:0,0:0:0:0:
200,204,179477,2,0,L|183:296,1,93.7499970197678,4|0,0:0|0:0,0:0:0:0:
435,125,179683,2,4,L|418:32,1,93.7499970197678,6|4,0:0|0:0,0:0:0:0:
372,275,179888,5,8,0:3:0:0:
372,275,179957,1,4,0:0:0:0:
372,275,180025,1,4,0:0:0:0:
372,275,180093,2,8,L|433:287,2,62.4999980131785
316,184,180299,5,4,0:3:0:0:
316,184,180368,1,4,0:0:0:0:
316,184,180436,1,4,0:0:0:0:
316,184,180504,2,12,L|377:171,2,62.4999980131785
256,192,180710,12,0,187285,0:0:0:0:
213,160,203724,6,0,B|193:114|193:114|171:113|145:97|145:97|119:143|139:216,1,202.499987382889,2|0,0:0|0:0,0:3:0:0:
189,268,204135,2,0,B|244:244|308:256|269:284|324:300|381:269,1,202.499987382889,2|0,0:0|0:0,0:0:0:0:
425,350,204546,6,0,B|467:301|467:301|453:163,1,202.499987382889,2|0,0:0|0:0,0:0:0:0:
488,76,204957,2,0,B|422:52|360:78|360:78|376:107|362:148,1,202.499987382889,2|0,0:0|0:0,0:0:0:0:
330,229,205367,6,0,P|214:229|183:118,1,247.499999685288
259,66,206189,1,0,0:0:0:0:
259,66,206600,5,0,0:0:0:0:
289,68,206703,1,0,0:0:0:0:
320,71,206806,1,0,0:0:0:0:
351,73,206909,1,0,0:0:0:0:
382,76,207011,1,8,0:0:0:0:
474,83,207217,1,0,0:0:0:0:
421,159,207422,1,8,0:0:0:0:
413,188,207525,1,0,0:0:0:0:
417,219,207628,1,0,0:0:0:0:
327,206,207833,6,8,P|256:228|226:303,1,149.999995231629
142,312,208347,5,0,0:0:0:0:
144,289,208450,1,0,0:0:0:0:
146,266,208552,1,0,0:0:0:0:
148,243,208655,1,8,0:0:0:0:
156,159,208861,1,0,0:0:0:0:
226,208,209066,1,8,0:0:0:0:
248,213,209169,1,0,0:0:0:0:
271,210,209272,1,0,0:0:0:0:
342,160,209477,6,8,L|333:44,1,112.500000715256
255,14,209991,5,0,0:0:0:0:
253,31,210093,1,0,0:0:0:0:
252,48,210196,1,0,0:0:0:0:
250,65,210299,1,0,0:0:0:0:
244,145,210504,1,0,0:0:0:0:
176,100,210710,1,0,0:0:0:0:
160,97,210813,1,0,0:0:0:0:
143,99,210915,1,0,0:0:0:0:
72,146,211121,6,0,L|79:220,1,74.9999976158143
67,308,211635,5,0,0:0:0:0:
90,306,211737,1,0,0:0:0:0:
113,304,211840,1,0,0:0:0:0:
136,302,211943,1,8,0:0:0:0:
220,294,212148,1,0,0:0:0:0:
171,224,212354,1,8,0:0:0:0:
166,202,212457,1,0,0:0:0:0:
169,179,212559,1,0,0:0:0:0:
204,113,212765,5,8,0:0:0:0:
264,70,212970,1,0,0:0:0:0:
338,58,213176,1,8,0:0:0:0:
409,81,213381,1,0,0:0:0:0:
462,133,213587,1,8,0:0:0:0:
256,192,213689,12,0,215230,0:0:0:0:
207,46,216874,6,0,P|204:87|206:129,1,83.9999983551026
251,213,217285,1,2,0:0:0:0:
251,213,217491,1,0,0:0:0:0:
251,213,217696,2,0,P|334:205|418:204,1,167.999996710205,0|2,0:0|0:0,0:0:0:0:
423,289,218313,1,0,0:0:0:0:
423,289,218518,2,0,P|339:290|255:297,1,167.999996710205,0|2,0:0|0:0,0:0:0:0:
172,322,219135,5,0,0:0:0:0:
172,322,219340,2,0,P|177:280|179:238,1,83.9999983551026,2|2,0:0|0:0,0:0:0:0:
99,192,219751,1,2,0:0:0:0:
99,192,219957,1,0,0:0:0:0:
99,192,220162,2,0,P|94:275|83:359,1,167.999996710205,0|2,0:0|0:0,0:0:0:0:
172,322,220778,5,0,0:0:0:0:
172,322,220983,2,0,P|177:280|179:238,1,83.9999983551026
247,169,221395,2,0,P|259:209|275:247,1,83.9999983551026,2|0,0:0|0:0,0:0:0:0:
352,281,221806,2,0,P|362:197|367:113,1,167.999996710205,0|2,0:0|0:0,0:0:0:0:
320,43,222422,1,0,0:0:0:0:
320,43,222628,2,0,L|151:58,2,167.999996710205,0|2|0,0:0|0:0|0:0,0:0:0:0:
320,43,223861,6,0,P|326:84|328:126,1,83.9999983551026,2|0,0:0|0:0,0:0:0:0:
300,205,224272,2,0,L|131:190,1,167.999996710205,0|2,0:0|0:0,0:0:0:0:
78,107,224888,1,0,0:0:0:0:
78,107,225093,2,2,P|161:95|243:78,1,167.999996710205,0|2,0:0|0:0,0:0:0:0:
320,43,225710,1,0,0:0:0:0:
320,43,225915,6,0,P|326:84|328:126,1,83.9999983551026,0|2,0:0|0:0,0:0:0:0:
300,205,226326,1,2,0:0:0:0:
300,205,226532,1,0,0:0:0:0:
299,204,226737,2,0,P|382:215|465:233,1,167.999996710205,2|2,0:0|0:0,0:0:0:0:
491,314,227354,5,0,0:0:0:0:
491,314,227559,2,0,P|441:319|391:327,1,83.9999983551026,0|2,0:0|0:0,0:0:0:0:
342,377,227970,2,0,P|259:362|175:354,2,167.999996710205,2|2|0,0:0|0:0|0:0,0:0:0:0:
358,293,228998,1,0,0:0:0:0:
358,293,229203,2,0,P|275:278|191:270,2,167.999996710205,2|0|0,0:0|0:0|0:0,0:0:0:0:
358,293,230436,5,2,0:0:0:0:
420,348,230641,1,0,0:0:0:0:
342,377,230847,2,0,P|259:362|175:354,1,167.999996710205,0|2,0:0|0:0,0:0:0:0:
92,368,231463,1,0,0:0:0:0:
27,313,231669,2,0,P|42:230|50:146,1,167.999996710205,0|2,0:0|0:0,0:0:0:0:
30,64,232285,5,0,0:0:0:0:
110,89,232491,2,0,L|193:82,1,83.9999983551026
209,169,232902,1,2,0:0:0:0:
273,115,233107,1,0,0:0:0:0:
353,139,233313,2,0,P|344:222|330:305,1,167.999996710205,2|2,0:0|0:0,0:0:0:0:
259,351,233929,5,0,0:0:0:0:
252,267,234135,2,0,P|239:227|222:188,1,83.9999983551026,0|2,0:0|0:0,0:0:0:0:
149,230,234546,2,0,L|65:223,1,83.9999983551026,2|0,0:0|0:0,0:0:0:0:
32,145,234957,2,0,P|100:99|181:114,1,167.999996710205,2|2,2:0|2:0,2:0:0:0:
222,188,235573,1,0,0:0:0:0:
303,167,235778,2,0,P|308:83|312:0,2,167.999996710205,0|2|2,0:0|0:0|0:0,0:0:0:0:
303,167,237011,5,0,0:0:0:0:
400,142,237422,1,0,0:0:0:0:
425,239,237833,1,2,0:0:0:0:
328,264,238244,1,2,0:0:0:0:
328,264,238655,5,2,0:0:0:0:
335,240,239066,1,2,0:0:0:0:
359,247,239477,1,2,0:0:0:0:
353,271,239888,1,2,0:0:0:0:
353,271,240299,5,0,0:0:0:0:
256,296,240710,1,0,0:0:0:0:
231,199,241121,1,2,0:0:0:0:
328,174,241532,1,2,0:0:0:0:
328,174,241943,5,2,0:0:0:0:
321,198,242354,1,2,0:0:0:0:
297,191,242765,1,2,0:0:0:0:
303,167,243176,1,2,0:0:0:0:
303,167,243998,6,0,P|305:226|302:288,1,119.999996185303
241,347,244820,6,0,L|127:336,1,113.999994984436
61,259,245641,6,0,P|114:254|168:247,1,107.999999203491
252,266,246463,6,0,L|256:164,1,101.999997380066
279,86,247285,6,0,P|231:84|194:112,1,95.9999969482422
175,194,248107,6,0,L|85:185,1,89.9999943923952
8,228,248929,6,0,P|5:186|0:144,1,83.9999983551026
81,122,249751,6,0,B|93:51|162:25|162:25|200:75|168:186|168:186|161:208|164:254|196:272|232:266|262:256|268:226|272:192|257:169|228:139|193:162|165:182|165:182|92:215|79:278|79:278|96:306|114:332|160:357|200:368|234:365|265:349,1,935.999964532471,0|8,0:0|0:0,0:0:0:0:
334,286,254888,5,0,0:0:0:0:
353,196,255093,1,0,0:0:0:0:
316,112,255299,1,0,0:0:0:0:
237,65,255504,5,0,0:0:0:0:
421,257,255710,1,0,0:0:0:0:
163,320,255915,1,0,0:0:0:0:
163,320,256326,6,0,B|148:294|148:294|160:231,1,93.7499970197678,12|0,0:0|0:0,0:0:0:0:
287,66,256532,2,0,L|269:157,1,93.7499970197678
250,248,256737,1,4,0:0:0:0:
319,310,256840,1,0,0:0:0:0:
408,281,256943,2,0,L|390:190,1,93.7499970197678,2|0,0:0|0:0,0:0:0:0:
194,47,257148,6,0,L|176:138,1,93.7499970197678,10|2,0:0|0:0,0:0:0:0:
498,261,257354,2,0,L|480:170,1,93.7499970197678,2|0,0:0|0:0,0:0:0:0:
420,100,257559,1,4,0:0:0:0:
327,118,257662,1,0,0:0:0:0:
295,206,257765,2,0,P|315:249|357:278,1,93.7499970197678,2|0,0:0|0:0,0:0:0:0:
357,28,257970,6,0,L|266:10,1,93.7499970197678,8|0,0:0|0:0,0:0:0:0:
203,224,258176,2,0,L|112:242,1,93.7499970197678,2|0,0:0|0:0,0:0:0:0:
19,260,258381,1,4,0:0:0:0:
49,171,258484,1,0,0:0:0:0:
111,242,258587,2,0,P|110:288|85:327,1,93.7499970197678,2|0,0:0|0:0,0:0:0:0:
78,83,258792,6,0,L|169:101,1,93.7499970197678,10|2,0:0|0:0,0:0:0:0:
221,315,258998,2,0,L|312:297,1,93.7499970197678,2|0,0:0|0:0,0:0:0:0:
404,276,259203,1,4,0:0:0:0:
434,189,259306,1,0,0:0:0:0:
463,101,259409,2,0,L|372:83,1,93.7499970197678,2|0,0:0|0:0,0:0:0:0:
279,63,259614,5,8,0:0:0:0:
217,134,259717,1,0,0:0:0:0:
246,222,259820,1,2,0:0:0:0:
337,241,259922,1,0,0:0:0:0:
308,153,260025,1,4,0:0:0:0:
217,134,260128,1,0,0:0:0:0:
154,203,260230,2,0,P|156:249|179:289,1,93.7499970197678,2|0,0:0|0:0,0:0:0:0:
275,310,260436,5,10,0:0:0:0:
366,329,260539,1,2,0:0:0:0:
428,260,260641,1,2,0:0:0:0:
399,172,260744,1,0,0:0:0:0:
308,153,260847,1,4,0:0:0:0:
246,222,260950,1,0,0:0:0:0:
154,203,261052,1,2,0:0:0:0:
125,115,261155,1,0,0:0:0:0:
188,46,261258,6,0,L|279:64,1,93.7499970197678,8|0,0:0|0:0,0:0:0:0:
275,310,261463,2,0,L|184:292,1,93.7499970197678,2|0,0:0|0:0,0:0:0:0:
92,273,261669,1,4,0:0:0:0:
63,185,261772,1,0,0:0:0:0:
125,115,261874,1,2,0:0:0:0:
217,134,261977,1,0,0:0:0:0:
246,222,262080,5,10,0:0:0:0:
308,153,262183,1,2,0:0:0:0:
279,64,262285,1,2,0:0:0:0:
188,46,262388,1,0,0:0:0:0:
125,115,262491,1,4,0:0:0:0:
154,203,262593,1,0,0:0:0:0:
246,222,262696,1,2,0:0:0:0:
308,153,262799,1,0,0:0:0:0:
370,84,262902,6,0,L|461:102,1,93.7499970197678,12|0,0:0|0:0,0:0:0:0:
428,258,263107,2,0,L|337:240,1,93.7499970197678,2|0,0:0|0:0,0:0:0:0:
216,134,263313,2,0,P|154:207|185:295,2,187.499994039536,4|2|10,0:0|0:0|0:0,0:0:0:0:
308,153,263826,5,2,0:0:0:0:
336,239,263929,2,0,L|427:221,1,93.7499970197678,2|0,0:0|0:0,0:0:0:0:
277,62,264135,2,0,L|186:44,1,93.7499970197678,4|0,0:0|0:0,0:0:0:0:
151,195,264340,2,0,L|60:213,1,93.7499970197678,2|0,0:0|0:0,0:0:0:0:
336,239,264546,6,0,B|318:147|318:147|366:117|369:73,1,187.499994039536,8|2,0:0|0:0,0:0:0:0:
277,62,264854,1,0,0:0:0:0:
216,134,264957,2,0,L|234:225,1,93.7499970197678,4|0,0:0|0:0,0:0:0:0:
461,82,265162,2,0,P|453:36|424:0,1,93.7499970197678,2|0,0:0|0:0,0:0:0:0:
277,62,265367,6,0,P|236:40|189:41,1,93.7499970197678,10|2,0:0|0:0,0:0:0:0:
150,196,265573,2,0,P|107:215|81:253,1,93.7499970197678,2|0,0:0|0:0,0:0:0:0:
180,378,265778,2,0,B|251:365|251:365|290:387|290:387|360:377,1,187.499994039536,4|2,0:0|0:0,0:0:0:0:
452,362,266087,1,0,0:0:0:0:
485,275,266189,6,0,P|491:228|478:184,1,93.7499970197678,8|0,0:0|0:0,0:0:0:0:
315,199,266395,2,0,P|309:245|322:289,1,93.7499970197678,2|0,0:0|0:0,0:0:0:0:
400,237,266600,1,4,0:0:0:0:
390,144,266703,1,0,0:0:0:0:
305,105,266806,2,0,P|261:122|230:158,1,93.7499970197678,2|0,0:0|0:0,0:0:0:0:
222,250,267011,5,10,0:0:0:0:
136,288,267114,1,2,0:0:0:0:
61,233,267217,2,0,P|53:187|68:142,1,93.7499970197678,2|0,0:0|0:0,0:0:0:0:
0,78,267422,2,0,B|46:48|46:48|177:64,1,187.499994039536,4|2,0:0|0:0,0:0:0:0:
270,75,267730,1,0,0:0:0:0:
214,149,267833,5,8,0:0:0:0:
307,161,267936,1,0,0:0:0:0:
363,87,268039,2,0,P|357:41|331:2,1,93.7499970197678,2|0,0:0|0:0,0:0:0:0:
251,235,268244,2,0,P|294:252|340:248,1,93.7499970197678,4|0,0:0|0:0,0:0:0:0:
452,101,268450,2,0,P|408:83|362:87,1,93.7499970197678,2|0,0:0|0:0,0:0:0:0:
173,142,268655,6,0,L|150:302,1,158.099990197556
156,306,268912,1,0,0:0:0:0:
162,313,268963,2,0,P|86:329|20:289,2,158.099990197556
228,381,269477,6,0,P|295:319|385:331,1,187.499994039536,12|2,0:0|0:0,0:0:0:0:
464,380,269785,1,0,0:0:0:0:
464,380,269888,2,0,B|479:354|479:354|467:291,1,93.7499970197678,4|0,0:0|0:0,0:0:0:0:
512,199,270093,2,0,B|441:193|441:193|403:217|403:217|331:210,1,187.499994039536,2|10,0:0|0:0,0:0:0:0:
248,256,270402,1,2,0:0:0:0:
248,256,270504,2,0,B|233:230|233:230|245:167,1,93.7499970197678,2|0,0:0|0:0,0:0:0:0:
262,75,270710,5,4,0:0:0:0:
173,106,270813,1,0,0:0:0:0:
102,45,270915,2,0,L|108:12,3,32.9999999580383,2|0|0|0,0:0|0:0|0:0|0:0,0:0:0:0:
102,45,271121,2,0,L|84:137,1,93.7499970197678,8|0,0:0|0:0,0:0:0:0:
65,229,271326,1,2,0:0:0:0:
135,289,271429,1,0,0:0:0:0:
223,257,271532,2,0,L|241:165,1,93.7499970197678,4|0,0:0|0:0,0:0:0:0:
259,72,271737,1,2,0:0:0:0:
346,42,271840,1,0,0:0:0:0:
415,101,271943,6,0,L|397:193,1,93.7499970197678,10|2,0:0|0:0,0:0:0:0:
378,285,272148,1,2,0:0:0:0:
290,316,272251,1,0,0:0:0:0:
223,257,272354,2,0,L|241:165,1,93.7499970197678,4|0,0:0|0:0,0:0:0:0:
466,253,272559,2,0,L|448:345,1,93.7499970197678,2|0,0:0|0:0,0:0:0:0:
137,279,272765,6,0,B|112:193|112:193|169:113,1,187.499994039536,8|2,0:0|0:0,0:0:0:0:
91,58,273073,2,0,L|36:134,2,93.7499970197678,0|4|0,0:0|0:0|0:0,0:0:0:0:
168,113,273381,2,0,P|254:82|341:114,1,187.499994039536,2|10,0:0|0:0,0:0:0:0:
433,94,273689,2,0,P|416:58|371:25,1,93.7499970197678,2|2,0:0|0:0,0:0:0:0:
310,203,273895,1,0,0:0:0:0:
402,219,273998,6,0,L|448:224,3,46.8749985098839,4|0|0|0,0:0|0:0|0:0|0:0,0:0:0:0:
402,219,274203,2,0,L|407:172,3,46.8749985098839,2|0|0|0,0:0|0:0|0:0|0:0,0:0:0:0:
402,219,274409,2,0,P|386:266|346:293,1,93.7499970197678,8|0,0:0|0:0,0:0:0:0:
383,380,274614,2,0,L|196:365,1,187.499994039536,2|4,0:0|0:0,0:0:0:0:
102,357,274922,1,0,0:0:0:0:
102,357,275025,2,0,L|109:263,1,93.7499970197678,2|0,0:0|0:0,0:0:0:0:
21,162,275230,6,0,L|14:256,1,93.7499970197678,10|2,0:0|0:0,0:0:0:0:
201,269,275436,2,0,L|208:175,1,93.7499970197678,2|0,0:0|0:0,0:0:0:0:
130,122,275641,1,4,0:0:0:0:
214,81,275744,1,0,0:0:0:0:
291,134,275847,1,2,0:0:0:0:
375,93,275950,1,0,0:0:0:0:
452,146,276052,6,0,L|438:332,2,187.499994039536,8|2|4,0:0|0:0|0:0,0:0:0:0:
460,53,276566,1,0,0:0:0:0:
375,93,276669,1,2,0:0:0:0:
298,40,276772,1,0,0:0:0:0:
214,81,276874,2,0,L|207:174,1,93.7499970197678,10|2,0:0|0:0,0:0:0:0:
199,267,277080,1,2,0:0:0:0:
121,214,277183,1,0,0:0:0:0:
114,307,277285,2,4,P|186:360|269:327,1,187.499994039536,4|6,0:0|0:0,0:0:0:0:
356,363,277593,1,0,0:0:0:0:
356,363,277696,6,0,L|366:269,1,93.7499970197678,8|0,0:0|0:0,0:0:0:0:
375,176,277902,1,2,0:0:0:0:
451,231,278004,1,0,0:0:0:0:
461,138,278107,2,0,P|431:98|388:81,1,93.7499970197678,4|0,0:0|0:0,0:0:0:0:
301,113,278313,1,2,0:0:0:0:
284,209,278415,1,0,0:0:0:0:
209,146,278518,6,0,L|199:52,1,93.7499970197678,10|2,0:0|0:0,0:0:0:0:
192,243,278724,1,2,0:0:0:0:
117,180,278826,1,0,0:0:0:0:
99,275,278929,2,0,P|124:315|165:338,1,93.7499970197678,4|0,0:0|0:0,0:0:0:0:
23,212,279135,2,0,P|2:252|2:299,1,93.7499970197678,2|0,0:0|0:0,0:0:0:0:
117,180,279340,6,0,L|163:174,3,46.8749985098839,8|0|0|0,0:0|0:0|0:0|0:0,0:0:0:0:
117,180,279546,2,0,L|111:133,3,46.8749985098839,2|0|0|0,0:0|0:0|0:0|0:0,0:0:0:0:
108,195,279751,2,0,B|178:186|178:186|217:209|217:209|289:199,1,187.499994039536,4|2,0:0|0:0,0:0:0:0:
380,186,280059,1,0,0:0:0:0:
380,186,280162,2,0,L|367:87,1,93.7499970197678,10|2,0:0|0:0,0:0:0:0:
460,80,280367,1,2,0:0:0:0:
403,6,280470,1,0,0:0:0:0:
310,18,280573,2,0,P|281:55|274:101,1,93.7499970197678,4|0,0:0|0:0,0:0:0:0:
472,172,280778,2,0,L|459:79,1,93.7499970197678,2|0,0:0|0:0,0:0:0:0:
227,106,280984,6,0,L|273:100,1,46.8749985098839,8|0,0:0|0:0,0:0:0:0:
203,136,281087,2,0,L|249:130,1,46.8749985098839
189,171,281189,2,0,L|235:165,1,46.8749985098839,2|0,0:0|0:0,0:0:0:0:
190,209,281292,2,0,L|236:203,1,46.8749985098839
201,244,281395,2,0,L|247:238,1,46.8749985098839,4|0,0:0|0:0,0:0:0:0:
223,274,281498,2,0,L|270:267,1,46.8749985098839
238,309,281600,2,0,L|284:303,1,46.8749985098839,2|0,0:0|0:0,0:0:0:0:
240,347,281703,2,0,L|286:341,1,46.8749985098839
235,379,281806,5,10,0:0:0:0:
208,356,281874,1,2,0:0:0:0:
177,335,281943,1,2,0:0:0:0:
139,327,282011,1,2,0:0:0:0:
102,330,282080,1,0,0:0:0:0:
66,320,282148,1,0,0:0:0:0:
34,299,282217,5,4,0:0:0:0:
67,282,282285,1,0,0:0:0:0:
103,272,282353,1,0,0:0:0:0:
140,275,282422,1,2,0:0:0:0:
178,267,282490,1,0,0:0:0:0:
209,246,282559,1,0,0:0:0:0:
236,223,282628,6,0,L|224:93,1,130.499996946716,12|2,0:0|0:0,0:0:0:0:
219,89,282936,1,2,0:0:0:0:
213,85,283039,2,0,P|186:66|155:55,1,65.2499984733582,6|2,0:0|0:0,0:0:0:0:
73,75,283244,2,0,L|67:139,1,65.2499984733582,2|2,0:0|0:0,0:0:0:0:
24,214,283450,1,10,0:0:0:0:
28,219,283552,1,2,0:0:0:0:
32,224,283655,2,0,P|64:225|97:226,1,65.2499984733582,2|2,0:0|0:0,0:0:0:0:
158,288,283861,6,0,P|222:281|287:275,1,130.499996946716,4|2,0:0|0:0,0:0:0:0:
287,275,284272,6,0,L|299:145,1,130.499996946716,10|2,0:0|0:0,0:0:0:0:
294,140,284580,1,2,0:0:0:0:
289,135,284683,2,0,L|283:70,1,65.2499984733582,6|2,0:0|0:0,0:0:0:0:
371,96,284888,2,0,L|377:31,1,65.2499984733582,2|2,0:0|0:0,0:0:0:0:
451,162,285093,1,10,0:0:0:0:
448,154,285196,1,2,0:0:0:0:
445,147,285299,2,0,L|461:83,1,65.2499984733582,2|2,0:0|0:0,0:0:0:0:
488,245,285504,6,0,P|422:241|357:244,1,130.499996946716,6|2,0:0|0:0,0:0:0:0:
351,241,285813,1,2,0:0:0:0:
345,237,285915,6,0,B|337:287|337:287|318:312|318:312|311:360,1,130.499996946716,10|2,0:0|0:0,0:0:0:0:
309,366,286224,1,2,0:0:0:0:
307,372,286326,2,0,L|297:307,1,65.2499984733582,6|2,0:0|0:0,0:0:0:0:
235,248,286532,2,0,P|202:247|172:258,1,65.2499984733582,2|2,0:0|0:0,0:0:0:0:
115,322,286737,1,10,0:0:0:0:
111,327,286840,1,2,0:0:0:0:
107,332,286943,2,2,P|74:332|44:321,1,65.2499984733582,0|2,0:0|0:0,0:0:0:0:
0,248,287148,6,0,P|20:185|34:121,1,130.499996946716,6|2,0:0|0:0,0:0:0:0:
33,122,287559,6,0,P|63:179|98:234,2,130.499996946716,10|2|6,0:0|0:0|0:0,0:0:0:0:
33,122,288073,2,0,B|81:116|81:116|110:128|110:128|160:123,1,130.499996946716,2|10,0:0|0:0,0:0:0:0:
186,120,288381,1,10,0:0:0:0:
211,118,288484,1,2,0:0:0:0:
237,120,288587,1,2,0:0:0:0:
262,129,288689,1,2,0:0:0:0:
284,142,288792,1,6,0:0:0:0:
305,159,288895,1,2,0:0:0:0:
330,168,288998,1,2,0:0:0:0:
356,172,289100,1,2,0:0:0:0:
382,171,289203,6,0,L|394:41,1,130.499996946716,12|2,0:0|0:0,0:0:0:0:
399,37,289511,1,2,0:0:0:0:
405,33,289614,2,0,P|432:14|463:3,1,65.2499984733582,6|2,0:0|0:0,0:0:0:0:
512,73,289820,2,0,L|506:138,1,65.2499984733582,2|2,0:0|0:0,0:0:0:0:
457,208,290025,1,10,0:0:0:0:
453,213,290128,1,2,0:0:0:0:
449,218,290230,2,0,L|455:283,1,65.2499984733582,2|2,0:0|0:0,0:0:0:0:
498,372,290436,6,0,P|433:363|368:360,1,130.499996946716,4|2,0:0|0:0,0:0:0:0:
368,360,290847,6,0,L|356:230,1,130.499996946716,10|2,0:0|0:0,0:0:0:0:
349,227,291155,1,2,0:0:0:0:
343,222,291258,2,0,L|349:157,1,65.2499984733582,6|2,0:0|0:0,0:0:0:0:
264,271,291463,2,0,L|258:206,1,65.2499984733582,2|2,0:0|0:0,0:0:0:0:
191,152,291669,1,10,0:0:0:0:
184,152,291772,1,2,0:0:0:0:
176,152,291874,2,0,P|144:156|115:170,1,65.2499984733582,2|2,0:0|0:0,0:0:0:0:
26,251,292080,6,0,P|90:261|152:284,1,130.499996946716,6|2,0:0|0:0,0:0:0:0:
156,288,292388,1,2,0:0:0:0:
161,292,292491,6,0,L|291:280,1,130.499996946716,10|2,0:0|0:0,0:0:0:0:
296,282,292799,1,2,0:0:0:0:
302,284,292902,2,0,P|306:251|307:219,1,65.2499984733582,6|2,0:0|0:0,0:0:0:0:
393,223,293107,2,0,P|388:190|387:158,1,65.2499984733582,2|2,0:0|0:0,0:0:0:0:
410,75,293313,1,10,0:0:0:0:
403,72,293415,1,2,0:0:0:0:
396,70,293518,2,0,L|331:76,1,65.2499984733582,2|2,0:0|0:0,0:0:0:0:
263,128,293724,6,0,P|197:125|133:116,1,130.499996946716,6|2,0:0|0:0,0:0:0:0:
127,112,294032,1,2,0:0:0:0:
121,108,294135,2,0,P|116:75|114:43,1,65.2499984733582,10|0,0:0|0:0,0:0:0:0:
21,193,294340,1,10,0:0:0:0:
27,189,294443,2,4,P|32:156|34:124,1,65.2499984733582,10|6,0:0|0:0,0:0:0:0:
136,271,294648,2,0,P|131:238|129:206,1,65.2499984733582,8|0,0:0|0:0,0:0:0:0:
32,356,294854,1,8,0:0:0:0:
38,352,294957,6,0,P|43:319|45:287,1,65.2499984733582,10|2,0:0|0:0,0:0:0:0:
114,43,295162,2,0,P|116:75|121:108,1,65.2499984733582,10|2,0:0|0:0,0:0:0:0:
136,271,295367,2,0,P|169:267|200:260,1,65.2499984733582,14|10,0:0|0:0,0:0:0:0:
306,134,295573,2,0,P|339:137|370:144,1,65.2499984733582,10|2,0:0|0:0,0:0:0:0:
503,239,295778,5,2,0:0:0:0:
300,235,296189,6,0,P|311:294|318:354,2,119.999996185303
332,157,297422,2,0,L|206:150,1,119.999996185303,2|0,0:0|0:0,0:0:0:0:
212,150,298655,5,0,0:0:0:0:
212,150,299066,6,0,P|201:209|194:269,1,119.999996185303,2|0,0:0|0:0,0:0:0:0:
224,347,299888,2,0,L|98:354,1,119.999996185303
20,359,300710,5,2,0:0:0:0:
52,219,301121,1,0,0:0:0:0:
104,353,301532,1,2,0:0:0:0:
104,353,302354,5,2,0:0:0:0:
104,353,302765,6,0,P|163:354|223:359,1,119.999996185303
307,366,303587,1,0,0:0:0:0:
307,366,303998,2,0,P|308:306|313:246,1,119.999996185303,2|0,0:0|0:0,0:0:0:0:
223,280,304820,2,0,P|221:220|216:160,1,119.999996185303
173,88,305641,6,0,L|47:95,1,119.999996185303,2|0,0:0|0:0,0:0:0:0:
17,171,306258,2,0,L|76:174,1,59.9999980926514
76,174,307285,6,0,P|94:231|98:291,1,119.999996185303,2|0,0:0|0:0,0:0:0:0:
181,273,307902,2,0,P|210:279|237:290,1,59.9999980926514,0|2,0:0|0:0,0:0:0:0:
237,290,308929,5,2,0:0:0:0:
237,290,309340,6,0,P|298:296|356:289,2,119.999996185303
151,318,310573,2,0,L|162:192,1,119.999996185303,2|0,0:0|0:0,0:0:0:0:
161,198,311806,5,0,0:0:0:0:
161,198,312217,2,0,P|101:191|41:197,1,119.999996185303,2|0,0:0|0:0,0:0:0:0:
41,197,313039,2,0,P|76:148|101:94,1,119.999996185303
101,9,313861,5,2,0:0:0:0:
238,50,314272,1,0,0:0:0:0:
101,94,314683,1,2,0:0:0:0:
101,94,315504,5,2,0:0:0:0:
101,94,315915,6,0,P|125:148|161:196,1,119.999996185303
136,283,316737,1,0,0:0:0:0:
136,283,317148,2,0,L|261:271,1,119.999996185303,2|0,0:0|0:0,0:0:0:0:
255,271,318381,5,0,0:0:0:0:
255,271,318792,2,0,L|267:146,1,119.999996185303,2|0,0:0|0:0,0:0:0:0:
342,75,319614,2,0,P|350:134|362:193,1,119.999996185303
328,278,320436,2,0,L|453:266,1,119.999996185303,2|0,0:0|0:0,0:0:0:0:
447,266,321258,1,2,0:0:0:0:
451,270,321874,5,0,0:0:0:0:
451,270,322080,2,0,P|462:211|471:151,1,119.999996185303,2|0,0:0|0:0,0:0:0:0:
393,106,322902,1,2,0:0:0:0:
393,106,323107,1,0,0:0:0:0:
393,106,323313,1,0,0:0:0:0:
393,106,323518,2,0,P|334:118|276:134,1,119.999996185303
198,86,324135,5,0,0:0:0:0:
198,86,324340,2,0,L|186:205,1,119.999996185303
109,282,324957,1,0,0:0:0:0:
109,282,325162,2,0,P|102:222|91:163,1,119.999996185303,2|0,0:0|0:0,0:0:0:0:
91,163,325984,1,2,0:0:0:0:
173,141,326189,1,0,0:0:0:0:
151,59,326395,1,0,0:0:0:0:
69,81,326601,1,2,0:0:0:0:
69,81,327422,5,0,0:0:0:0:
145,379,327628,1,0,0:0:0:0:
443,303,327834,1,0,0:0:0:0:
367,5,328039,1,0,0:0:0:0:
69,81,328245,1,0,0:0:0:0:
306,145,328450,6,0,P|301:196|283:244,1,102.749999634171,12|0,0:0|0:0,0:0:0:0:
77,274,328654,2,0,B|118:229|195:243|195:243|195:281|226:312,1,205.499999268341,2|4,0:0|0:0,2:0:0:0:
237,321,328962,1,0,0:0:0:0:
249,327,329065,2,0,P|300:332|348:307,1,102.749999634171,2|0,0:0|0:0,0:0:0:0:
325,121,329270,1,10,0:0:0:0:
313,131,329373,1,2,0:0:0:0:
306,145,329476,6,0,L|203:133,1,102.749999634171,2|0,0:0|0:0,0:0:0:0:
101,121,329681,1,4,0:0:0:0:
416,122,329887,2,0,B|396:-16|396:-16|391:20|367:40,1,205.499999268341,10|0,0:0|0:0,0:0:0:0:
141,214,330298,6,0,B|220:223|220:223|253:251|253:251|368:266,1,205.499999268341,2|4,0:0|0:0,0:0:0:0:
151,73,330709,2,0,B|85:94|13:97|13:97|58:98|80:126,1,205.499999268341,2|10,2:0|2:0,2:0:0:0:
82,122,331017,1,2,2:0:0:0:
91,126,331120,2,0,P|123:165|140:213,1,102.749999634171,2|0,2:0|2:0,2:0:0:0:
114,310,331325,1,4,0:0:0:0:
334,261,331531,6,0,B|344:179|344:179|372:146|372:146|381:67,2,205.499999268341,2|8|2,0:0|0:0|0:0,0:0:0:0:
333,276,332044,1,0,0:0:0:0:
331,290,332147,2,0,P|301:330|253:347,1,102.749999634171,4|0,0:0|0:0,0:0:0:0:
110,195,332353,2,0,L|226:208,1,102.749999634171,2|0,0:0|0:0,0:0:0:0:
442,232,332558,1,10,0:0:0:0:
450,250,332661,1,2,0:0:0:0:
460,267,332764,2,0,B|480:291|507:297|507:297|537:216|509:152,1,205.499999268341,2|4,0:0|0:0,0:0:0:0:
372,0,333175,6,0,L|167:18,1,205.499999268341,10|0,0:0|0:0,0:0:0:0:
8,335,333585,2,0,L|212:353,1,205.499999268341,10|4,0:0|0:0,0:0:0:0:
510,153,333996,5,2,0:0:0:0:
440,133,334098,1,0,0:0:0:0:
368,136,334202,1,8,0:0:0:0:
301,164,334304,1,0,0:0:0:0:
252,216,334407,1,10,0:0:0:0:
186,245,334509,1,0,0:0:0:0:
115,252,334612,1,12,0:0:0:0:
45,235,334715,1,8,0:0:0:0:
2,178,334818,2,0,L|14:76,1,102.749999634171,10|8,0:0|0:0,0:0:0:0:
265,114,335024,6,0,L|252:215,1,102.749999634171,12|0,0:0|0:0,0:0:0:0:
362,323,335229,2,0,B|417:318|454:278|454:278|424:237|372:222,1,205.499999268341,2|4,0:0|0:0,0:0:0:0:
362,225,335538,1,0,0:0:0:0:
352,228,335640,2,0,L|365:127,1,102.749999634171,2|0,0:0|0:0,0:0:0:0:
181,83,335846,5,10,0:0:0:0:
171,91,335949,1,2,0:0:0:0:
163,101,336051,2,0,P|215:106|265:114,1,102.749999634171,0|0,0:0|0:0,0:0:0:0:
467,139,336257,1,4,0:0:0:0:
237,316,336462,2,0,P|135:332|33:341,2,205.499999268341,2|8|2,0:0|0:0|0:0,0:0:0:0:
438,357,337079,6,0,P|446:306|450:255,1,102.749999634171,4|0,0:0|0:0,0:0:0:0:
323,96,337284,2,0,B|295:64|294:37|294:37|369:11|427:50,1,205.499999268341,2|10,0:0|0:0,0:0:0:0:
438,60,337592,1,2,0:0:0:0:
446,71,337695,2,0,P|430:120|391:153,1,102.749999634171,2|0,0:0|0:0,0:0:0:0:
309,183,337901,1,4,0:0:0:0:
213,42,338106,6,0,P|202:144|184:245,1,205.499999268341,8|2,0:0|0:0,0:0:0:0:
391,151,338517,2,0,P|402:253|420:355,1,205.499999268341,12|2,0:0|0:0,0:0:0:0:
186,52,338928,1,10,0:0:0:0:
200,49,339031,1,2,0:0:0:0:
213,42,339133,2,0,P|208:93|201:144,1,102.749999634171,2|0,0:0|0:0,0:0:0:0:
391,151,339339,2,0,P|396:202|403:253,1,102.749999634171,4|0,0:0|0:0,0:0:0:0:
207,374,339544,6,0,P|105:362|3:357,1,205.499999268341,10|2,0:0|0:0,0:0:0:0:
417,24,339955,2,0,P|314:36|212:41,1,205.499999268341,2|6,0:0|0:0,0:0:0:0:
0,178,340366,5,2,0:0:0:0:
44,235,340468,1,0,0:0:0:0:
114,252,340572,1,10,0:0:0:0:
185,245,340674,1,2,0:0:0:0:
251,216,340777,1,10,0:0:0:0:
300,164,340879,1,0,0:0:0:0:
367,136,340983,1,4,0:0:0:0:
439,133,341085,1,8,0:0:0:0:
509,153,341188,2,0,P|500:202|497:255,1,102.749999634171,10|8,0:0|0:0,0:0:0:0:
231,148,341394,6,0,P|240:99|243:46,1,102.749999634171,12|0,0:0|0:0,0:0:0:0:
385,10,341599,2,0,P|366:111|361:214,1,205.499999268341,2|4,0:0|0:0,0:0:0:0:
351,224,341907,1,0,0:0:0:0:
342,235,342010,2,0,P|349:285|363:335,1,102.749999634171,2|0,0:0|0:0,0:0:0:0:
509,153,342216,6,0,P|500:202|497:255,1,102.749999634171,10|2,0:0|0:0,0:0:0:0:
218,92,342421,2,0,P|225:142|239:192,1,102.749999634171,2|0,0:0|0:0,0:0:0:0:
385,10,342627,2,0,P|376:59|373:112,1,102.749999634171,4|0,0:0|0:0,0:0:0:0:
363,335,342832,6,0,L|157:347,1,205.499999268341,8|2,0:0|0:0,0:0:0:0:
152,355,343140,1,0,0:0:0:0:
147,364,343243,2,0,L|153:261,1,102.749999634171,6|0,0:0|0:0,0:0:0:0:
94,134,343449,1,2,0:0:0:0:
102,144,343551,1,0,0:0:0:0:
107,155,343654,6,0,L|313:167,1,205.499999268341,10|2,0:0|0:0,0:0:0:0:
318,175,343962,1,2,0:0:0:0:
323,184,344065,2,0,L|317:81,1,102.749999634171,6|0,0:0|0:0,0:0:0:0:
308,0,344270,1,0,0:0:0:0:
476,120,344476,6,0,B|467:199|467:199|439:232|439:232|424:347,2,205.499999268341,10|8|2,0:0|0:0|0:0,0:0:0:0:
323,184,345092,2,0,B|261:217|189:184|189:184|193:157|223:128,1,205.499999268341,4|2,0:0|0:0,0:0:0:0:
376,8,345503,1,10,0:0:0:0:
388,13,345606,1,2,0:0:0:0:
397,22,345709,2,0,L|409:124,1,102.749999634171,2|0,0:0|0:0,0:0:0:0:
417,228,345914,1,12,0:0:0:0:
222,128,346120,6,0,B|83:114|83:114|116:127|130:155,1,205.499999268341,12|2,0:0|0:0,0:0:0:0:
139,167,346428,1,2,0:0:0:0:
145,178,346531,2,0,L|42:187,1,102.749999634171,2|0,0:0|0:0,0:0:0:0:
254,21,346736,1,4,0:0:0:0:
260,32,346839,1,0,0:0:0:0:
265,44,346942,2,0,L|162:35,1,102.749999634171,2|0,0:0|0:0,0:0:0:0:
39,311,347147,1,10,0:0:0:0:
44,299,347250,1,2,0:0:0:0:
50,288,347353,2,0,L|153:279,1,102.749999634171,2|0,0:0|0:0,0:0:0:0:
356,261,347558,2,0,B|320:303|265:305|265:305|254:251|287:209,1,205.499999268341,4|2,0:0|0:0,0:0:0:0:
300,194,347866,5,8,0:0:0:0:
316,181,347969,1,8,0:0:0:0:
334,172,348072,1,8,0:0:0:0:
353,165,348175,2,0,P|404:163|454:187,1,102.749999634171,10|0,0:0|0:0,0:0:0:0:
356,261,348380,1,12,0:0:0:0:
340,274,348483,1,8,0:0:0:0:
323,285,348586,2,2,P|274:301|220:293,1,102.749999634171,10|8,0:0|0:0,0:0:0:0:
219,291,348740,1,8,0:0:0:0:
214,288,348791,6,12,L|222:182,1,102.749999634171,4|10,0:0|0:0,0:0:0:0:
136,127,348996,1,14,0:0:0:0:
313,140,349099,1,12,0:0:0:0:
227,17,349305,6,0,L|222:75,1,51.3749998170853
229,83,349407,6,0,L|227:109,10,25.6874999085426
302,45,349739,5,0,0:0:0:0:
302,45,350033,2,0,P|366:63|403:117,1,125.999992149353,2|0,0:0|0:0,0:0:0:0:
381,197,351090,6,0,L|444:190,2,62.9999960746767
400,109,351947,2,0,L|274:104,1,125.999992149353,2|0,2:0|2:0,2:0:0:0:
193,100,353006,1,2,0:0:0:0:
193,100,353766,5,0,0:0:0:0:
193,100,354059,2,0,P|174:159|183:221,1,125.999992149353,2|0,0:0|0:0,0:0:0:0:
183,221,355118,2,0,L|246:218,1,62.9999960746767,2|0,2:0|2:0,2:0:0:0:
327,215,355684,1,0,0:0:0:0:
284,146,355983,5,2,0:0:0:0:
284,146,356945,5,0,0:0:0:0:
327,215,357229,1,2,0:0:0:0:
245,217,357528,1,0,0:0:0:0:
366,144,357824,1,0,0:0:0:0:
288,286,358108,1,0,0:0:0:0:
323,75,358395,1,2,0:0:0:0:
323,75,359195,5,0,0:0:0:0:
245,59,359535,1,2,0:0:0:0:
175,93,359834,1,0,0:0:0:0:
140,163,360162,1,0,0:0:0:0:
156,239,360491,1,2,0:0:0:0:
156,239,361075,6,0,P|218:236|281:237,1,125.999992149353,2|2,0:0|0:0,0:0:0:0:
281,237,362294,1,2,0:0:0:0:
281,237,363043,5,0,0:0:0:0:
256,192,363303,12,0,371391,0:0:0:0:
154,192,371653,6,0,L|357:192,1,203.906243517995
