osu file format v14

[General]
AudioFilename: audio.mp3
AudioLeadIn: 0
PreviewTime: 149490
Countdown: 1
SampleSet: Normal
StackLeniency: 0.7
Mode: 1
LetterboxInBreaks: 0
WidescreenStoryboard: 0

[Editor]
DistanceSpacing: 0.6
BeatDivisor: 4
GridSize: 16
TimelineZoom: 3.399999

[Metadata]
Title:Sugoi Rolling Girl Utatta www
TitleUnicode:Sugoi Rolling Girl Utatta www
Artist:Kouhey
ArtistUnicode:Kouhey
Creator:-[ ix Ishida xi ]-
Version:Sugoi
Source:
Tags:
BeatmapID:1375349
BeatmapSetID:649166

[Difficulty]
HPDrainRate:3.5
CircleSize:5
OverallDifficulty:6.5
ApproachRate:5
SliderMultiplier:1.4
SliderTickRate:1

[Events]
//Background and Video events
0,0,"universe.jpg",0,0
//Break Periods
//Storyboard Layer 0 (Background)
//Storyboard Layer 1 (Fail)
//Storyboard Layer 2 (Pass)
//Storyboard Layer 3 (Foreground)
//Storyboard Sound Samples

[TimingPoints]
1798,307.692307692308,4,1,0,100,1,0
11644,-100,4,1,0,100,0,1
31387,-100,4,1,0,100,0,0
149490,-90.9090909090909,4,1,0,100,0,1
169182,-83.3333333333333,4,1,0,100,0,1
188259,-25,4,1,0,100,0,1
188451,-25,4,1,0,100,0,0

[HitObjects]
256,64,1798,5,8,0:0:0:0:
256,64,2105,1,8,0:0:0:0:
208,128,2413,1,0,0:0:0:0:
240,96,2567,1,8,0:0:0:0:
304,160,2721,1,0,0:0:0:0:
304,160,2798,1,0,0:0:0:0:
304,160,2874,1,8,0:0:0:0:
320,240,3182,1,8,0:0:0:0:
320,240,3336,1,0,0:0:0:0:
320,240,3490,1,0,0:0:0:0:
320,240,3567,1,0,0:0:0:0:
320,240,3644,1,8,0:0:0:0:
320,240,3798,1,0,0:0:0:0:
320,240,3874,1,8,0:0:0:0:
320,240,3951,1,0,0:0:0:0:
304,208,4105,1,0,0:0:0:0:
304,208,4182,1,0,0:0:0:0:
256,64,4259,1,8,0:0:0:0:
256,64,4567,1,8,0:0:0:0:
320,240,4874,1,0,0:0:0:0:
320,240,5028,1,8,0:0:0:0:
320,240,5182,1,0,0:0:0:0:
320,240,5336,1,8,0:0:0:0:
304,160,5644,1,8,0:0:0:0:
304,160,5798,1,8,0:0:0:0:
304,160,5951,1,0,0:0:0:0:
304,160,6105,1,0,0:0:0:0:
304,160,6259,1,8,0:0:0:0:
304,160,6413,1,8,0:0:0:0:
240,112,6721,1,8,0:0:0:0:
304,176,7028,1,8,0:0:0:0:
272,96,7336,1,0,0:0:0:0:
272,144,7490,1,8,0:0:0:0:
272,96,7644,1,0,0:0:0:0:
272,112,7798,1,8,0:0:0:0:
272,112,8105,1,8,0:0:0:0:
272,96,8259,1,8,0:0:0:0:
272,96,8413,1,0,0:0:0:0:
272,96,8490,1,0,0:0:0:0:
272,96,8567,1,8,0:0:0:0:
272,112,8721,1,0,0:0:0:0:
272,96,8798,1,0,0:0:0:0:
272,96,8874,1,8,0:0:0:0:
224,96,9028,1,0,0:0:0:0:
208,96,9105,1,0,0:0:0:0:
192,96,9182,1,8,0:0:0:0:
112,128,9490,1,8,0:0:0:0:
192,112,9798,1,0,0:0:0:0:
224,96,9951,1,8,0:0:0:0:
272,80,10105,1,0,0:0:0:0:
272,80,10259,1,8,0:0:0:0:
320,160,10567,1,8,0:0:0:0:
320,160,10721,1,8,0:0:0:0:
320,160,10874,1,0,0:0:0:0:
320,160,11028,1,0,0:0:0:0:
320,160,11182,1,8,0:0:0:0:
320,160,11336,1,8,0:0:0:0:
320,80,11644,1,4,0:0:0:0:
320,160,11951,1,12,0:0:0:0:
320,112,12105,1,0,0:0:0:0:
320,128,12182,1,0,0:0:0:0:
320,128,12259,1,0,0:0:0:0:
320,128,12336,1,0,0:0:0:0:
304,128,12413,1,0,0:0:0:0:
320,128,12490,1,0,0:0:0:0:
304,128,12567,1,8,0:0:0:0:
256,128,12721,1,0,0:0:0:0:
256,128,12798,1,0,0:0:0:0:
256,144,12874,1,0,0:0:0:0:
256,144,13028,1,0,0:0:0:0:
256,144,13105,1,0,0:0:0:0:
256,144,13182,1,8,0:0:0:0:
256,144,13336,1,0,0:0:0:0:
256,144,13413,1,0,0:0:0:0:
256,144,13490,1,0,0:0:0:0:
256,144,13644,1,0,0:0:0:0:
256,144,13721,1,0,0:0:0:0:
256,144,13798,1,8,0:0:0:0:
272,160,13874,1,0,0:0:0:0:
288,176,13951,1,0,0:0:0:0:
304,192,14028,1,0,0:0:0:0:
288,176,14105,1,4,0:0:0:0:
272,96,14413,1,12,0:0:0:0:
320,80,14567,1,8,0:0:0:0:
320,80,14644,1,8,0:0:0:0:
320,80,14721,1,0,0:0:0:0:
320,80,14798,1,0,0:0:0:0:
320,80,14874,1,0,0:0:0:0:
320,80,14951,1,0,0:0:0:0:
304,80,15028,1,8,0:0:0:0:
336,112,15182,1,0,0:0:0:0:
352,128,15259,1,8,0:0:0:0:
352,128,15336,1,0,0:0:0:0:
352,128,15413,1,0,0:0:0:0:
352,128,15490,1,0,0:0:0:0:
352,128,15567,1,0,0:0:0:0:
352,128,15644,1,8,0:0:0:0:
352,176,15798,1,8,0:0:0:0:
352,176,15874,1,8,0:0:0:0:
352,176,15951,1,0,0:0:0:0:
352,176,16028,1,8,0:0:0:0:
352,176,16105,1,0,0:0:0:0:
352,176,16182,1,0,0:0:0:0:
352,176,16259,1,8,0:0:0:0:
352,176,16336,1,8,0:0:0:0:
352,176,16413,1,8,0:0:0:0:
352,176,16490,1,8,0:0:0:0:
352,176,16567,1,4,0:0:0:0:
320,160,16721,1,0,0:0:0:0:
320,160,16797,1,0,0:0:0:0:
320,160,16874,1,12,0:0:0:0:
320,160,17028,1,8,0:0:0:0:
320,160,17105,1,8,0:0:0:0:
320,160,17182,1,0,0:0:0:0:
320,160,17259,1,8,0:0:0:0:
320,160,17336,1,0,0:0:0:0:
320,160,17413,1,0,0:0:0:0:
320,160,17490,1,8,0:0:0:0:
304,128,17644,1,0,0:0:0:0:
304,128,17721,1,0,0:0:0:0:
304,128,17797,1,0,0:0:0:0:
304,128,17874,1,0,0:0:0:0:
304,128,17951,1,0,0:0:0:0:
304,128,18028,1,0,0:0:0:0:
304,128,18105,1,8,0:0:0:0:
320,160,18259,1,8,0:0:0:0:
336,176,18336,1,8,0:0:0:0:
352,192,18413,1,0,0:0:0:0:
368,208,18490,1,8,0:0:0:0:
384,224,18567,1,0,0:0:0:0:
400,240,18644,1,0,0:0:0:0:
400,256,18721,1,8,0:0:0:0:
400,272,18797,1,8,0:0:0:0:
416,288,18874,1,8,0:0:0:0:
416,304,18951,1,8,0:0:0:0:
432,288,19028,1,4,0:0:0:0:
432,240,19182,1,0,0:0:0:0:
432,224,19259,1,0,0:0:0:0:
432,208,19336,1,12,0:0:0:0:
416,160,19490,1,0,0:0:0:0:
416,144,19567,1,0,0:0:0:0:
416,128,19644,1,0,0:0:0:0:
416,112,19721,1,0,0:0:0:0:
416,112,19797,1,0,0:0:0:0:
416,112,19874,1,0,0:0:0:0:
416,112,19951,1,8,0:0:0:0:
384,96,20105,1,0,0:0:0:0:
400,96,20182,1,8,0:0:0:0:
416,80,20259,1,0,0:0:0:0:
432,80,20336,1,0,0:0:0:0:
432,80,20413,1,0,0:0:0:0:
432,80,20490,1,0,0:0:0:0:
432,80,20567,1,8,0:0:0:0:
416,112,20721,1,0,0:0:0:0:
416,112,20797,1,0,0:0:0:0:
416,112,20874,1,0,0:0:0:0:
416,112,21028,1,0,0:0:0:0:
416,112,21105,1,0,0:0:0:0:
416,112,21182,1,8,0:0:0:0:
416,112,21259,1,8,0:0:0:0:
416,112,21336,1,8,0:0:0:0:
416,112,21413,1,8,0:0:0:0:
416,112,21490,1,4,0:0:0:0:
384,144,21644,1,0,0:0:0:0:
368,160,21721,1,0,0:0:0:0:
352,176,21797,1,12,0:0:0:0:
368,144,21951,1,0,0:0:0:0:
368,128,22028,1,0,0:0:0:0:
368,144,22105,1,0,0:0:0:0:
368,144,22182,1,0,0:0:0:0:
368,144,22259,1,0,0:0:0:0:
368,144,22336,1,0,0:0:0:0:
368,144,22413,1,8,0:0:0:0:
384,112,22567,1,0,0:0:0:0:
384,112,22644,1,8,0:0:0:0:
384,112,22721,1,0,0:0:0:0:
384,112,22797,1,0,0:0:0:0:
384,112,22874,1,0,0:0:0:0:
384,112,22951,1,0,0:0:0:0:
384,112,23028,1,8,0:0:0:0:
384,112,23182,1,8,0:0:0:0:
384,112,23259,1,8,0:0:0:0:
384,112,23336,1,0,0:0:0:0:
384,112,23413,1,8,0:0:0:0:
384,112,23490,1,0,0:0:0:0:
384,112,23567,1,0,0:0:0:0:
384,112,23644,1,8,0:0:0:0:
384,112,23721,1,8,0:0:0:0:
384,112,23797,1,8,0:0:0:0:
384,112,23874,1,8,0:0:0:0:
384,112,23951,1,4,0:0:0:0:
352,96,24105,1,0,0:0:0:0:
336,80,24182,1,0,0:0:0:0:
320,80,24259,1,12,0:0:0:0:
288,64,24413,1,8,0:0:0:0:
272,64,24490,1,8,0:0:0:0:
272,64,24567,1,0,0:0:0:0:
272,64,24644,1,8,0:0:0:0:
272,64,24721,1,0,0:0:0:0:
272,64,24797,1,0,0:0:0:0:
272,64,24874,1,8,0:0:0:0:
304,96,25028,1,0,0:0:0:0:
320,112,25105,1,8,0:0:0:0:
320,112,25182,1,0,0:0:0:0:
320,112,25259,1,0,0:0:0:0:
320,112,25336,1,0,0:0:0:0:
320,112,25413,1,0,0:0:0:0:
320,112,25490,1,8,0:0:0:0:
352,80,25644,1,0,0:0:0:0:
336,96,25721,1,8,0:0:0:0:
352,112,25797,1,0,0:0:0:0:
368,128,25874,1,0,0:0:0:0:
368,128,25951,1,0,0:0:0:0:
368,128,26028,1,0,0:0:0:0:
352,112,26105,1,8,0:0:0:0:
336,96,26182,1,8,0:0:0:0:
352,112,26259,1,0,0:0:0:0:
336,96,26336,1,8,0:0:0:0:
336,96,26413,1,4,0:0:0:0:
368,128,26567,1,0,0:0:0:0:
384,144,26644,1,0,0:0:0:0:
384,144,26721,1,12,0:0:0:0:
384,96,26874,1,0,0:0:0:0:
400,80,26951,1,8,0:0:0:0:
400,80,27028,1,0,0:0:0:0:
400,80,27105,1,0,0:0:0:0:
384,96,27182,1,0,0:0:0:0:
384,96,27259,1,0,0:0:0:0:
384,96,27336,1,8,0:0:0:0:
384,96,27490,1,8,0:0:0:0:
384,96,27567,1,8,0:0:0:0:
384,96,27644,1,0,0:0:0:0:
384,96,27721,1,0,0:0:0:0:
384,96,27797,1,0,0:0:0:0:
384,96,27874,1,0,0:0:0:0:
384,96,27951,1,8,0:0:0:0:
384,96,28105,1,8,0:0:0:0:
384,96,28182,1,0,0:0:0:0:
384,96,28259,1,8,0:0:0:0:
384,96,28336,1,0,0:0:0:0:
384,96,28413,1,0,0:0:0:0:
384,96,28490,1,0,0:0:0:0:
384,96,28567,1,8,0:0:0:0:
384,96,28644,1,8,0:0:0:0:
384,96,28721,1,8,0:0:0:0:
384,96,28797,1,8,0:0:0:0:
384,96,28874,1,4,0:0:0:0:
368,64,29028,1,0,0:0:0:0:
352,32,29105,1,0,0:0:0:0:
368,64,29182,1,12,0:0:0:0:
368,96,29336,1,0,0:0:0:0:
368,96,29413,1,8,0:0:0:0:
368,96,29490,1,0,0:0:0:0:
368,96,29567,1,0,0:0:0:0:
368,96,29644,1,0,0:0:0:0:
368,96,29721,1,0,0:0:0:0:
352,96,29797,1,8,0:0:0:0:
368,96,29951,1,8,0:0:0:0:
368,96,30028,1,8,0:0:0:0:
368,96,30105,1,0,0:0:0:0:
368,96,30182,1,8,0:0:0:0:
368,96,30259,1,8,0:0:0:0:
368,96,30336,1,0,0:0:0:0:
368,96,30413,1,8,0:0:0:0:
368,96,30490,1,8,0:0:0:0:
368,96,30567,1,0,0:0:0:0:
368,96,30644,1,8,0:0:0:0:
368,96,30721,1,0,0:0:0:0:
368,96,30797,1,0,0:0:0:0:
368,96,30874,1,0,0:0:0:0:
368,96,30951,1,0,0:0:0:0:
368,96,31028,1,8,0:0:0:0:
368,96,31105,1,8,0:0:0:0:
368,96,31182,1,8,0:0:0:0:
368,96,31259,1,8,0:0:0:0:
368,96,31336,1,4,0:0:0:0:
320,96,31490,1,0,0:0:0:0:
304,96,31567,1,0,0:0:0:0:
304,96,31644,1,8,0:0:0:0:
336,128,31797,1,0,0:0:0:0:
336,128,31874,1,0,0:0:0:0:
336,128,31951,1,0,0:0:0:0:
336,128,32028,1,0,0:0:0:0:
336,128,32105,1,0,0:0:0:0:
336,128,32182,1,0,0:0:0:0:
336,128,32259,1,8,0:0:0:0:
336,80,32413,1,8,0:0:0:0:
336,80,32490,1,8,0:0:0:0:
336,80,32567,1,0,0:0:0:0:
336,80,32721,1,0,0:0:0:0:
336,80,32798,1,0,0:0:0:0:
336,80,32874,1,8,0:0:0:0:
368,112,33028,1,0,0:0:0:0:
384,128,33105,1,0,0:0:0:0:
384,128,33182,1,0,0:0:0:0:
384,128,33259,1,0,0:0:0:0:
384,128,33336,1,0,0:0:0:0:
384,128,33413,1,0,0:0:0:0:
384,128,33490,1,8,0:0:0:0:
384,80,33644,1,8,0:0:0:0:
384,80,33721,1,8,0:0:0:0:
384,80,33798,1,0,0:0:0:0:
384,80,33951,1,0,0:0:0:0:
384,80,34028,1,0,0:0:0:0:
384,80,34105,1,8,0:0:0:0:
416,96,34259,1,0,0:0:0:0:
432,96,34336,1,0,0:0:0:0:
432,96,34413,1,0,0:0:0:0:
384,96,34567,1,0,0:0:0:0:
368,96,34644,1,0,0:0:0:0:
352,96,34721,1,8,0:0:0:0:
352,96,34874,1,0,0:0:0:0:
352,96,34951,1,0,0:0:0:0:
352,96,35028,1,0,0:0:0:0:
384,96,35105,1,0,0:0:0:0:
384,96,35182,1,0,0:0:0:0:
384,96,35259,1,0,0:0:0:0:
384,96,35336,1,8,0:0:0:0:
384,96,35490,1,0,0:0:0:0:
384,96,35567,1,8,0:0:0:0:
368,96,35644,1,0,0:0:0:0:
384,96,35721,1,0,0:0:0:0:
384,96,35798,1,0,0:0:0:0:
384,96,35874,1,0,0:0:0:0:
384,96,35951,1,8,0:0:0:0:
400,112,36028,1,8,0:0:0:0:
416,112,36105,1,8,0:0:0:0:
432,128,36182,1,8,0:0:0:0:
432,128,36259,1,0,0:0:0:0:
448,160,36413,1,0,0:0:0:0:
448,160,36490,1,0,0:0:0:0:
448,160,36567,1,8,0:0:0:0:
416,128,36721,1,0,0:0:0:0:
400,112,36798,1,0,0:0:0:0:
384,96,36874,1,0,0:0:0:0:
368,96,36951,1,0,0:0:0:0:
352,80,37028,1,0,0:0:0:0:
336,80,37105,1,0,0:0:0:0:
336,80,37182,1,8,0:0:0:0:
352,96,37259,1,8,0:0:0:0:
352,96,37336,1,0,0:0:0:0:
352,96,37413,1,0,0:0:0:0:
352,96,37490,1,0,0:0:0:0:
352,96,37644,1,0,0:0:0:0:
352,96,37721,1,0,0:0:0:0:
352,96,37798,1,8,0:0:0:0:
352,96,37874,1,8,0:0:0:0:
352,96,37951,1,0,0:0:0:0:
352,96,38105,1,0,0:0:0:0:
352,96,38182,1,0,0:0:0:0:
352,96,38259,1,0,0:0:0:0:
352,96,38336,1,0,0:0:0:0:
352,96,38413,1,8,0:0:0:0:
352,96,38490,1,8,0:0:0:0:
352,96,38567,1,0,0:0:0:0:
336,96,38644,1,0,0:0:0:0:
320,96,38721,1,0,0:0:0:0:
304,96,38798,1,8,0:0:0:0:
288,96,38874,1,0,0:0:0:0:
272,96,38951,1,0,0:0:0:0:
272,96,39028,1,8,0:0:0:0:
272,96,39182,1,0,0:0:0:0:
272,96,39259,1,0,0:0:0:0:
272,96,39336,1,0,0:0:0:0:
272,96,39413,1,8,0:0:0:0:
272,96,39490,1,0,0:0:0:0:
272,96,39567,1,0,0:0:0:0:
272,96,39644,1,8,0:0:0:0:
304,64,39798,1,0,0:0:0:0:
304,64,39874,1,0,0:0:0:0:
304,80,39951,1,8,0:0:0:0:
304,96,40028,1,0,0:0:0:0:
304,64,40105,1,0,0:0:0:0:
304,64,40182,1,0,0:0:0:0:
304,64,40259,1,8,0:0:0:0:
304,112,40413,1,0,0:0:0:0:
304,112,40490,1,0,0:0:0:0:
304,112,40567,1,0,0:0:0:0:
304,112,40721,1,0,0:0:0:0:
304,112,40798,1,0,0:0:0:0:
304,112,40874,1,8,0:0:0:0:
304,112,40951,1,8,0:0:0:0:
304,112,41028,1,8,0:0:0:0:
304,112,41105,1,8,0:0:0:0:
304,112,41182,1,0,0:0:0:0:
304,64,41336,1,0,0:0:0:0:
304,80,41413,1,0,0:0:0:0:
304,80,41490,1,8,0:0:0:0:
304,80,41644,1,0,0:0:0:0:
304,80,41721,1,0,0:0:0:0:
304,80,41798,1,0,0:0:0:0:
304,80,41874,1,0,0:0:0:0:
304,80,41951,1,0,0:0:0:0:
304,80,42028,1,0,0:0:0:0:
304,80,42105,1,8,0:0:0:0:
304,80,42182,1,8,0:0:0:0:
304,80,42259,1,0,0:0:0:0:
304,80,42336,1,0,0:0:0:0:
304,80,42413,1,0,0:0:0:0:
304,128,42567,1,0,0:0:0:0:
304,112,42644,1,0,0:0:0:0:
304,112,42721,1,8,0:0:0:0:
320,128,42798,1,8,0:0:0:0:
304,112,42874,1,0,0:0:0:0:
304,112,42951,1,0,0:0:0:0:
304,112,43028,1,0,0:0:0:0:
304,112,43182,1,0,0:0:0:0:
304,112,43259,1,0,0:0:0:0:
304,112,43336,1,8,0:0:0:0:
240,144,43490,1,0,0:0:0:0:
240,144,43567,1,0,0:0:0:0:
240,144,43644,1,0,0:0:0:0:
288,160,43798,1,0,0:0:0:0:
288,160,43874,1,0,0:0:0:0:
304,160,43951,1,8,0:0:0:0:
352,160,44105,1,0,0:0:0:0:
352,160,44182,1,0,0:0:0:0:
352,160,44259,1,0,0:0:0:0:
352,160,44336,1,0,0:0:0:0:
352,160,44413,1,0,0:0:0:0:
352,160,44490,1,0,0:0:0:0:
352,160,44567,1,8,0:0:0:0:
368,192,44721,1,0,0:0:0:0:
368,192,44798,1,0,0:0:0:0:
368,192,44874,1,8,0:0:0:0:
368,192,44951,1,0,0:0:0:0:
368,192,45028,1,0,0:0:0:0:
368,192,45105,1,0,0:0:0:0:
368,192,45182,1,8,0:0:0:0:
368,192,45259,1,8,0:0:0:0:
368,192,45336,1,0,0:0:0:0:
352,160,45413,1,0,0:0:0:0:
352,160,45490,1,0,0:0:0:0:
352,160,45567,1,8,0:0:0:0:
352,160,45644,1,0,0:0:0:0:
352,160,45721,1,0,0:0:0:0:
352,160,45798,1,8,0:0:0:0:
352,160,45874,1,8,0:0:0:0:
352,160,45951,1,8,0:0:0:0:
352,160,46028,1,8,0:0:0:0:
352,160,46105,1,0,0:0:0:0:
352,160,46182,1,0,0:0:0:0:
352,160,46259,1,0,0:0:0:0:
352,160,46336,1,0,0:0:0:0:
352,160,46413,1,8,0:0:0:0:
352,160,46490,1,8,0:0:0:0:
352,160,46567,1,0,0:0:0:0:
336,144,46644,1,0,0:0:0:0:
320,128,46721,1,0,0:0:0:0:
320,128,46874,1,0,0:0:0:0:
320,128,46951,1,0,0:0:0:0:
320,128,47028,1,8,0:0:0:0:
320,128,47105,1,8,0:0:0:0:
320,128,47182,1,0,0:0:0:0:
336,144,47259,1,0,0:0:0:0:
352,160,47336,1,0,0:0:0:0:
368,144,47413,1,8,0:0:0:0:
368,144,47490,1,0,0:0:0:0:
368,144,47567,1,0,0:0:0:0:
368,144,47644,1,8,0:0:0:0:
400,176,47798,1,0,0:0:0:0:
400,176,47874,1,0,0:0:0:0:
400,176,47951,1,0,0:0:0:0:
368,144,48105,1,0,0:0:0:0:
368,144,48182,1,0,0:0:0:0:
368,144,48259,1,8,0:0:0:0:
352,128,48336,1,0,0:0:0:0:
368,144,48413,1,0,0:0:0:0:
352,128,48490,1,8,0:0:0:0:
352,128,48567,1,0,0:0:0:0:
336,112,48644,1,0,0:0:0:0:
336,112,48721,1,0,0:0:0:0:
336,112,48798,1,0,0:0:0:0:
336,112,48874,1,8,0:0:0:0:
336,112,49028,1,0,0:0:0:0:
336,112,49105,1,0,0:0:0:0:
336,112,49182,1,8,0:0:0:0:
336,112,49259,1,0,0:0:0:0:
336,112,49336,1,0,0:0:0:0:
336,112,49413,1,0,0:0:0:0:
352,128,49490,1,8,0:0:0:0:
352,128,49567,1,0,0:0:0:0:
336,112,49644,1,8,0:0:0:0:
352,128,49721,1,8,0:0:0:0:
352,128,49798,1,0,0:0:0:0:
352,128,49874,1,0,0:0:0:0:
352,128,49951,1,0,0:0:0:0:
352,128,50028,1,0,0:0:0:0:
336,128,50105,1,8,0:0:0:0:
320,128,50182,1,8,0:0:0:0:
320,128,50259,1,0,0:0:0:0:
320,128,50336,1,0,0:0:0:0:
320,128,50413,1,8,0:0:0:0:
320,128,50490,1,0,0:0:0:0:
320,128,50567,1,0,0:0:0:0:
304,144,50644,1,0,0:0:0:0:
320,160,50721,1,8,0:0:0:0:
320,176,50798,1,8,0:0:0:0:
320,176,50874,1,8,0:0:0:0:
320,176,50951,1,8,0:0:0:0:
320,176,51028,1,4,0:0:0:0:
272,96,51336,1,12,0:0:0:0:
320,80,51490,1,8,0:0:0:0:
320,80,51567,1,8,0:0:0:0:
320,80,51644,1,0,0:0:0:0:
320,80,51721,1,0,0:0:0:0:
320,80,51797,1,0,0:0:0:0:
320,80,51874,1,0,0:0:0:0:
304,80,51951,1,8,0:0:0:0:
336,112,52105,1,0,0:0:0:0:
352,128,52182,1,8,0:0:0:0:
352,128,52259,1,0,0:0:0:0:
352,128,52336,1,0,0:0:0:0:
352,128,52413,1,0,0:0:0:0:
352,128,52490,1,0,0:0:0:0:
352,128,52567,1,8,0:0:0:0:
352,176,52721,1,8,0:0:0:0:
352,176,52797,1,8,0:0:0:0:
352,176,52874,1,0,0:0:0:0:
352,176,52951,1,8,0:0:0:0:
352,176,53028,1,0,0:0:0:0:
352,176,53105,1,0,0:0:0:0:
352,176,53182,1,8,0:0:0:0:
352,176,53259,1,8,0:0:0:0:
352,176,53336,1,8,0:0:0:0:
352,176,53413,1,8,0:0:0:0:
352,176,53490,1,4,0:0:0:0:
320,160,53644,1,0,0:0:0:0:
320,160,53720,1,0,0:0:0:0:
320,160,53797,1,12,0:0:0:0:
320,160,53951,1,8,0:0:0:0:
320,160,54028,1,8,0:0:0:0:
320,160,54105,1,0,0:0:0:0:
320,160,54182,1,8,0:0:0:0:
320,160,54259,1,0,0:0:0:0:
320,160,54336,1,0,0:0:0:0:
320,160,54413,1,8,0:0:0:0:
304,128,54567,1,0,0:0:0:0:
304,128,54644,1,0,0:0:0:0:
304,128,54720,1,0,0:0:0:0:
304,128,54797,1,0,0:0:0:0:
304,128,54874,1,0,0:0:0:0:
304,128,54951,1,0,0:0:0:0:
304,128,55028,1,8,0:0:0:0:
320,160,55182,1,8,0:0:0:0:
336,176,55259,1,8,0:0:0:0:
352,192,55336,1,0,0:0:0:0:
368,208,55413,1,8,0:0:0:0:
384,224,55490,1,0,0:0:0:0:
400,240,55567,1,0,0:0:0:0:
400,256,55644,1,8,0:0:0:0:
400,272,55720,1,8,0:0:0:0:
416,288,55797,1,8,0:0:0:0:
416,304,55874,1,8,0:0:0:0:
432,288,55951,1,4,0:0:0:0:
432,240,56105,1,0,0:0:0:0:
432,224,56182,1,0,0:0:0:0:
432,208,56259,1,12,0:0:0:0:
416,160,56413,1,0,0:0:0:0:
416,144,56490,1,0,0:0:0:0:
416,128,56567,1,0,0:0:0:0:
416,112,56644,1,0,0:0:0:0:
416,112,56720,1,0,0:0:0:0:
416,112,56797,1,0,0:0:0:0:
416,112,56874,1,8,0:0:0:0:
384,96,57028,1,0,0:0:0:0:
400,96,57105,1,8,0:0:0:0:
416,80,57182,1,0,0:0:0:0:
432,80,57259,1,0,0:0:0:0:
432,80,57336,1,0,0:0:0:0:
432,80,57413,1,0,0:0:0:0:
432,80,57490,1,8,0:0:0:0:
416,112,57644,1,0,0:0:0:0:
416,112,57720,1,0,0:0:0:0:
416,112,57797,1,0,0:0:0:0:
416,112,57951,1,0,0:0:0:0:
416,112,58028,1,0,0:0:0:0:
416,112,58105,1,8,0:0:0:0:
416,112,58182,1,8,0:0:0:0:
416,112,58259,1,8,0:0:0:0:
416,112,58336,1,8,0:0:0:0:
416,112,58413,1,4,0:0:0:0:
384,144,58567,1,0,0:0:0:0:
368,160,58644,1,0,0:0:0:0:
352,176,58720,1,12,0:0:0:0:
368,144,58874,1,0,0:0:0:0:
368,128,58951,1,0,0:0:0:0:
368,144,59028,1,0,0:0:0:0:
368,144,59105,1,0,0:0:0:0:
368,144,59182,1,0,0:0:0:0:
368,144,59259,1,0,0:0:0:0:
368,144,59336,1,8,0:0:0:0:
384,112,59490,1,0,0:0:0:0:
384,112,59567,1,8,0:0:0:0:
384,112,59644,1,0,0:0:0:0:
384,112,59720,1,0,0:0:0:0:
384,112,59797,1,0,0:0:0:0:
384,112,59874,1,0,0:0:0:0:
384,112,59951,1,8,0:0:0:0:
384,112,60105,1,8,0:0:0:0:
384,112,60182,1,8,0:0:0:0:
384,112,60259,1,0,0:0:0:0:
384,112,60336,1,8,0:0:0:0:
384,112,60413,1,0,0:0:0:0:
384,112,60490,1,0,0:0:0:0:
384,112,60567,1,8,0:0:0:0:
384,112,60644,1,8,0:0:0:0:
384,112,60720,1,8,0:0:0:0:
384,112,60797,1,8,0:0:0:0:
384,112,60874,1,4,0:0:0:0:
304,64,61028,1,0,0:0:0:0:
304,80,61105,1,0,0:0:0:0:
304,80,61182,1,8,0:0:0:0:
304,80,61336,1,0,0:0:0:0:
304,80,61413,1,0,0:0:0:0:
304,80,61490,1,0,0:0:0:0:
304,80,61566,1,0,0:0:0:0:
304,80,61643,1,0,0:0:0:0:
304,80,61720,1,0,0:0:0:0:
304,80,61797,1,8,0:0:0:0:
304,80,61874,1,8,0:0:0:0:
304,80,61951,1,0,0:0:0:0:
304,80,62028,1,0,0:0:0:0:
304,80,62105,1,0,0:0:0:0:
304,128,62259,1,0,0:0:0:0:
304,112,62336,1,0,0:0:0:0:
304,112,62413,1,8,0:0:0:0:
320,128,62490,1,8,0:0:0:0:
304,112,62566,1,0,0:0:0:0:
304,112,62643,1,0,0:0:0:0:
304,112,62720,1,0,0:0:0:0:
304,112,62874,1,0,0:0:0:0:
304,112,62951,1,0,0:0:0:0:
304,112,63028,1,8,0:0:0:0:
240,144,63182,1,0,0:0:0:0:
240,144,63259,1,0,0:0:0:0:
240,144,63336,1,0,0:0:0:0:
288,160,63490,1,0,0:0:0:0:
288,160,63566,1,0,0:0:0:0:
304,160,63643,1,8,0:0:0:0:
352,160,63797,1,0,0:0:0:0:
352,160,63874,1,0,0:0:0:0:
352,160,63951,1,0,0:0:0:0:
352,160,64028,1,0,0:0:0:0:
352,160,64105,1,0,0:0:0:0:
352,160,64182,1,0,0:0:0:0:
352,160,64259,1,8,0:0:0:0:
368,192,64413,1,0,0:0:0:0:
368,192,64490,1,0,0:0:0:0:
368,192,64566,1,8,0:0:0:0:
368,192,64643,1,0,0:0:0:0:
368,192,64720,1,0,0:0:0:0:
368,192,64797,1,0,0:0:0:0:
368,192,64874,1,8,0:0:0:0:
368,192,64951,1,8,0:0:0:0:
368,192,65028,1,0,0:0:0:0:
352,160,65105,1,0,0:0:0:0:
352,160,65182,1,0,0:0:0:0:
352,160,65259,1,8,0:0:0:0:
352,160,65336,1,0,0:0:0:0:
352,160,65413,1,0,0:0:0:0:
352,160,65490,1,8,0:0:0:0:
352,160,65566,1,8,0:0:0:0:
352,160,65643,1,8,0:0:0:0:
352,160,65720,1,8,0:0:0:0:
352,160,65797,1,0,0:0:0:0:
352,160,65874,1,0,0:0:0:0:
352,160,65951,1,0,0:0:0:0:
352,160,66028,1,0,0:0:0:0:
352,160,66105,1,8,0:0:0:0:
352,160,66182,1,8,0:0:0:0:
352,160,66259,1,0,0:0:0:0:
336,144,66336,1,0,0:0:0:0:
320,128,66413,1,0,0:0:0:0:
320,128,66566,1,0,0:0:0:0:
320,128,66643,1,0,0:0:0:0:
320,128,66720,1,8,0:0:0:0:
320,128,66797,1,8,0:0:0:0:
320,128,66874,1,0,0:0:0:0:
336,144,66951,1,0,0:0:0:0:
352,160,67028,1,0,0:0:0:0:
368,144,67105,1,8,0:0:0:0:
368,144,67182,1,0,0:0:0:0:
368,144,67259,1,0,0:0:0:0:
368,144,67336,1,8,0:0:0:0:
400,176,67490,1,0,0:0:0:0:
400,176,67566,1,0,0:0:0:0:
400,176,67643,1,0,0:0:0:0:
368,144,67797,1,0,0:0:0:0:
368,144,67874,1,0,0:0:0:0:
368,144,67951,1,8,0:0:0:0:
352,128,68028,1,0,0:0:0:0:
368,144,68105,1,0,0:0:0:0:
352,128,68182,1,8,0:0:0:0:
352,128,68259,1,0,0:0:0:0:
336,112,68336,1,0,0:0:0:0:
336,112,68413,1,0,0:0:0:0:
336,112,68490,1,0,0:0:0:0:
336,112,68566,1,8,0:0:0:0:
336,112,68720,1,0,0:0:0:0:
336,112,68797,1,0,0:0:0:0:
336,112,68874,1,8,0:0:0:0:
336,112,68951,1,0,0:0:0:0:
336,112,69028,1,0,0:0:0:0:
336,112,69105,1,0,0:0:0:0:
352,128,69182,1,8,0:0:0:0:
352,128,69259,1,0,0:0:0:0:
336,112,69336,1,8,0:0:0:0:
352,128,69413,1,8,0:0:0:0:
352,128,69490,1,0,0:0:0:0:
352,128,69566,1,0,0:0:0:0:
352,128,69643,1,0,0:0:0:0:
352,128,69720,1,0,0:0:0:0:
336,128,69797,1,8,0:0:0:0:
320,128,69874,1,8,0:0:0:0:
320,128,69951,1,0,0:0:0:0:
320,128,70028,1,0,0:0:0:0:
320,128,70105,1,8,0:0:0:0:
320,128,70182,1,0,0:0:0:0:
320,128,70259,1,0,0:0:0:0:
304,144,70336,1,0,0:0:0:0:
320,160,70413,1,8,0:0:0:0:
320,176,70490,1,8,0:0:0:0:
320,176,70566,1,8,0:0:0:0:
320,176,70643,1,8,0:0:0:0:
320,176,70720,1,4,0:0:0:0:
272,176,70874,1,0,0:0:0:0:
256,160,70951,1,0,0:0:0:0:
240,144,71028,1,8,0:0:0:0:
224,128,71105,1,8,0:0:0:0:
208,112,71182,1,8,0:0:0:0:
208,112,71259,1,8,0:0:0:0:
208,112,71336,1,0,0:0:0:0:
224,112,71413,1,0,0:0:0:0:
240,112,71490,1,0,0:0:0:0:
256,112,71567,1,0,0:0:0:0:
272,112,71644,1,8,0:0:0:0:
288,112,71721,1,0,0:0:0:0:
304,112,71798,1,0,0:0:0:0:
320,112,71874,1,8,0:0:0:0:
336,112,71951,1,0,0:0:0:0:
336,112,72028,1,0,0:0:0:0:
336,112,72105,1,0,0:0:0:0:
336,112,72182,1,0,0:0:0:0:
336,112,72259,1,8,0:0:0:0:
336,112,72336,1,0,0:0:0:0:
336,112,72413,1,0,0:0:0:0:
336,112,72490,1,0,0:0:0:0:
352,128,72567,1,8,0:0:0:0:
352,128,72721,1,0,0:0:0:0:
352,128,72798,1,0,0:0:0:0:
352,128,72874,1,8,0:0:0:0:
352,128,72951,1,0,0:0:0:0:
352,128,73028,1,8,0:0:0:0:
352,128,73105,1,8,0:0:0:0:
352,128,73182,1,0,0:0:0:0:
352,128,73336,1,0,0:0:0:0:
352,128,73413,1,0,0:0:0:0:
352,128,73490,1,8,0:0:0:0:
352,128,73567,1,8,0:0:0:0:
352,128,73644,1,0,0:0:0:0:
352,128,73721,1,0,0:0:0:0:
352,128,73798,1,0,0:0:0:0:
352,128,73874,1,8,0:0:0:0:
352,128,73951,1,0,0:0:0:0:
352,128,74028,1,0,0:0:0:0:
352,128,74105,1,8,0:0:0:0:
352,144,74182,1,8,0:0:0:0:
352,144,74259,1,0,0:0:0:0:
352,144,74336,1,8,0:0:0:0:
352,144,74413,1,0,0:0:0:0:
336,144,74490,1,0,0:0:0:0:
128,176,74567,1,0,0:0:0:0:
144,160,74644,1,0,0:0:0:0:
160,144,74721,1,8,0:0:0:0:
192,112,74874,1,8,0:0:0:0:
176,128,74951,1,8,0:0:0:0:
176,128,75028,1,0,0:0:0:0:
176,128,75105,1,8,0:0:0:0:
176,128,75182,1,0,0:0:0:0:
176,128,75259,1,0,0:0:0:0:
176,128,75336,1,8,0:0:0:0:
176,128,75413,1,8,0:0:0:0:
176,128,75490,1,8,0:0:0:0:
176,128,75567,1,8,0:0:0:0:
128,176,75644,1,0,0:0:0:0:
176,160,75798,1,0,0:0:0:0:
192,160,75874,1,0,0:0:0:0:
208,160,75951,1,8,0:0:0:0:
240,144,76105,1,0,0:0:0:0:
272,144,76182,1,0,0:0:0:0:
288,144,76259,1,0,0:0:0:0:
304,144,76336,1,0,0:0:0:0:
320,128,76413,1,0,0:0:0:0:
336,128,76490,1,0,0:0:0:0:
352,128,76567,1,8,0:0:0:0:
368,112,76644,1,8,0:0:0:0:
384,112,76721,1,0,0:0:0:0:
400,96,76798,1,0,0:0:0:0:
384,112,76874,1,0,0:0:0:0:
336,96,77028,1,0,0:0:0:0:
320,96,77105,1,0,0:0:0:0:
320,96,77182,1,8,0:0:0:0:
320,96,77259,1,8,0:0:0:0:
320,96,77336,1,0,0:0:0:0:
320,96,77413,1,0,0:0:0:0:
336,128,77490,1,8,0:0:0:0:
352,128,77567,1,0,0:0:0:0:
336,128,77644,1,0,0:0:0:0:
336,128,77721,1,0,0:0:0:0:
336,128,77798,1,8,0:0:0:0:
336,128,77874,1,8,0:0:0:0:
336,128,77951,1,0,0:0:0:0:
336,128,78028,1,0,0:0:0:0:
336,128,78105,1,8,0:0:0:0:
336,128,78182,1,0,0:0:0:0:
336,128,78259,1,0,0:0:0:0:
320,128,78336,1,0,0:0:0:0:
336,128,78413,1,8,0:0:0:0:
320,128,78490,1,8,0:0:0:0:
352,128,78567,1,0,0:0:0:0:
336,128,78644,1,0,0:0:0:0:
336,128,78721,1,8,0:0:0:0:
320,128,78798,1,8,0:0:0:0:
336,128,78874,1,0,0:0:0:0:
320,128,78951,1,0,0:0:0:0:
336,128,79028,1,8,0:0:0:0:
320,112,79105,1,8,0:0:0:0:
304,112,79182,1,0,0:0:0:0:
288,96,79259,1,0,0:0:0:0:
288,96,79336,1,8,0:0:0:0:
352,144,79413,1,0,0:0:0:0:
352,144,79490,1,0,0:0:0:0:
352,144,79567,1,0,0:0:0:0:
352,144,79644,1,8,0:0:0:0:
352,144,79721,1,8,0:0:0:0:
352,144,79798,1,8,0:0:0:0:
352,144,79874,1,8,0:0:0:0:
336,128,79951,1,0,0:0:0:0:
336,128,80028,1,8,0:0:0:0:
320,128,80105,1,8,0:0:0:0:
336,128,80182,1,0,0:0:0:0:
336,128,80259,1,8,0:0:0:0:
336,112,80310,1,8,0:0:0:0:
336,96,80362,1,8,0:0:0:0:
336,96,80413,1,8,0:0:0:0:
336,96,80464,1,8,0:0:0:0:
336,96,80515,1,8,0:0:0:0:
336,96,80567,1,4,0:0:0:0:
320,64,80721,1,0,0:0:0:0:
320,48,80798,1,0,0:0:0:0:
320,48,80874,1,8,0:0:0:0:
320,48,80951,1,0,0:0:0:0:
320,48,81028,1,0,0:0:0:0:
320,48,81105,1,0,0:0:0:0:
320,48,81182,1,0,0:0:0:0:
320,48,81259,1,8,0:0:0:0:
320,48,81336,1,0,0:0:0:0:
320,48,81413,1,0,0:0:0:0:
320,48,81490,1,8,0:0:0:0:
320,48,81567,1,8,0:0:0:0:
320,48,81644,1,0,0:0:0:0:
320,64,81721,1,0,0:0:0:0:
320,80,81798,1,8,0:0:0:0:
304,96,81874,1,0,0:0:0:0:
304,96,81951,1,0,0:0:0:0:
304,96,82028,1,0,0:0:0:0:
304,96,82105,1,8,0:0:0:0:
304,96,82182,1,8,0:0:0:0:
304,96,82259,1,0,0:0:0:0:
304,96,82336,1,0,0:0:0:0:
304,96,82413,1,0,0:0:0:0:
304,96,82490,1,8,0:0:0:0:
304,96,82567,1,0,0:0:0:0:
304,96,82644,1,0,0:0:0:0:
304,96,82721,1,8,0:0:0:0:
304,96,82798,1,0,0:0:0:0:
304,96,82874,1,8,0:0:0:0:
304,96,82951,1,8,0:0:0:0:
320,112,83028,1,0,0:0:0:0:
320,112,83105,1,0,0:0:0:0:
320,112,83182,1,0,0:0:0:0:
320,112,83259,1,0,0:0:0:0:
320,112,83336,1,8,0:0:0:0:
320,112,83413,1,0,0:0:0:0:
320,112,83490,1,0,0:0:0:0:
320,112,83567,1,8,0:0:0:0:
320,112,83644,1,0,0:0:0:0:
320,112,83721,1,0,0:0:0:0:
320,112,83798,1,0,0:0:0:0:
320,112,83874,1,0,0:0:0:0:
320,112,83951,1,8,0:0:0:0:
320,112,84028,1,8,0:0:0:0:
320,112,84105,1,8,0:0:0:0:
320,112,84182,1,8,0:0:0:0:
336,96,84259,1,0,0:0:0:0:
336,96,84336,1,8,0:0:0:0:
336,96,84413,1,8,0:0:0:0:
336,96,84490,1,0,0:0:0:0:
336,96,84567,1,8,0:0:0:0:
336,96,84644,1,8,0:0:0:0:
336,96,84721,1,0,0:0:0:0:
336,96,84798,1,8,0:0:0:0:
336,96,84874,1,0,0:0:0:0:
336,96,84951,1,0,0:0:0:0:
336,96,85028,1,0,0:0:0:0:
336,96,85105,1,0,0:0:0:0:
352,112,85182,1,8,0:0:0:0:
336,96,85259,1,8,0:0:0:0:
336,96,85336,1,8,0:0:0:0:
352,112,85413,1,8,0:0:0:0:
368,128,85490,1,0,0:0:0:0:
336,96,85567,1,8,0:0:0:0:
336,96,85644,1,0,0:0:0:0:
336,96,85721,1,0,0:0:0:0:
352,112,85798,1,8,0:0:0:0:
368,128,85874,1,8,0:0:0:0:
368,144,85951,1,0,0:0:0:0:
368,144,86028,1,0,0:0:0:0:
368,144,86105,1,8,0:0:0:0:
368,144,86182,1,0,0:0:0:0:
368,144,86259,1,0,0:0:0:0:
368,144,86336,1,0,0:0:0:0:
368,144,86413,1,8,0:0:0:0:
368,144,86490,1,8,0:0:0:0:
368,144,86567,1,0,0:0:0:0:
368,144,86644,1,0,0:0:0:0:
368,144,86721,1,0,0:0:0:0:
368,144,86798,1,8,0:0:0:0:
368,144,86874,1,0,0:0:0:0:
368,144,86951,1,0,0:0:0:0:
368,144,87028,1,8,0:0:0:0:
368,144,87105,1,8,0:0:0:0:
368,144,87182,1,0,0:0:0:0:
368,144,87259,1,0,0:0:0:0:
368,144,87336,1,8,0:0:0:0:
368,144,87413,1,8,0:0:0:0:
368,160,87490,1,0,0:0:0:0:
368,160,87567,1,0,0:0:0:0:
368,160,87644,1,8,0:0:0:0:
368,160,87721,1,8,0:0:0:0:
368,160,87798,1,8,0:0:0:0:
368,160,87874,1,8,0:0:0:0:
368,160,87951,1,0,0:0:0:0:
368,160,88028,1,0,0:0:0:0:
368,160,88105,1,0,0:0:0:0:
368,160,88182,1,0,0:0:0:0:
400,160,88259,1,8,0:0:0:0:
400,160,88336,1,8,0:0:0:0:
400,160,88413,1,8,0:0:0:0:
400,160,88490,1,8,0:0:0:0:
400,160,88567,1,0,0:0:0:0:
400,160,88644,1,0,0:0:0:0:
400,176,88721,1,0,0:0:0:0:
400,160,88798,1,8,0:0:0:0:
400,176,88874,1,8,0:0:0:0:
400,192,88951,1,8,0:0:0:0:
400,160,89028,1,0,0:0:0:0:
400,160,89105,1,0,0:0:0:0:
400,160,89182,1,8,0:0:0:0:
400,160,89259,1,8,0:0:0:0:
400,160,89336,1,8,0:0:0:0:
400,192,89413,1,0,0:0:0:0:
400,192,89490,1,0,0:0:0:0:
400,192,89567,1,0,0:0:0:0:
400,192,89644,1,8,0:0:0:0:
400,192,89721,1,8,0:0:0:0:
400,192,89798,1,0,0:0:0:0:
400,192,89874,1,8,0:0:0:0:
400,192,89951,1,8,0:0:0:0:
400,192,90028,1,8,0:0:0:0:
400,192,90105,1,0,0:0:0:0:
400,192,90182,1,0,0:0:0:0:
400,192,90259,1,8,0:0:0:0:
400,192,90336,1,8,0:0:0:0:
384,176,90413,1,0,0:0:0:0:
368,160,90490,1,8,0:0:0:0:
352,144,90567,1,8,0:0:0:0:
336,128,90644,1,0,0:0:0:0:
320,112,90721,1,0,0:0:0:0:
304,96,90798,1,0,0:0:0:0:
288,80,90874,1,8,0:0:0:0:
272,80,90951,1,8,0:0:0:0:
288,80,91028,1,0,0:0:0:0:
304,64,91105,1,8,0:0:0:0:
320,64,91182,1,8,0:0:0:0:
320,64,91259,1,0,0:0:0:0:
320,64,91336,1,0,0:0:0:0:
336,64,91413,1,0,0:0:0:0:
336,64,91490,1,8,0:0:0:0:
336,64,91567,1,8,0:0:0:0:
352,80,91644,1,0,0:0:0:0:
368,96,91721,1,8,0:0:0:0:
368,112,91798,1,8,0:0:0:0:
384,128,91874,1,0,0:0:0:0:
384,128,91951,1,0,0:0:0:0:
384,128,92028,1,8,0:0:0:0:
384,128,92105,1,8,0:0:0:0:
384,128,92182,1,8,0:0:0:0:
384,128,92259,1,0,0:0:0:0:
384,128,92336,1,0,0:0:0:0:
384,128,92413,1,0,0:0:0:0:
384,128,92490,1,0,0:0:0:0:
384,128,92567,1,8,0:0:0:0:
384,128,92644,1,8,0:0:0:0:
384,128,92721,1,0,0:0:0:0:
384,128,92798,1,8,0:0:0:0:
384,144,92874,1,0,0:0:0:0:
384,144,92951,1,0,0:0:0:0:
368,128,93028,1,0,0:0:0:0:
352,112,93105,1,8,0:0:0:0:
384,144,93182,1,8,0:0:0:0:
384,144,93259,1,0,0:0:0:0:
384,144,93336,1,0,0:0:0:0:
368,128,93413,1,8,0:0:0:0:
352,112,93490,1,0,0:0:0:0:
352,112,93567,1,8,0:0:0:0:
352,112,93644,1,0,0:0:0:0:
384,160,93721,1,0,0:0:0:0:
384,160,93798,1,8,0:0:0:0:
384,160,93874,1,0,0:0:0:0:
384,160,93951,1,0,0:0:0:0:
384,160,94028,1,0,0:0:0:0:
368,144,94105,1,8,0:0:0:0:
352,128,94182,1,8,0:0:0:0:
336,112,94259,1,0,0:0:0:0:
336,112,94336,1,0,0:0:0:0:
336,112,94413,1,8,0:0:0:0:
336,112,94490,1,8,0:0:0:0:
336,112,94567,1,0,0:0:0:0:
336,112,94644,1,0,0:0:0:0:
336,112,94721,1,8,0:0:0:0:
336,112,94798,1,0,0:0:0:0:
336,112,94874,1,0,0:0:0:0:
336,112,94951,1,8,0:0:0:0:
336,112,95028,1,8,0:0:0:0:
336,112,95105,1,0,0:0:0:0:
336,112,95182,1,8,0:0:0:0:
336,112,95259,1,8,0:0:0:0:
336,112,95336,1,0,0:0:0:0:
320,96,95413,1,0,0:0:0:0:
304,80,95490,1,0,0:0:0:0:
288,64,95567,1,0,0:0:0:0:
288,64,95644,1,8,0:0:0:0:
288,64,95721,1,0,0:0:0:0:
288,64,95798,1,0,0:0:0:0:
288,64,95874,1,8,0:0:0:0:
288,64,95951,1,8,0:0:0:0:
288,64,96028,1,0,0:0:0:0:
288,64,96105,1,0,0:0:0:0:
288,64,96182,1,0,0:0:0:0:
288,64,96259,1,8,0:0:0:0:
304,64,96336,1,0,0:0:0:0:
320,64,96413,1,0,0:0:0:0:
336,48,96490,1,8,0:0:0:0:
336,48,96567,1,8,0:0:0:0:
352,64,96644,1,0,0:0:0:0:
368,64,96721,1,0,0:0:0:0:
384,80,96798,1,0,0:0:0:0:
384,80,96874,1,8,0:0:0:0:
384,80,96951,1,0,0:0:0:0:
384,80,97028,1,0,0:0:0:0:
384,80,97105,1,8,0:0:0:0:
384,80,97182,1,8,0:0:0:0:
368,64,97259,1,0,0:0:0:0:
368,64,97336,1,0,0:0:0:0:
368,64,97413,1,8,0:0:0:0:
368,64,97490,1,8,0:0:0:0:
368,64,97567,1,0,0:0:0:0:
368,64,97644,1,8,0:0:0:0:
368,64,97721,1,8,0:0:0:0:
368,80,97798,1,0,0:0:0:0:
384,80,97874,1,0,0:0:0:0:
384,96,97951,1,8,0:0:0:0:
384,112,98003,1,8,0:0:0:0:
368,128,98054,1,8,0:0:0:0:
368,128,98105,1,0,0:0:0:0:
352,128,98182,1,0,0:0:0:0:
384,96,98259,1,8,0:0:0:0:
384,112,98311,1,8,0:0:0:0:
368,128,98362,1,8,0:0:0:0:
368,128,98413,1,0,0:0:0:0:
352,128,98490,1,0,0:0:0:0:
384,96,98567,1,8,0:0:0:0:
384,112,98619,1,8,0:0:0:0:
368,128,98670,1,8,0:0:0:0:
368,128,98721,1,0,0:0:0:0:
352,112,98798,1,0,0:0:0:0:
384,96,98874,1,8,0:0:0:0:
384,112,98926,1,8,0:0:0:0:
368,128,98977,1,8,0:0:0:0:
368,128,99028,1,0,0:0:0:0:
352,128,99105,1,0,0:0:0:0:
336,112,99182,1,8,0:0:0:0:
336,96,99233,1,0,0:0:0:0:
336,80,99285,1,0,0:0:0:0:
320,64,99336,1,8,0:0:0:0:
304,64,99413,1,0,0:0:0:0:
288,64,99490,1,8,0:0:0:0:
288,80,99541,1,8,0:0:0:0:
288,96,99592,1,0,0:0:0:0:
288,96,99644,1,8,0:0:0:0:
320,64,99721,1,0,0:0:0:0:
304,64,99798,1,8,0:0:0:0:
288,80,99849,1,0,0:0:0:0:
288,80,99900,1,0,0:0:0:0:
288,80,99951,1,8,0:0:0:0:
288,80,100003,1,0,0:0:0:0:
288,80,100054,1,0,0:0:0:0:
288,80,100105,1,8,0:0:0:0:
304,80,100182,1,8,0:0:0:0:
320,80,100259,1,4,0:0:0:0:
336,32,100413,1,0,0:0:0:0:
336,48,100490,1,0,0:0:0:0:
336,64,100567,1,12,0:0:0:0:
320,112,100721,1,0,0:0:0:0:
320,128,100798,1,0,0:0:0:0:
320,128,100875,1,0,0:0:0:0:
320,128,100952,1,0,0:0:0:0:
304,128,101029,1,0,0:0:0:0:
320,128,101106,1,0,0:0:0:0:
304,128,101183,1,8,0:0:0:0:
256,128,101337,1,0,0:0:0:0:
256,128,101414,1,0,0:0:0:0:
256,144,101490,1,0,0:0:0:0:
256,144,101644,1,0,0:0:0:0:
256,144,101721,1,0,0:0:0:0:
256,144,101798,1,8,0:0:0:0:
256,144,101952,1,0,0:0:0:0:
256,144,102029,1,0,0:0:0:0:
256,144,102106,1,0,0:0:0:0:
256,144,102260,1,0,0:0:0:0:
256,144,102337,1,0,0:0:0:0:
256,144,102414,1,8,0:0:0:0:
272,160,102490,1,0,0:0:0:0:
288,176,102567,1,0,0:0:0:0:
304,192,102644,1,0,0:0:0:0:
288,176,102721,1,4,0:0:0:0:
272,144,102874,1,0,0:0:0:0:
256,128,102951,1,0,0:0:0:0:
272,96,103029,1,12,0:0:0:0:
320,80,103183,1,8,0:0:0:0:
320,80,103260,1,8,0:0:0:0:
320,80,103337,1,0,0:0:0:0:
320,80,103414,1,0,0:0:0:0:
320,80,103490,1,0,0:0:0:0:
320,80,103567,1,0,0:0:0:0:
304,80,103644,1,8,0:0:0:0:
336,112,103798,1,0,0:0:0:0:
352,128,103875,1,8,0:0:0:0:
352,128,103952,1,0,0:0:0:0:
352,128,104029,1,0,0:0:0:0:
352,128,104106,1,0,0:0:0:0:
352,128,104183,1,0,0:0:0:0:
352,128,104260,1,8,0:0:0:0:
352,176,104414,1,8,0:0:0:0:
352,176,104490,1,8,0:0:0:0:
352,176,104567,1,0,0:0:0:0:
352,176,104644,1,8,0:0:0:0:
352,176,104721,1,0,0:0:0:0:
352,176,104798,1,0,0:0:0:0:
352,176,104875,1,8,0:0:0:0:
352,176,104952,1,8,0:0:0:0:
352,176,105029,1,8,0:0:0:0:
352,176,105106,1,8,0:0:0:0:
352,176,105183,1,4,0:0:0:0:
320,160,105337,1,0,0:0:0:0:
320,160,105413,1,0,0:0:0:0:
320,160,105490,1,12,0:0:0:0:
320,160,105644,1,8,0:0:0:0:
320,160,105721,1,8,0:0:0:0:
320,160,105798,1,0,0:0:0:0:
320,160,105875,1,8,0:0:0:0:
320,160,105952,1,0,0:0:0:0:
320,160,106029,1,0,0:0:0:0:
320,160,106106,1,8,0:0:0:0:
304,128,106260,1,0,0:0:0:0:
304,128,106337,1,0,0:0:0:0:
304,128,106413,1,0,0:0:0:0:
304,128,106490,1,0,0:0:0:0:
304,128,106567,1,0,0:0:0:0:
304,128,106644,1,0,0:0:0:0:
304,128,106721,1,8,0:0:0:0:
320,160,106875,1,8,0:0:0:0:
336,176,106952,1,8,0:0:0:0:
352,192,107029,1,0,0:0:0:0:
368,208,107106,1,8,0:0:0:0:
384,224,107183,1,0,0:0:0:0:
400,240,107260,1,0,0:0:0:0:
400,256,107337,1,8,0:0:0:0:
400,272,107413,1,8,0:0:0:0:
416,288,107490,1,8,0:0:0:0:
416,304,107567,1,8,0:0:0:0:
432,288,107644,1,4,0:0:0:0:
432,240,107798,1,0,0:0:0:0:
432,224,107875,1,0,0:0:0:0:
432,208,107952,1,12,0:0:0:0:
416,160,108106,1,0,0:0:0:0:
416,144,108183,1,0,0:0:0:0:
416,128,108260,1,0,0:0:0:0:
416,112,108337,1,0,0:0:0:0:
416,112,108413,1,0,0:0:0:0:
416,112,108490,1,0,0:0:0:0:
416,112,108567,1,8,0:0:0:0:
384,96,108721,1,0,0:0:0:0:
400,96,108798,1,8,0:0:0:0:
416,80,108875,1,0,0:0:0:0:
432,80,108952,1,0,0:0:0:0:
432,80,109029,1,0,0:0:0:0:
432,80,109106,1,0,0:0:0:0:
432,80,109183,1,8,0:0:0:0:
416,112,109337,1,0,0:0:0:0:
416,112,109413,1,0,0:0:0:0:
416,112,109490,1,0,0:0:0:0:
416,112,109644,1,0,0:0:0:0:
416,112,109721,1,0,0:0:0:0:
416,112,109798,1,8,0:0:0:0:
416,112,109875,1,8,0:0:0:0:
416,112,109952,1,8,0:0:0:0:
416,112,110029,1,8,0:0:0:0:
416,112,110106,1,4,0:0:0:0:
384,128,110259,1,0,0:0:0:0:
368,128,110336,1,0,0:0:0:0:
352,128,110413,1,8,0:0:0:0:
336,128,110490,1,0,0:0:0:0:
320,128,110567,1,8,0:0:0:0:
304,128,110644,1,8,0:0:0:0:
288,128,110721,1,0,0:0:0:0:
272,144,110798,1,8,0:0:0:0:
288,128,110874,1,0,0:0:0:0:
304,128,110926,1,0,0:0:0:0:
320,128,110977,1,0,0:0:0:0:
336,112,111028,1,8,0:0:0:0:
320,112,111105,1,0,0:0:0:0:
304,112,111182,1,8,0:0:0:0:
288,112,111259,1,8,0:0:0:0:
272,96,111336,1,0,0:0:0:0:
272,80,111413,1,0,0:0:0:0:
256,96,111490,1,0,0:0:0:0:
256,112,111541,1,0,0:0:0:0:
256,112,111592,1,0,0:0:0:0:
256,112,111644,1,8,0:0:0:0:
272,96,111721,1,8,0:0:0:0:
272,96,111798,1,0,0:0:0:0:
272,96,111874,1,0,0:0:0:0:
256,96,111951,1,8,0:0:0:0:
240,96,112003,1,8,0:0:0:0:
224,96,112054,1,8,0:0:0:0:
208,96,112105,1,0,0:0:0:0:
224,96,112182,1,0,0:0:0:0:
240,96,112259,1,8,0:0:0:0:
256,96,112310,1,8,0:0:0:0:
272,112,112362,1,8,0:0:0:0:
288,128,112413,1,0,0:0:0:0:
288,128,112464,1,0,0:0:0:0:
288,128,112515,1,0,0:0:0:0:
288,128,112567,1,8,0:0:0:0:
304,112,112644,1,0,0:0:0:0:
320,96,112721,1,0,0:0:0:0:
320,80,112798,1,0,0:0:0:0:
320,80,112874,1,8,0:0:0:0:
320,96,112926,1,8,0:0:0:0:
336,96,112977,1,8,0:0:0:0:
352,96,113028,1,0,0:0:0:0:
256,96,113105,1,8,0:0:0:0:
256,96,113182,1,0,0:0:0:0:
272,96,113259,1,0,0:0:0:0:
352,96,113336,1,8,0:0:0:0:
352,96,113387,1,0,0:0:0:0:
352,96,113439,1,0,0:0:0:0:
352,96,113490,1,8,0:0:0:0:
336,96,113567,1,0,0:0:0:0:
320,80,113644,1,0,0:0:0:0:
320,96,113695,1,0,0:0:0:0:
320,112,113746,1,0,0:0:0:0:
320,112,113798,1,8,0:0:0:0:
304,96,113874,1,0,0:0:0:0:
304,96,113951,1,8,0:0:0:0:
288,96,114003,1,0,0:0:0:0:
272,96,114054,1,0,0:0:0:0:
256,96,114105,1,8,0:0:0:0:
272,112,114182,1,8,0:0:0:0:
288,112,114259,1,8,0:0:0:0:
304,128,114336,1,8,0:0:0:0:
288,144,114413,1,0,0:0:0:0:
272,144,114464,1,0,0:0:0:0:
256,144,114515,1,0,0:0:0:0:
240,160,114567,1,0,0:0:0:0:
288,112,114644,1,0,0:0:0:0:
288,112,114721,1,8,0:0:0:0:
288,112,114798,1,8,0:0:0:0:
272,112,114874,1,8,0:0:0:0:
256,112,114926,1,8,0:0:0:0:
240,112,114977,1,8,0:0:0:0:
224,112,115028,1,0,0:0:0:0:
240,112,115080,1,0,0:0:0:0:
256,96,115182,1,0,0:0:0:0:
272,96,115233,1,0,0:0:0:0:
304,80,115336,1,8,0:0:0:0:
304,80,115387,1,8,0:0:0:0:
288,112,115490,1,0,0:0:0:0:
288,112,115541,1,0,0:0:0:0:
304,128,115644,1,0,0:0:0:0:
304,128,115695,1,8,0:0:0:0:
304,128,115798,1,0,0:0:0:0:
304,128,115849,1,0,0:0:0:0:
304,128,115951,1,8,0:0:0:0:
304,128,116003,1,8,0:0:0:0:
304,128,116105,1,0,0:0:0:0:
304,128,116156,1,0,0:0:0:0:
288,96,116259,1,8,0:0:0:0:
288,96,116310,1,0,0:0:0:0:
272,80,116413,1,0,0:0:0:0:
272,80,116464,1,0,0:0:0:0:
272,80,116567,1,8,0:0:0:0:
272,80,116618,1,8,0:0:0:0:
272,80,116721,1,0,0:0:0:0:
272,80,116772,1,0,0:0:0:0:
272,112,116874,1,8,0:0:0:0:
272,112,116926,1,0,0:0:0:0:
272,112,116977,1,0,0:0:0:0:
272,112,117028,1,0,0:0:0:0:
272,112,117080,1,0,0:0:0:0:
272,112,117131,1,0,0:0:0:0:
272,112,117182,1,8,0:0:0:0:
272,112,117233,1,8,0:0:0:0:
272,112,117336,1,8,0:0:0:0:
272,112,117387,1,0,0:0:0:0:
272,112,117490,1,0,0:0:0:0:
272,112,117541,1,0,0:0:0:0:
304,96,117644,1,8,0:0:0:0:
320,96,117695,1,0,0:0:0:0:
336,96,117746,1,0,0:0:0:0:
352,96,117798,1,0,0:0:0:0:
336,80,117874,1,0,0:0:0:0:
336,80,117951,1,8,0:0:0:0:
336,80,118028,1,8,0:0:0:0:
320,96,118105,1,8,0:0:0:0:
304,96,118156,1,8,0:0:0:0:
288,96,118208,1,0,0:0:0:0:
272,96,118259,1,0,0:0:0:0:
288,80,118336,1,0,0:0:0:0:
288,80,118413,1,8,0:0:0:0:
288,80,118490,1,8,0:0:0:0:
288,80,118567,1,0,0:0:0:0:
288,80,118644,1,0,0:0:0:0:
288,80,118721,1,8,0:0:0:0:
272,80,118772,1,0,0:0:0:0:
256,80,118823,1,0,0:0:0:0:
240,80,118874,1,8,0:0:0:0:
224,80,118926,1,0,0:0:0:0:
224,80,118977,1,0,0:0:0:0:
224,80,119028,1,8,0:0:0:0:
224,80,119080,1,0,0:0:0:0:
224,80,119131,1,0,0:0:0:0:
224,80,119182,1,8,0:0:0:0:
224,80,119233,1,0,0:0:0:0:
224,80,119285,1,0,0:0:0:0:
224,96,119336,1,8,0:0:0:0:
224,112,119387,1,8,0:0:0:0:
224,128,119439,1,0,0:0:0:0:
240,144,119490,1,8,0:0:0:0:
240,144,119541,1,8,0:0:0:0:
240,160,119592,1,0,0:0:0:0:
240,160,119644,1,8,0:0:0:0:
240,144,119695,1,8,0:0:0:0:
240,160,119746,1,0,0:0:0:0:
240,160,119798,1,8,0:0:0:0:
240,144,119849,1,8,0:0:0:0:
256,128,119900,1,8,0:0:0:0:
256,160,119951,1,0,0:0:0:0:
304,160,120105,1,8,0:0:0:0:
304,160,120182,1,0,0:0:0:0:
304,160,120259,1,0,0:0:0:0:
304,160,120336,1,0,0:0:0:0:
304,160,120413,1,0,0:0:0:0:
304,160,120490,1,8,0:0:0:0:
304,160,120567,1,8,0:0:0:0:
304,160,120874,1,8,0:0:0:0:
288,160,120951,1,8,0:0:0:0:
272,160,121028,1,0,0:0:0:0:
208,128,121336,1,0,0:0:0:0:
208,128,121413,1,0,0:0:0:0:
208,128,121490,1,0,0:0:0:0:
208,128,121567,1,0,0:0:0:0:
224,112,121644,1,0,0:0:0:0:
240,112,121721,1,8,0:0:0:0:
256,96,121798,1,8,0:0:0:0:
272,96,121874,1,0,0:0:0:0:
288,112,121951,1,0,0:0:0:0:
304,128,122003,1,0,0:0:0:0:
304,128,122054,1,0,0:0:0:0:
304,128,122105,1,8,0:0:0:0:
320,144,122182,1,0,0:0:0:0:
320,144,122259,1,8,0:0:0:0:
320,144,122336,1,8,0:0:0:0:
336,144,122413,1,0,0:0:0:0:
352,144,122464,1,0,0:0:0:0:
368,144,122515,1,0,0:0:0:0:
368,144,122567,1,0,0:0:0:0:
368,128,122644,1,0,0:0:0:0:
368,128,122721,1,8,0:0:0:0:
368,128,122798,1,0,0:0:0:0:
368,128,122874,1,8,0:0:0:0:
368,128,122951,1,8,0:0:0:0:
352,128,123028,1,0,0:0:0:0:
336,128,123080,1,0,0:0:0:0:
320,128,123131,1,0,0:0:0:0:
304,128,123182,1,0,0:0:0:0:
288,128,123259,1,0,0:0:0:0:
272,128,123336,1,8,0:0:0:0:
256,128,123413,1,0,0:0:0:0:
272,128,123490,1,8,0:0:0:0:
288,128,123541,1,8,0:0:0:0:
304,128,123592,1,8,0:0:0:0:
320,128,123644,1,0,0:0:0:0:
272,128,123721,1,0,0:0:0:0:
288,144,123798,1,0,0:0:0:0:
304,144,123849,1,0,0:0:0:0:
304,144,123900,1,0,0:0:0:0:
304,144,123951,1,8,0:0:0:0:
320,128,124028,1,0,0:0:0:0:
304,128,124105,1,8,0:0:0:0:
288,128,124156,1,8,0:0:0:0:
272,128,124208,1,8,0:0:0:0:
256,128,124259,1,0,0:0:0:0:
272,112,124336,1,0,0:0:0:0:
288,112,124413,1,0,0:0:0:0:
304,112,124464,1,0,0:0:0:0:
320,112,124515,1,0,0:0:0:0:
336,112,124567,1,8,0:0:0:0:
336,128,124644,1,8,0:0:0:0:
336,128,124721,1,8,0:0:0:0:
336,128,124798,1,8,0:0:0:0:
320,128,124874,1,0,0:0:0:0:
304,128,124926,1,8,0:0:0:0:
288,128,124977,1,8,0:0:0:0:
272,128,125028,1,0,0:0:0:0:
288,112,125105,1,8,0:0:0:0:
304,96,125182,1,0,0:0:0:0:
320,80,125259,1,8,0:0:0:0:
304,112,125336,1,8,0:0:0:0:
320,112,125387,1,8,0:0:0:0:
304,96,125439,1,8,0:0:0:0:
304,96,125490,1,0,0:0:0:0:
320,96,125541,1,8,0:0:0:0:
336,96,125592,1,8,0:0:0:0:
352,96,125644,1,0,0:0:0:0:
336,96,125721,1,8,0:0:0:0:
320,96,125798,1,0,0:0:0:0:
304,96,125874,1,8,0:0:0:0:
320,96,125951,1,8,0:0:0:0:
336,96,126003,1,8,0:0:0:0:
352,96,126054,1,8,0:0:0:0:
368,80,126105,1,0,0:0:0:0:
352,96,126182,1,0,0:0:0:0:
336,96,126259,1,0,0:0:0:0:
320,96,126310,1,0,0:0:0:0:
304,96,126362,1,0,0:0:0:0:
288,96,126413,1,8,0:0:0:0:
304,112,126490,1,8,0:0:0:0:
320,128,126567,1,0,0:0:0:0:
320,128,126644,1,0,0:0:0:0:
304,144,126721,1,8,0:0:0:0:
288,144,126772,1,0,0:0:0:0:
272,144,126823,1,0,0:0:0:0:
256,144,126874,1,8,0:0:0:0:
256,128,126951,1,0,0:0:0:0:
240,112,127028,1,8,0:0:0:0:
224,112,127080,1,0,0:0:0:0:
208,112,127131,1,0,0:0:0:0:
192,112,127182,1,8,0:0:0:0:
208,112,127259,1,8,0:0:0:0:
208,128,127336,1,0,0:0:0:0:
224,128,127387,1,0,0:0:0:0:
240,128,127439,1,0,0:0:0:0:
256,128,127490,1,0,0:0:0:0:
272,112,127567,1,0,0:0:0:0:
272,112,127644,1,8,0:0:0:0:
272,112,127721,1,8,0:0:0:0:
288,112,127798,1,8,0:0:0:0:
304,112,127849,1,8,0:0:0:0:
320,112,127900,1,8,0:0:0:0:
320,112,127951,1,0,0:0:0:0:
256,128,128003,1,0,0:0:0:0:
256,128,128054,1,0,0:0:0:0:
256,128,128105,1,0,0:0:0:0:
240,112,128182,1,0,0:0:0:0:
256,112,128259,1,8,0:0:0:0:
272,112,128336,1,8,0:0:0:0:
288,112,128413,1,8,0:0:0:0:
304,112,128464,1,8,0:0:0:0:
320,112,128515,1,8,0:0:0:0:
336,112,128567,1,0,0:0:0:0:
336,96,128644,1,8,0:0:0:0:
352,80,128721,1,8,0:0:0:0:
352,80,128798,1,8,0:0:0:0:
272,112,128874,1,0,0:0:0:0:
272,112,128926,1,0,0:0:0:0:
272,112,128977,1,0,0:0:0:0:
272,112,129028,1,8,0:0:0:0:
272,112,129105,1,8,0:0:0:0:
272,128,129182,1,0,0:0:0:0:
272,144,129221,1,0,0:0:0:0:
272,160,129259,1,0,0:0:0:0:
272,160,129336,1,0,0:0:0:0:
272,160,129374,1,0,0:0:0:0:
272,160,129413,1,0,0:0:0:0:
288,144,129490,1,8,0:0:0:0:
288,144,129567,1,0,0:0:0:0:
288,144,129644,1,0,0:0:0:0:
288,144,129721,1,0,0:0:0:0:
304,144,129798,1,8,0:0:0:0:
304,128,129849,1,8,0:0:0:0:
304,112,129900,1,0,0:0:0:0:
288,96,129951,1,8,0:0:0:0:
272,96,130003,1,8,0:0:0:0:
304,80,130054,1,0,0:0:0:0:
304,80,130105,1,8,0:0:0:0:
288,144,130182,1,0,0:0:0:0:
288,144,130259,1,0,0:0:0:0:
272,128,130336,1,8,0:0:0:0:
256,112,130413,1,0,0:0:0:0:
240,112,130490,1,0,0:0:0:0:
256,112,130567,1,0,0:0:0:0:
272,112,130618,1,0,0:0:0:0:
288,112,130669,1,0,0:0:0:0:
304,112,130721,1,8,0:0:0:0:
240,112,130798,1,8,0:0:0:0:
240,112,130874,1,0,0:0:0:0:
240,112,130951,1,0,0:0:0:0:
256,112,131028,1,8,0:0:0:0:
256,128,131080,1,0,0:0:0:0:
256,144,131131,1,0,0:0:0:0:
256,160,131182,1,0,0:0:0:0:
256,160,131233,1,0,0:0:0:0:
256,160,131285,1,0,0:0:0:0:
256,160,131336,1,8,0:0:0:0:
256,144,131413,1,0,0:0:0:0:
256,144,131490,1,8,0:0:0:0:
256,144,131567,1,8,0:0:0:0:
272,128,131644,1,0,0:0:0:0:
288,115,131721,1,0,0:0:0:0:
304,102,131798,1,0,0:0:0:0:
320,89,131874,1,0,0:0:0:0:
256,128,131951,1,8,0:0:0:0:
272,144,132028,1,8,0:0:0:0:
288,144,132105,1,0,0:0:0:0:
288,144,132182,1,8,0:0:0:0:
272,144,132259,1,0,0:0:0:0:
272,112,132310,1,0,0:0:0:0:
272,128,132362,1,0,0:0:0:0:
272,128,132413,1,0,0:0:0:0:
272,128,132464,1,0,0:0:0:0:
272,128,132515,1,0,0:0:0:0:
272,112,132567,1,8,0:0:0:0:
288,112,132644,1,0,0:0:0:0:
304,112,132721,1,8,0:0:0:0:
320,112,132798,1,8,0:0:0:0:
336,112,132874,1,8,0:0:0:0:
272,144,132926,1,0,0:0:0:0:
272,144,132977,1,0,0:0:0:0:
272,144,133028,1,8,0:0:0:0:
272,144,133080,1,0,0:0:0:0:
272,144,133131,1,0,0:0:0:0:
272,144,133182,1,8,0:0:0:0:
320,112,133259,1,8,0:0:0:0:
320,112,133336,1,0,0:0:0:0:
320,112,133413,1,0,0:0:0:0:
336,96,133490,1,8,0:0:0:0:
304,112,133541,1,0,0:0:0:0:
304,112,133592,1,0,0:0:0:0:
320,112,133644,1,0,0:0:0:0:
304,96,133721,1,8,0:0:0:0:
288,96,133798,1,8,0:0:0:0:
288,96,133849,1,0,0:0:0:0:
288,96,133900,1,0,0:0:0:0:
288,96,133951,1,0,0:0:0:0:
272,144,134028,1,8,0:0:0:0:
288,144,134105,1,0,0:0:0:0:
304,144,134156,1,0,0:0:0:0:
320,144,134208,1,0,0:0:0:0:
336,160,134259,1,8,0:0:0:0:
336,160,134336,1,8,0:0:0:0:
320,144,134413,1,8,0:0:0:0:
320,128,134490,1,8,0:0:0:0:
304,112,134567,1,8,0:0:0:0:
304,96,134644,1,8,0:0:0:0:
320,96,134721,1,0,0:0:0:0:
336,96,134798,1,0,0:0:0:0:
288,144,134874,1,0,0:0:0:0:
288,144,134926,1,0,0:0:0:0:
288,144,134977,1,0,0:0:0:0:
304,144,135028,1,8,0:0:0:0:
320,144,135105,1,0,0:0:0:0:
336,144,135182,1,0,0:0:0:0:
336,144,135259,1,0,0:0:0:0:
320,144,135336,1,8,0:0:0:0:
304,144,135387,1,8,0:0:0:0:
288,144,135439,1,8,0:0:0:0:
272,144,135490,1,0,0:0:0:0:
288,144,135567,1,0,0:0:0:0:
272,144,135644,1,8,0:0:0:0:
256,144,135721,1,0,0:0:0:0:
240,144,135798,1,0,0:0:0:0:
224,144,135874,1,8,0:0:0:0:
240,128,135951,1,0,0:0:0:0:
256,128,136028,1,0,0:0:0:0:
272,112,136105,1,0,0:0:0:0:
288,112,136156,1,0,0:0:0:0:
304,96,136208,1,0,0:0:0:0:
320,96,136259,1,8,0:0:0:0:
336,80,136336,1,8,0:0:0:0:
336,80,136413,1,0,0:0:0:0:
272,112,136490,1,0,0:0:0:0:
272,112,136567,1,8,0:0:0:0:
272,112,136644,1,0,0:0:0:0:
272,112,136721,1,0,0:0:0:0:
288,112,136772,1,0,0:0:0:0:
304,112,136823,1,0,0:0:0:0:
320,128,136874,1,8,0:0:0:0:
336,144,136951,1,0,0:0:0:0:
352,128,137028,1,0,0:0:0:0:
352,144,137105,1,8,0:0:0:0:
336,144,137182,1,0,0:0:0:0:
320,144,137233,1,0,0:0:0:0:
304,144,137285,1,0,0:0:0:0:
304,144,137336,1,0,0:0:0:0:
304,144,137387,1,0,0:0:0:0:
304,144,137439,1,0,0:0:0:0:
304,144,137490,1,8,0:0:0:0:
288,112,137567,1,8,0:0:0:0:
288,112,137644,1,0,0:0:0:0:
288,112,137721,1,0,0:0:0:0:
272,128,137798,1,8,0:0:0:0:
256,144,137849,1,0,0:0:0:0:
256,144,137900,1,0,0:0:0:0:
256,144,137951,1,0,0:0:0:0:
256,144,138003,1,0,0:0:0:0:
256,144,138054,1,0,0:0:0:0:
256,144,138105,1,8,0:0:0:0:
272,144,138182,1,8,0:0:0:0:
288,144,138259,1,0,0:0:0:0:
304,144,138336,1,0,0:0:0:0:
320,144,138413,1,8,0:0:0:0:
304,128,138464,1,8,0:0:0:0:
304,112,138515,1,0,0:0:0:0:
288,96,138567,1,8,0:0:0:0:
288,96,138618,1,8,0:0:0:0:
288,96,138669,1,0,0:0:0:0:
288,96,138721,1,8,0:0:0:0:
288,96,138772,1,8,0:0:0:0:
288,96,138823,1,0,0:0:0:0:
288,96,138874,1,8,0:0:0:0:
288,96,138926,1,8,0:0:0:0:
288,96,138977,1,0,0:0:0:0:
288,96,139028,1,8,0:0:0:0:
288,96,139080,1,0,0:0:0:0:
288,96,139131,1,0,0:0:0:0:
288,96,139182,1,8,0:0:0:0:
288,96,139233,1,0,0:0:0:0:
288,96,139285,1,0,0:0:0:0:
288,96,139336,1,8,0:0:0:0:
288,96,139387,1,0,0:0:0:0:
288,96,139439,1,0,0:0:0:0:
288,96,139490,1,8,0:0:0:0:
288,96,139541,1,0,0:0:0:0:
288,96,139592,1,8,0:0:0:0:
288,96,139644,1,0,0:0:0:0:
288,112,139721,1,0,0:0:0:0:
272,128,139798,1,0,0:0:0:0:
272,128,139874,1,0,0:0:0:0:
272,128,139951,1,8,0:0:0:0:
272,144,140028,1,0,0:0:0:0:
272,160,140105,1,8,0:0:0:0:
288,96,140156,1,8,0:0:0:0:
288,96,140208,1,8,0:0:0:0:
288,96,140259,1,0,0:0:0:0:
288,112,140336,1,0,0:0:0:0:
304,128,140413,1,0,0:0:0:0:
320,128,140464,1,0,0:0:0:0:
336,128,140515,1,0,0:0:0:0:
352,112,140567,1,8,0:0:0:0:
368,96,140644,1,0,0:0:0:0:
384,96,140721,1,8,0:0:0:0:
400,80,140798,1,8,0:0:0:0:
288,96,140874,1,0,0:0:0:0:
288,112,140951,1,0,0:0:0:0:
272,128,141028,1,0,0:0:0:0:
272,128,141104,1,0,0:0:0:0:
272,128,141181,1,8,0:0:0:0:
272,144,141258,1,0,0:0:0:0:
272,160,141335,1,8,0:0:0:0:
288,96,141386,1,8,0:0:0:0:
288,96,141438,1,8,0:0:0:0:
288,96,141489,1,0,0:0:0:0:
288,112,141566,1,0,0:0:0:0:
304,128,141643,1,0,0:0:0:0:
320,128,141694,1,0,0:0:0:0:
336,128,141745,1,0,0:0:0:0:
352,112,141797,1,8,0:0:0:0:
368,96,141874,1,0,0:0:0:0:
384,96,141951,1,8,0:0:0:0:
400,80,142028,1,8,0:0:0:0:
384,80,142105,1,0,0:0:0:0:
368,80,142182,1,0,0:0:0:0:
336,80,142259,1,0,0:0:0:0:
288,96,142336,1,0,0:0:0:0:
288,96,142413,1,8,0:0:0:0:
384,80,142464,1,8,0:0:0:0:
384,80,142515,1,8,0:0:0:0:
384,80,142567,1,8,0:0:0:0:
368,80,142644,1,8,0:0:0:0:
352,80,142721,1,0,0:0:0:0:
336,80,142798,1,0,0:0:0:0:
320,96,142874,1,0,0:0:0:0:
304,96,142951,1,0,0:0:0:0:
288,96,143028,1,8,0:0:0:0:
272,96,143080,1,8,0:0:0:0:
256,112,143131,1,8,0:0:0:0:
240,112,143182,1,8,0:0:0:0:
224,112,143259,1,8,0:0:0:0:
288,96,143336,1,0,0:0:0:0:
288,96,143413,1,8,0:0:0:0:
288,96,143490,1,8,0:0:0:0:
288,96,143567,1,0,0:0:0:0:
288,96,143644,1,8,0:0:0:0:
288,96,143721,1,8,0:0:0:0:
288,96,143798,1,0,0:0:0:0:
288,96,143874,1,8,0:0:0:0:
304,96,143951,1,0,0:0:0:0:
304,96,144003,1,0,0:0:0:0:
304,96,144054,1,0,0:0:0:0:
304,96,144105,1,0,0:0:0:0:
304,96,144156,1,0,0:0:0:0:
304,96,144208,1,0,0:0:0:0:
304,96,144259,1,8,0:0:0:0:
288,96,144336,1,8,0:0:0:0:
288,96,144413,1,0,0:0:0:0:
288,96,144490,1,8,0:0:0:0:
288,112,144567,1,0,0:0:0:0:
304,160,144721,1,0,0:0:0:0:
304,160,144798,1,0,0:0:0:0:
304,160,144874,1,8,0:0:0:0:
304,160,144951,1,8,0:0:0:0:
304,160,145028,1,0,0:0:0:0:
304,160,145105,1,0,0:0:0:0:
304,160,145182,1,0,0:0:0:0:
304,160,145336,1,0,0:0:0:0:
304,160,145413,1,0,0:0:0:0:
304,160,145490,1,8,0:0:0:0:
304,160,145567,1,8,0:0:0:0:
304,160,145644,1,0,0:0:0:0:
304,160,145721,1,0,0:0:0:0:
304,160,145798,1,0,0:0:0:0:
304,160,145951,1,0,0:0:0:0:
288,160,146028,1,0,0:0:0:0:
272,160,146105,1,8,0:0:0:0:
256,144,146182,1,8,0:0:0:0:
256,144,146259,1,0,0:0:0:0:
256,144,146336,1,0,0:0:0:0:
256,144,146413,1,8,0:0:0:0:
240,112,146490,1,0,0:0:0:0:
240,112,146567,1,0,0:0:0:0:
240,112,146644,1,0,0:0:0:0:
240,112,146721,1,8,0:0:0:0:
240,112,146798,1,0,0:0:0:0:
240,112,146874,1,0,0:0:0:0:
240,112,146951,1,0,0:0:0:0:
160,48,147028,1,0,0:0:0:0:
192,80,147182,1,0,0:0:0:0:
208,96,147259,1,0,0:0:0:0:
224,96,147336,1,8,0:0:0:0:
224,96,147490,1,0,0:0:0:0:
224,96,147567,1,0,0:0:0:0:
320,176,147644,1,0,0:0:0:0:
304,160,147798,1,8,0:0:0:0:
304,160,147874,1,8,0:0:0:0:
304,160,147951,1,8,0:0:0:0:
304,160,148028,1,8,0:0:0:0:
304,160,148105,1,8,0:0:0:0:
304,160,148182,1,8,0:0:0:0:
304,144,148259,1,0,0:0:0:0:
304,128,148336,1,8,0:0:0:0:
304,112,148413,1,8,0:0:0:0:
320,96,148490,1,8,0:0:0:0:
320,96,148567,1,8,0:0:0:0:
320,96,148644,1,8,0:0:0:0:
320,96,148721,1,8,0:0:0:0:
320,96,148798,1,8,0:0:0:0:
320,96,148874,1,12,0:0:0:0:
352,64,149028,1,0,0:0:0:0:
352,64,149080,1,0,0:0:0:0:
352,64,149131,1,0,0:0:0:0:
352,64,149182,1,12,0:0:0:0:
320,80,149336,1,8,0:0:0:0:
304,96,149413,1,8,0:0:0:0:
288,80,149490,1,0,0:0:0:0:
272,80,149567,1,8,0:0:0:0:
256,64,149644,1,0,0:0:0:0:
272,64,149695,1,0,0:0:0:0:
288,64,149746,1,0,0:0:0:0:
304,64,149798,1,8,0:0:0:0:
336,80,149874,1,8,0:0:0:0:
336,80,149951,1,0,0:0:0:0:
352,96,150003,1,0,0:0:0:0:
352,96,150054,1,8,0:0:0:0:
352,96,150105,1,0,0:0:0:0:
304,96,150182,1,0,0:0:0:0:
304,96,150259,1,0,0:0:0:0:
288,96,150310,1,0,0:0:0:0:
272,96,150362,1,0,0:0:0:0:
272,96,150413,1,8,0:0:0:0:
288,96,150490,1,0,0:0:0:0:
304,80,150567,1,8,0:0:0:0:
320,80,150618,1,8,0:0:0:0:
336,80,150669,1,8,0:0:0:0:
352,64,150721,1,0,0:0:0:0:
336,80,150798,1,8,0:0:0:0:
336,80,150874,1,0,0:0:0:0:
336,80,150951,1,0,0:0:0:0:
336,80,151028,1,8,0:0:0:0:
352,80,151080,1,0,0:0:0:0:
368,80,151131,1,0,0:0:0:0:
384,80,151182,1,8,0:0:0:0:
384,80,151233,1,0,0:0:0:0:
384,80,151285,1,0,0:0:0:0:
272,96,151336,1,8,0:0:0:0:
272,96,151413,1,0,0:0:0:0:
272,96,151490,1,0,0:0:0:0:
272,96,151567,1,0,0:0:0:0:
288,96,151644,1,8,0:0:0:0:
304,96,151695,1,8,0:0:0:0:
320,96,151746,1,8,0:0:0:0:
336,96,151798,1,0,0:0:0:0:
336,112,151874,1,0,0:0:0:0:
368,80,151951,1,8,0:0:0:0:
368,80,152003,1,0,0:0:0:0:
368,80,152054,1,0,0:0:0:0:
368,80,152105,1,8,0:0:0:0:
368,80,152156,1,0,0:0:0:0:
368,80,152208,1,0,0:0:0:0:
368,80,152259,1,8,0:0:0:0:
368,80,152310,1,0,0:0:0:0:
368,80,152362,1,0,0:0:0:0:
368,80,152413,1,8,0:0:0:0:
368,80,152464,1,0,0:0:0:0:
368,80,152515,1,0,0:0:0:0:
320,96,152567,1,8,0:0:0:0:
368,80,152644,1,0,0:0:0:0:
368,80,152721,1,0,0:0:0:0:
368,80,152798,1,8,0:0:0:0:
368,80,152874,1,0,0:0:0:0:
368,80,152951,1,0,0:0:0:0:
352,96,153028,1,0,0:0:0:0:
336,80,153105,1,8,0:0:0:0:
320,96,153182,1,0,0:0:0:0:
320,96,153233,1,8,0:0:0:0:
320,96,153285,1,8,0:0:0:0:
320,96,153336,1,0,0:0:0:0:
320,96,153387,1,8,0:0:0:0:
320,96,153439,1,8,0:0:0:0:
320,96,153490,1,0,0:0:0:0:
320,96,153541,1,0,0:0:0:0:
320,96,153592,1,8,0:0:0:0:
320,96,153644,1,0,0:0:0:0:
320,96,153695,1,0,0:0:0:0:
320,96,153746,1,8,0:0:0:0:
320,96,153798,1,0,0:0:0:0:
352,96,153874,1,0,0:0:0:0:
352,96,153951,1,0,0:0:0:0:
336,96,154003,1,0,0:0:0:0:
320,96,154054,1,0,0:0:0:0:
304,96,154105,1,8,0:0:0:0:
320,96,154182,1,8,0:0:0:0:
352,80,154259,1,8,0:0:0:0:
352,80,154336,1,8,0:0:0:0:
368,96,154413,1,0,0:0:0:0:
368,80,154464,1,0,0:0:0:0:
368,64,154515,1,0,0:0:0:0:
368,64,154567,1,0,0:0:0:0:
352,64,154644,1,0,0:0:0:0:
336,64,154721,1,8,0:0:0:0:
320,64,154798,1,0,0:0:0:0:
304,64,154874,1,8,0:0:0:0:
320,64,154926,1,0,0:0:0:0:
336,64,154977,1,0,0:0:0:0:
352,64,155028,1,8,0:0:0:0:
352,48,155105,1,0,0:0:0:0:
352,32,155182,1,0,0:0:0:0:
352,32,155259,1,8,0:0:0:0:
336,32,155336,1,0,0:0:0:0:
368,64,155387,1,0,0:0:0:0:
368,64,155439,1,0,0:0:0:0:
368,64,155490,1,8,0:0:0:0:
352,64,155567,1,8,0:0:0:0:
368,96,155644,1,0,0:0:0:0:
368,80,155695,1,0,0:0:0:0:
368,64,155746,1,0,0:0:0:0:
368,64,155798,1,0,0:0:0:0:
352,64,155875,1,0,0:0:0:0:
336,64,155952,1,8,0:0:0:0:
320,64,156029,1,0,0:0:0:0:
304,64,156105,1,8,0:0:0:0:
320,64,156157,1,0,0:0:0:0:
336,64,156208,1,0,0:0:0:0:
352,64,156259,1,8,0:0:0:0:
352,48,156336,1,0,0:0:0:0:
352,32,156413,1,0,0:0:0:0:
352,32,156490,1,8,0:0:0:0:
336,32,156567,1,0,0:0:0:0:
368,64,156618,1,0,0:0:0:0:
368,64,156670,1,0,0:0:0:0:
368,64,156721,1,8,0:0:0:0:
352,64,156798,1,8,0:0:0:0:
336,80,156874,1,0,0:0:0:0:
320,80,156951,1,8,0:0:0:0:
320,80,157028,1,0,0:0:0:0:
320,80,157080,1,0,0:0:0:0:
320,80,157131,1,8,0:0:0:0:
304,80,157182,1,0,0:0:0:0:
304,80,157233,1,0,0:0:0:0:
304,80,157285,1,0,0:0:0:0:
304,80,157336,1,8,0:0:0:0:
336,80,157413,1,0,0:0:0:0:
336,80,157490,1,8,0:0:0:0:
352,80,157541,1,8,0:0:0:0:
368,80,157592,1,8,0:0:0:0:
368,80,157644,1,0,0:0:0:0:
352,64,157721,1,0,0:0:0:0:
336,80,157798,1,8,0:0:0:0:
320,96,157849,1,8,0:0:0:0:
304,96,157900,1,8,0:0:0:0:
304,112,157951,1,0,0:0:0:0:
320,96,158028,1,0,0:0:0:0:
304,112,158105,1,0,0:0:0:0:
304,112,158182,1,8,0:0:0:0:
304,112,158259,1,0,0:0:0:0:
304,112,158336,1,0,0:0:0:0:
320,112,158413,1,8,0:0:0:0:
336,80,158464,1,8,0:0:0:0:
336,80,158515,1,8,0:0:0:0:
352,80,158567,1,8,0:0:0:0:
336,80,158618,1,8,0:0:0:0:
336,80,158669,1,8,0:0:0:0:
336,80,158721,1,0,0:0:0:0:
320,80,158798,1,8,0:0:0:0:
320,80,158874,1,8,0:0:0:0:
336,80,158926,1,0,0:0:0:0:
352,80,158977,1,0,0:0:0:0:
368,80,159028,1,8,0:0:0:0:
352,80,159105,1,8,0:0:0:0:
352,96,159182,1,8,0:0:0:0:
352,96,159233,1,8,0:0:0:0:
352,96,159285,1,8,0:0:0:0:
352,96,159336,1,0,0:0:0:0:
336,96,159413,1,0,0:0:0:0:
320,112,159490,1,0,0:0:0:0:
304,128,159567,1,0,0:0:0:0:
288,128,159644,1,8,0:0:0:0:
272,144,159721,1,0,0:0:0:0:
288,128,159798,1,8,0:0:0:0:
288,128,159874,1,8,0:0:0:0:
272,144,159951,1,0,0:0:0:0:
256,144,160003,1,0,0:0:0:0:
240,144,160054,1,0,0:0:0:0:
288,128,160105,1,0,0:0:0:0:
288,128,160182,1,0,0:0:0:0:
288,128,160259,1,8,0:0:0:0:
288,128,160336,1,8,0:0:0:0:
288,128,160413,1,8,0:0:0:0:
288,128,160490,1,8,0:0:0:0:
288,144,160567,1,0,0:0:0:0:
288,144,160644,1,8,0:0:0:0:
304,128,160721,1,8,0:0:0:0:
288,128,160772,1,0,0:0:0:0:
272,128,160823,1,0,0:0:0:0:
256,128,160874,1,8,0:0:0:0:
288,128,160951,1,8,0:0:0:0:
288,144,161028,1,0,0:0:0:0:
304,144,161105,1,8,0:0:0:0:
320,128,161182,1,0,0:0:0:0:
320,128,161233,1,0,0:0:0:0:
320,128,161285,1,0,0:0:0:0:
320,128,161336,1,0,0:0:0:0:
304,128,161413,1,0,0:0:0:0:
304,128,161490,1,8,0:0:0:0:
304,128,161567,1,8,0:0:0:0:
304,112,161644,1,0,0:0:0:0:
304,112,161721,1,0,0:0:0:0:
288,96,161798,1,8,0:0:0:0:
288,96,161849,1,0,0:0:0:0:
288,96,161900,1,0,0:0:0:0:
288,96,161951,1,8,0:0:0:0:
288,96,162003,1,0,0:0:0:0:
288,96,162054,1,0,0:0:0:0:
288,96,162105,1,8,0:0:0:0:
288,96,162156,1,0,0:0:0:0:
288,96,162208,1,0,0:0:0:0:
288,96,162259,1,8,0:0:0:0:
288,96,162310,1,0,0:0:0:0:
288,96,162362,1,0,0:0:0:0:
288,96,162413,1,8,0:0:0:0:
288,96,162464,1,0,0:0:0:0:
288,96,162515,1,0,0:0:0:0:
288,96,162567,1,8,0:0:0:0:
288,96,162618,1,0,0:0:0:0:
288,96,162669,1,0,0:0:0:0:
288,96,162721,1,8,0:0:0:0:
304,96,162798,1,0,0:0:0:0:
320,96,162874,1,8,0:0:0:0:
320,96,162951,1,8,0:0:0:0:
288,96,163028,1,0,0:0:0:0:
272,96,163080,1,8,0:0:0:0:
256,96,163131,1,8,0:0:0:0:
256,96,163182,1,0,0:0:0:0:
256,96,163233,1,8,0:0:0:0:
256,96,163285,1,8,0:0:0:0:
256,96,163336,1,0,0:0:0:0:
256,96,163387,1,8,0:0:0:0:
256,96,163439,1,8,0:0:0:0:
256,96,163490,1,0,0:0:0:0:
256,96,163541,1,8,0:0:0:0:
256,96,163592,1,8,0:0:0:0:
256,96,163644,1,0,0:0:0:0:
256,96,163695,1,8,0:0:0:0:
256,96,163746,1,8,0:0:0:0:
256,96,163798,1,0,0:0:0:0:
256,96,163849,1,8,0:0:0:0:
256,96,163900,1,8,0:0:0:0:
256,96,163951,1,0,0:0:0:0:
256,96,164003,1,8,0:0:0:0:
256,96,164054,1,8,0:0:0:0:
256,96,164105,1,0,0:0:0:0:
256,96,164156,1,8,0:0:0:0:
256,96,164208,1,8,0:0:0:0:
272,96,164259,1,0,0:0:0:0:
288,96,164336,1,0,0:0:0:0:
304,96,164413,1,0,0:0:0:0:
320,96,164490,1,0,0:0:0:0:
336,80,164567,1,8,0:0:0:0:
288,64,164721,1,8,0:0:0:0:
272,64,164798,1,8,0:0:0:0:
256,64,164874,1,0,0:0:0:0:
240,64,164951,1,0,0:0:0:0:
240,80,165028,1,0,0:0:0:0:
240,128,165105,1,0,0:0:0:0:
240,128,165182,1,8,0:0:0:0:
240,128,165336,1,8,0:0:0:0:
240,128,165413,1,8,0:0:0:0:
240,128,165490,1,0,0:0:0:0:
240,128,165567,1,0,0:0:0:0:
240,128,165644,1,0,0:0:0:0:
240,128,165721,1,8,0:0:0:0:
240,128,165798,1,8,0:0:0:0:
272,160,165951,1,8,0:0:0:0:
288,176,166028,1,8,0:0:0:0:
304,192,166105,1,0,0:0:0:0:
320,208,166182,1,0,0:0:0:0:
336,224,166259,1,0,0:0:0:0:
352,240,166336,1,0,0:0:0:0:
352,256,166413,1,8,0:0:0:0:
368,272,166490,1,0,0:0:0:0:
368,288,166567,1,8,0:0:0:0:
368,288,166644,1,8,0:0:0:0:
368,272,166721,1,0,0:0:0:0:
368,256,166798,1,8,0:0:0:0:
352,240,166874,1,8,0:0:0:0:
336,224,166951,1,0,0:0:0:0:
336,208,167028,1,8,0:0:0:0:
336,192,167105,1,8,0:0:0:0:
320,176,167182,1,0,0:0:0:0:
320,160,167259,1,8,0:0:0:0:
320,160,167336,1,0,0:0:0:0:
320,160,167413,1,8,0:0:0:0:
320,160,167490,1,8,0:0:0:0:
320,160,167567,1,0,0:0:0:0:
320,160,167644,1,8,0:0:0:0:
320,160,167721,1,8,0:0:0:0:
320,160,167798,1,0,0:0:0:0:
320,160,167874,1,8,0:0:0:0:
336,144,167951,1,0,0:0:0:0:
352,144,168003,1,0,0:0:0:0:
368,128,168054,1,0,0:0:0:0:
384,128,168105,1,0,0:0:0:0:
368,128,168182,1,0,0:0:0:0:
352,128,168259,1,8,0:0:0:0:
368,112,168336,1,0,0:0:0:0:
368,112,168413,1,0,0:0:0:0:
368,112,168490,1,0,0:0:0:0:
352,112,168567,1,8,0:0:0:0:
352,112,168618,1,8,0:0:0:0:
352,112,168669,1,8,0:0:0:0:
352,112,168721,1,0,0:0:0:0:
336,112,168798,1,0,0:0:0:0:
320,128,168874,1,8,0:0:0:0:
304,128,168926,1,8,0:0:0:0:
288,128,168977,1,8,0:0:0:0:
272,112,169028,1,8,0:0:0:0:
256,128,169105,1,8,0:0:0:0:
288,80,169182,1,0,0:0:0:0:
272,80,169259,1,8,0:0:0:0:
256,64,169336,1,0,0:0:0:0:
272,64,169387,1,0,0:0:0:0:
288,64,169438,1,0,0:0:0:0:
304,64,169490,1,8,0:0:0:0:
336,80,169566,1,8,0:0:0:0:
336,80,169643,1,0,0:0:0:0:
352,96,169695,1,0,0:0:0:0:
352,96,169746,1,8,0:0:0:0:
352,96,169797,1,0,0:0:0:0:
304,96,169874,1,0,0:0:0:0:
304,96,169951,1,0,0:0:0:0:
288,96,170002,1,0,0:0:0:0:
272,96,170054,1,0,0:0:0:0:
272,96,170105,1,8,0:0:0:0:
288,96,170182,1,0,0:0:0:0:
304,80,170259,1,8,0:0:0:0:
320,80,170310,1,8,0:0:0:0:
336,80,170361,1,8,0:0:0:0:
352,64,170413,1,0,0:0:0:0:
336,80,170490,1,8,0:0:0:0:
336,80,170566,1,0,0:0:0:0:
336,80,170643,1,0,0:0:0:0:
336,80,170720,1,8,0:0:0:0:
352,80,170772,1,0,0:0:0:0:
368,80,170823,1,0,0:0:0:0:
384,80,170874,1,8,0:0:0:0:
384,80,170925,1,0,0:0:0:0:
384,80,170977,1,0,0:0:0:0:
272,96,171028,1,8,0:0:0:0:
272,96,171105,1,0,0:0:0:0:
272,96,171182,1,0,0:0:0:0:
272,96,171259,1,0,0:0:0:0:
288,96,171336,1,8,0:0:0:0:
304,96,171387,1,8,0:0:0:0:
320,96,171438,1,8,0:0:0:0:
336,96,171490,1,0,0:0:0:0:
336,112,171566,1,0,0:0:0:0:
368,80,171643,1,8,0:0:0:0:
368,80,171695,1,0,0:0:0:0:
368,80,171746,1,0,0:0:0:0:
368,80,171797,1,8,0:0:0:0:
368,80,171848,1,0,0:0:0:0:
368,80,171900,1,0,0:0:0:0:
368,80,171951,1,8,0:0:0:0:
368,80,172002,1,0,0:0:0:0:
368,80,172054,1,0,0:0:0:0:
368,80,172105,1,8,0:0:0:0:
368,80,172156,1,0,0:0:0:0:
368,80,172207,1,0,0:0:0:0:
320,96,172259,1,8,0:0:0:0:
368,80,172336,1,0,0:0:0:0:
368,80,172413,1,0,0:0:0:0:
368,80,172490,1,8,0:0:0:0:
368,80,172566,1,0,0:0:0:0:
368,80,172643,1,0,0:0:0:0:
352,96,172720,1,0,0:0:0:0:
336,80,172797,1,8,0:0:0:0:
320,96,172874,1,0,0:0:0:0:
320,96,172925,1,8,0:0:0:0:
320,96,172977,1,8,0:0:0:0:
320,96,173028,1,0,0:0:0:0:
320,96,173079,1,8,0:0:0:0:
320,96,173131,1,8,0:0:0:0:
320,96,173182,1,0,0:0:0:0:
320,96,173233,1,0,0:0:0:0:
320,96,173284,1,8,0:0:0:0:
320,96,173336,1,0,0:0:0:0:
320,96,173387,1,0,0:0:0:0:
320,96,173438,1,8,0:0:0:0:
320,96,173490,1,0,0:0:0:0:
352,96,173566,1,0,0:0:0:0:
352,96,173643,1,0,0:0:0:0:
336,96,173695,1,0,0:0:0:0:
320,96,173746,1,0,0:0:0:0:
304,96,173797,1,8,0:0:0:0:
320,96,173874,1,8,0:0:0:0:
352,80,173951,1,8,0:0:0:0:
352,80,174028,1,8,0:0:0:0:
368,96,174105,1,0,0:0:0:0:
368,80,174156,1,0,0:0:0:0:
368,64,174207,1,0,0:0:0:0:
368,64,174259,1,0,0:0:0:0:
352,64,174336,1,0,0:0:0:0:
336,64,174413,1,8,0:0:0:0:
320,64,174490,1,0,0:0:0:0:
304,64,174566,1,8,0:0:0:0:
320,64,174618,1,0,0:0:0:0:
336,64,174669,1,0,0:0:0:0:
352,64,174720,1,8,0:0:0:0:
352,48,174797,1,0,0:0:0:0:
352,32,174874,1,0,0:0:0:0:
352,32,174951,1,8,0:0:0:0:
336,32,175028,1,0,0:0:0:0:
368,64,175079,1,0,0:0:0:0:
368,64,175131,1,0,0:0:0:0:
368,64,175182,1,8,0:0:0:0:
352,64,175259,1,8,0:0:0:0:
368,96,175336,1,0,0:0:0:0:
368,80,175387,1,0,0:0:0:0:
368,64,175438,1,0,0:0:0:0:
368,64,175490,1,0,0:0:0:0:
352,64,175567,1,0,0:0:0:0:
336,64,175644,1,8,0:0:0:0:
320,64,175721,1,0,0:0:0:0:
304,64,175797,1,8,0:0:0:0:
320,64,175849,1,0,0:0:0:0:
336,64,175900,1,0,0:0:0:0:
352,64,175951,1,8,0:0:0:0:
352,48,176028,1,0,0:0:0:0:
352,32,176105,1,0,0:0:0:0:
352,32,176182,1,8,0:0:0:0:
336,32,176259,1,0,0:0:0:0:
368,64,176310,1,0,0:0:0:0:
368,64,176362,1,0,0:0:0:0:
368,64,176413,1,8,0:0:0:0:
352,64,176490,1,8,0:0:0:0:
336,80,176566,1,0,0:0:0:0:
320,80,176643,1,8,0:0:0:0:
320,80,176720,1,0,0:0:0:0:
320,80,176772,1,0,0:0:0:0:
320,80,176823,1,8,0:0:0:0:
304,80,176874,1,0,0:0:0:0:
304,80,176925,1,0,0:0:0:0:
304,80,176977,1,0,0:0:0:0:
304,80,177028,1,8,0:0:0:0:
336,80,177105,1,0,0:0:0:0:
336,80,177182,1,8,0:0:0:0:
352,80,177233,1,8,0:0:0:0:
368,80,177284,1,8,0:0:0:0:
368,80,177336,1,0,0:0:0:0:
352,64,177413,1,0,0:0:0:0:
336,80,177490,1,8,0:0:0:0:
320,96,177541,1,8,0:0:0:0:
304,96,177592,1,8,0:0:0:0:
304,112,177643,1,0,0:0:0:0:
320,96,177720,1,0,0:0:0:0:
304,112,177797,1,0,0:0:0:0:
304,112,177874,1,8,0:0:0:0:
304,112,177951,1,0,0:0:0:0:
304,112,178028,1,0,0:0:0:0:
320,112,178105,1,8,0:0:0:0:
336,80,178156,1,8,0:0:0:0:
336,80,178207,1,8,0:0:0:0:
352,80,178259,1,8,0:0:0:0:
336,80,178310,1,8,0:0:0:0:
336,80,178361,1,8,0:0:0:0:
336,80,178413,1,0,0:0:0:0:
320,80,178490,1,8,0:0:0:0:
320,80,178566,1,8,0:0:0:0:
336,80,178618,1,0,0:0:0:0:
352,80,178669,1,0,0:0:0:0:
368,80,178720,1,8,0:0:0:0:
352,80,178797,1,8,0:0:0:0:
352,96,178874,1,8,0:0:0:0:
352,96,178925,1,8,0:0:0:0:
352,96,178977,1,8,0:0:0:0:
352,96,179028,1,0,0:0:0:0:
336,96,179105,1,0,0:0:0:0:
320,112,179182,1,0,0:0:0:0:
304,128,179259,1,0,0:0:0:0:
288,128,179336,1,8,0:0:0:0:
272,144,179413,1,0,0:0:0:0:
288,128,179490,1,8,0:0:0:0:
288,128,179566,1,8,0:0:0:0:
272,144,179643,1,0,0:0:0:0:
256,144,179695,1,0,0:0:0:0:
240,144,179746,1,0,0:0:0:0:
288,128,179797,1,0,0:0:0:0:
288,128,179874,1,0,0:0:0:0:
288,128,179951,1,8,0:0:0:0:
288,128,180028,1,8,0:0:0:0:
288,128,180105,1,8,0:0:0:0:
288,128,180182,1,8,0:0:0:0:
288,144,180259,1,0,0:0:0:0:
288,144,180336,1,8,0:0:0:0:
304,128,180413,1,8,0:0:0:0:
288,128,180464,1,0,0:0:0:0:
272,128,180515,1,0,0:0:0:0:
256,128,180566,1,8,0:0:0:0:
288,128,180643,1,8,0:0:0:0:
288,144,180720,1,0,0:0:0:0:
304,144,180797,1,8,0:0:0:0:
320,128,180874,1,0,0:0:0:0:
320,128,180925,1,0,0:0:0:0:
320,128,180977,1,0,0:0:0:0:
320,128,181028,1,0,0:0:0:0:
304,128,181105,1,0,0:0:0:0:
304,128,181182,1,8,0:0:0:0:
304,128,181259,1,8,0:0:0:0:
304,112,181336,1,0,0:0:0:0:
304,112,181413,1,0,0:0:0:0:
288,96,181490,1,8,0:0:0:0:
288,96,181541,1,0,0:0:0:0:
288,96,181592,1,0,0:0:0:0:
288,96,181643,1,8,0:0:0:0:
288,96,181695,1,0,0:0:0:0:
288,96,181746,1,0,0:0:0:0:
288,96,181797,1,8,0:0:0:0:
288,96,181848,1,0,0:0:0:0:
288,96,181900,1,0,0:0:0:0:
288,96,181951,1,8,0:0:0:0:
288,96,182002,1,0,0:0:0:0:
288,96,182054,1,0,0:0:0:0:
288,96,182105,1,8,0:0:0:0:
288,96,182156,1,0,0:0:0:0:
288,96,182207,1,0,0:0:0:0:
288,96,182259,1,8,0:0:0:0:
288,96,182310,1,0,0:0:0:0:
288,96,182361,1,0,0:0:0:0:
288,96,182413,1,8,0:0:0:0:
304,96,182490,1,0,0:0:0:0:
320,96,182566,1,8,0:0:0:0:
320,96,182643,1,8,0:0:0:0:
288,96,182720,1,0,0:0:0:0:
272,96,182772,1,8,0:0:0:0:
256,96,182823,1,8,0:0:0:0:
256,96,182874,1,0,0:0:0:0:
256,96,182925,1,8,0:0:0:0:
256,96,182977,1,8,0:0:0:0:
256,96,183028,1,0,0:0:0:0:
256,96,183079,1,8,0:0:0:0:
256,96,183131,1,8,0:0:0:0:
256,96,183182,1,0,0:0:0:0:
256,96,183233,1,8,0:0:0:0:
256,96,183284,1,8,0:0:0:0:
256,96,183336,1,0,0:0:0:0:
256,96,183387,1,8,0:0:0:0:
256,96,183438,1,8,0:0:0:0:
256,96,183490,1,0,0:0:0:0:
256,96,183541,1,8,0:0:0:0:
256,96,183592,1,8,0:0:0:0:
256,96,183643,1,0,0:0:0:0:
256,96,183695,1,8,0:0:0:0:
256,96,183746,1,8,0:0:0:0:
256,96,183797,1,0,0:0:0:0:
256,96,183848,1,8,0:0:0:0:
256,96,183900,1,8,0:0:0:0:
272,96,183951,1,0,0:0:0:0:
288,96,184028,1,0,0:0:0:0:
304,96,184105,1,0,0:0:0:0:
320,96,184182,1,0,0:0:0:0:
336,80,184259,1,8,0:0:0:0:
288,64,184413,1,8,0:0:0:0:
272,64,184490,1,8,0:0:0:0:
256,64,184566,1,0,0:0:0:0:
240,64,184643,1,0,0:0:0:0:
240,80,184720,1,0,0:0:0:0:
256,80,184772,1,0,0:0:0:0:
272,80,184823,1,0,0:0:0:0:
240,128,184874,1,8,0:0:0:0:
240,128,185028,1,8,0:0:0:0:
240,128,185105,1,8,0:0:0:0:
240,128,185182,1,0,0:0:0:0:
240,128,185259,1,0,0:0:0:0:
240,128,185336,1,0,0:0:0:0:
240,128,185413,1,8,0:0:0:0:
240,128,185490,1,8,0:0:0:0:
272,160,185643,1,8,0:0:0:0:
288,176,185720,1,8,0:0:0:0:
304,192,185797,1,0,0:0:0:0:
320,208,185874,1,0,0:0:0:0:
336,224,185951,1,0,0:0:0:0:
320,208,186003,1,0,0:0:0:0:
320,192,186054,1,0,0:0:0:0:
352,256,186105,1,8,0:0:0:0:
368,272,186182,1,0,0:0:0:0:
368,288,186259,1,8,0:0:0:0:
368,288,186336,1,8,0:0:0:0:
368,272,186413,1,0,0:0:0:0:
368,256,186490,1,8,0:0:0:0:
352,240,186566,1,8,0:0:0:0:
336,224,186643,1,0,0:0:0:0:
336,208,186720,1,8,0:0:0:0:
336,192,186797,1,8,0:0:0:0:
320,176,186874,1,0,0:0:0:0:
320,160,186951,1,8,0:0:0:0:
320,160,187028,1,0,0:0:0:0:
320,160,187105,1,8,0:0:0:0:
320,160,187182,1,8,0:0:0:0:
320,160,187259,1,0,0:0:0:0:
320,160,187336,1,8,0:0:0:0:
320,160,187413,1,8,0:0:0:0:
320,160,187490,1,0,0:0:0:0:
320,160,187566,1,8,0:0:0:0:
304,160,187644,1,0,0:0:0:0:
288,160,187695,1,0,0:0:0:0:
272,160,187746,1,0,0:0:0:0:
256,144,187798,1,0,0:0:0:0:
240,144,187849,1,0,0:0:0:0:
224,128,187900,1,0,0:0:0:0:
208,128,187951,1,0,0:0:0:0:
192,112,188003,1,0,0:0:0:0:
192,112,188054,1,0,0:0:0:0:
192,112,188105,1,0,0:0:0:0:
192,112,188156,1,0,0:0:0:0:
192,112,188208,1,0,0:0:0:0:
204,105,188259,1,12,0:0:0:0:
239,81,188413,1,12,0:0:0:0:
