osu file format v14

[General]
AudioFilename: audio.mp3
AudioLeadIn: 0
PreviewTime: 63969
Countdown: 0
SampleSet: Soft
StackLeniency: 0.7
Mode: 0
LetterboxInBreaks: 0
WidescreenStoryboard: 0

[Editor]
DistanceSpacing: 0.8
BeatDivisor: 4
GridSize: 4
TimelineZoom: 1.4

[Metadata]
Title:TWO BY TWO (TV Size)
TitleUnicode:TWO BY TWO (TV Size)
Artist:Kouda Yumeha
ArtistUnicode:幸田夢波
Creator:kunka
Version:Normal
Source:Fate/kaleid liner プリズマ☆イリヤ ツヴァイ!
Tags:ed ending japanese anime j-pop jpop Prisma☆Illya 2wei! Zwei! デ プレッツェ kunkakunkakunkakunka
BeatmapID:3776293
BeatmapSetID:1838789

[Difficulty]
HPDrainRate:4
CircleSize:3.5
OverallDifficulty:5
ApproachRate:5.5
SliderMultiplier:1.2
SliderTickRate:1

[Events]
//Background and Video events
0,0,"BG.jpg",0,0
//Break Periods
//Storyboard Layer 0 (Background)
//Storyboard Layer 1 (Fail)
//Storyboard Layer 2 (Pass)
//Storyboard Layer 3 (Foreground)
//Storyboard Layer 4 (Overlay)
//Storyboard Sound Samples

[TimingPoints]
440,352.941176470588,4,2,1,40,1,0
440,-125,4,2,1,40,0,0
6087,-111.111111111111,4,2,1,50,0,0
7498,-111.111111111111,4,2,1,60,0,0
8910,-90.9090909090909,4,2,1,75,0,0
11734,-100,4,2,1,60,0,0
21439,-125,4,2,1,55,0,0
23028,-125,4,2,1,45,0,0
24439,-100,4,2,1,50,0,0
34145,-90.9090909090909,4,2,1,70,0,0
35734,-100,4,2,1,50,0,0
47028,-111.111111111111,4,2,1,45,0,0
55498,-100,4,2,1,50,0,0
58322,-95.2380952380952,4,2,1,65,0,0
62557,-95.2380952380952,4,2,1,55,0,0
62910,-95.2380952380952,4,2,1,60,0,0
63263,-95.2380952380952,4,2,1,65,0,0
63616,-95.2380952380952,4,2,1,70,0,0
63969,-90.9090909090909,4,2,1,60,0,1
78792,-90.9090909090909,4,2,1,80,0,1
79498,-90.9090909090909,4,2,1,60,0,1
85498,-111.111111111111,4,2,1,50,0,1
86557,-90.9090909090909,4,2,1,75,0,1
88498,-90.9090909090909,4,2,1,75,0,0

[Colours]
Combo1 : 222,14,217
Combo2 : 218,143,188
Combo3 : 217,233,14
Combo4 : 233,58,89
Combo5 : 234,141,38

[HitObjects]
114,56,3263,6,0,P|42:23|53:101,1,192,4|10,3:2|0:0,0:0:0:0:
126,142,4322,1,2,0:0:0:0:
77,211,4675,2,0,P|52:271|76:342,1,144,4|2,3:2|0:0,0:0:0:0:
106,367,5381,2,0,P|152:355|206:350,1,96,10|2,0:0|0:0,0:0:0:0:
291,336,6087,6,0,P|338:357|394:340,2,107.999996704102,4|2|2,3:2|3:2|3:2,0:0:0:0:
274,295,6969,2,0,P|264:239|244:191,1,107.999996704102,2|2,3:2|3:2,0:0:0:0:
223,154,7498,2,0,P|311:50|430:80,1,269.999991760254,4|8,3:2|0:0,0:0:0:0:
457,109,8557,1,10,0:0:0:0:
442,213,8910,6,0,P|406:218|376:228,1,66.0000020141602,12|12,3:2|3:2,0:0:0:0:
327,244,9263,1,12,3:2:0:0:
285,341,9616,6,0,P|249:335|219:326,1,66.0000020141602,12|12,3:2|3:2,0:0:0:0:
170,310,9969,1,12,3:2:0:0:
133,211,10322,6,0,P|97:216|67:226,1,66.0000020141602,12|12,3:2|3:2,0:0:0:0:
19,206,10675,2,0,P|9:174|4:141,1,66.0000020141602,12|12,3:2|3:2,0:0:0:0:
57,50,11204,1,8,3:2:0:0:
57,50,11381,1,12,3:2:0:0:
136,103,11734,6,0,P|192:121|252:102,1,120,4|10,3:2|0:0,0:0:0:0:
331,55,12439,2,0,P|334:25|347:-1,2,60,2|0|10,3:2|3:0|0:0,0:0:0:0:
362,92,12969,2,0,P|380:143|387:221,1,120,2|2,3:2|3:2,0:0:0:0:
387,256,13498,1,10,0:0:0:0:
315,319,13851,2,0,P|330:353|331:379,2,60,2|0|10,3:2|3:0|0:0,0:0:0:0:
231,271,14557,6,0,P|237:211|256:154,1,120,2|10,3:2|0:0,0:0:0:0:
301,70,15263,2,0,P|330:74|359:68,2,60,2|0|10,3:2|3:0|0:0,0:0:0:0:
267,35,15792,2,0,P|209:28|151:51,1,120,4|2,3:2|3:2,0:0:0:0:
112,77,16322,1,10,0:0:0:0:
28,124,16675,2,0,P|38:155|41:188,1,60,4|2,3:2|3:2,0:0:0:0:
31,229,17028,2,0,P|20:260|18:293,1,60,10|2,0:0|0:0,0:0:0:0:
39,329,17381,6,0,B|99:344|99:344|157:309,1,120,4|10,3:2|0:0,0:0:0:0:
212,242,18087,2,0,L|206:181,2,60,2|0|10,3:2|3:0|0:0,0:0:0:0:
244,277,18616,2,0,P|301:265|360:289,1,120,2|2,3:2|3:2,0:0:0:0:
391,320,19145,1,10,0:0:0:0:
444,240,19498,2,0,L|514:252,2,60,2|0|10,3:2|3:0|0:0,0:0:0:0:
393,157,20204,6,0,P|332:147|277:178,1,120,2|8,3:2|0:0,0:0:0:0:
222,248,20910,2,0,L|162:237,1,60,2|0,3:2|3:0,0:0:0:0:
115,228,21263,1,8,0:0:0:0:
115,228,21439,1,4,3:2:0:0:
256,192,21616,12,2,23028,3:2:0:0:
267,81,24439,6,0,P|318:51|378:60,1,120,4|10,0:0|0:0,0:0:0:0:
425,143,25145,2,0,L|409:207,1,60,2|0,0:0|0:0,0:0:0:0:
365,218,25498,2,0,L|381:282,1,60,10|2,0:0|0:0,0:0:0:0:
360,320,25851,2,0,P|309:350|249:341,1,120,2|8,0:0|0:0,0:0:0:0:
165,296,26557,1,2,0:0:0:0:
74,326,26910,1,10,0:0:0:0:
21,245,27263,6,0,P|11:191|40:131,1,120,2|10,0:0|0:0,0:0:0:0:
126,96,27969,2,0,P|183:108|248:109,1,120,2|10,0:0|0:0,0:0:0:0:
284,136,28498,1,2,0:0:0:0:
284,136,28675,2,0,P|282:195|270:254,1,120,2|8,0:0|0:0,0:0:0:0:
262,351,29381,2,0,P|293:353|325:371,1,60,2|2,0:0|0:0,0:0:0:0:
366,359,29734,2,0,P|386:337|414:325,1,60,10|0,0:0|0:0,0:0:0:0:
460,313,30087,5,2,0:0:0:0:
417,227,30439,1,10,0:0:0:0:
451,137,30792,2,0,P|481:148|511:148,2,60,0|2|8,0:0|0:0|0:0,0:0:0:0:
409,112,31322,2,0,P|345:99|293:123,1,120,2|2,0:0|0:0,0:0:0:0:
260,152,31851,1,10,0:0:0:0:
171,114,32204,2,0,P|164:84|151:57,1,60,2|2,0:0|0:0,0:0:0:0:
106,41,32557,2,0,P|76:47|49:60,1,60,10|2,0:0|0:0,0:0:0:0:
18,97,32910,6,0,B|13:130|37:149|37:149|32:183|59:209,1,120,2|10,0:0|0:0,0:0:0:0:
95,231,33439,1,8,0:0:0:0:
95,231,33616,2,0,P|88:263|87:296,2,60,8|0|8,0:0|0:0|0:0,0:0:0:0:
136,198,34145,5,4,0:0:0:0:
239,219,34498,1,4,0:0:0:0:
328,162,34851,2,0,P|397:147|447:182,1,132.00000402832,4|10,0:0|0:0,0:0:0:0:
455,231,35381,2,0,P|445:263|440:299,1,66.0000020141602,10|10,0:0|0:0,0:0:0:0:
407,329,35734,6,0,B|376:319|349:335|349:335|328:311|296:309,1,120,4|10,3:2|0:0,0:0:0:0:
209,269,36439,2,0,L|215:205,1,60,2|0,3:2|3:0,0:0:0:0:
251,178,36792,2,0,L|245:114,1,60,10|2,0:0|0:0,0:0:0:0:
218,78,37145,2,0,P|161:58|105:77,1,120,2|8,3:2|0:0,0:0:0:0:
57,158,37851,2,0,L|51:217,1,60,2|2,3:2|3:2,0:0:0:0:
95,238,38204,2,0,L|89:297,1,60,10|2,0:0|0:0,0:0:0:0:
117,336,38557,6,0,B|142:353|142:353|191:330|237:336,1,120,2|10,3:2|0:0,0:0:0:0:
294,264,39263,2,0,P|351:258|407:283,1,120,2|10,3:2|0:0,0:0:0:0:
448,306,39792,1,2,0:0:0:0:
448,306,39969,2,0,P|452:246|467:182,1,120,2|8,3:2|0:0,0:0:0:0:
457,91,40675,2,0,P|423:99|390:99,1,60,2|2,3:2|3:2,0:0:0:0:
356,75,41028,2,0,P|322:66|289:67,1,60,10|2,0:0|0:0,0:0:0:0:
262,98,41381,6,0,P|204:110|151:83,1,120,2|8,3:2|0:0,0:0:0:0:
64,43,42087,1,2,3:2:0:0:
14,125,42439,2,0,P|23:160|21:190,1,60,10|2,0:0|0:0,0:0:0:0:
14,231,42792,2,0,P|73:217|135:210,2,120,2|10|2,3:2|0:0|3:2,0:0:0:0:
59,315,43851,1,10,0:0:0:0:
152,294,44204,6,0,P|211:290|268:324,1,120,2|10,3:2|0:0,0:0:0:0:
356,342,44910,2,0,P|415:346|466:317,1,120,2|10,3:2|0:0,0:0:0:0:
457,221,45616,1,4,3:2:0:0:
409,137,45969,1,10,0:0:0:0:
409,137,46145,2,0,P|346:143|287:156,1,120,4|2,3:2|3:2,0:0:0:0:
255,188,46675,2,0,P|225:181|195:178,1,60,10|2,0:0|0:0,0:0:0:0:
163,206,47028,6,0,P|95:235|18:197,1,161.999995056153,4|2,3:2|3:2,0:0:0:0:
11,157,47734,1,2,3:2:0:0:
32,73,48087,1,10,0:0:0:0:
32,73,48263,2,0,B|57:62|57:62|87:87|136:77,1,107.999996704102,2|2,3:2|3:2,0:0:0:0:
219,64,48969,1,2,3:2:0:0:
219,64,49145,1,2,3:2:0:0:
264,138,49498,1,10,0:0:0:0:
209,204,49851,6,0,P|290:191|350:242,1,161.999995056153,2|2,3:2|3:2,0:0:0:0:
373,273,50557,1,2,3:2:0:0:
440,219,50910,1,10,0:0:0:0:
440,219,51087,2,0,P|453:168|438:114,1,107.999996704102,2|2,3:2|3:2,0:0:0:0:
377,56,51792,1,2,3:2:0:0:
377,56,51969,2,0,L|368:0,2,53.9999983520508,2|2|10,3:2|3:2|3:2,0:0:0:0:
303,102,52675,6,0,P|227:120|155:73,1,161.999995056153,2|2,3:2|3:2,0:0:0:0:
132,44,53381,1,2,3:2:0:0:
51,74,53734,1,10,0:0:0:0:
51,74,53910,2,0,B|37:106|37:106|58:135|61:195,1,107.999996704102,2|2,3:2|3:2,0:0:0:0:
39,259,54616,1,2,3:2:0:0:
39,259,54792,2,0,P|70:260|100:269,1,53.9999983520508,10|0,0:0|3:0,0:0:0:0:
130,286,55145,1,10,0:0:0:0:
225,269,55498,5,4,3:2:0:0:
302,326,55851,2,0,P|321:266|302:211,1,120,10|2,0:0|3:2,0:0:0:0:
230,151,56557,2,0,L|243:84,1,60,10|2,0:0|0:0,0:0:0:0:
280,63,56910,2,0,B|314:67|339:49|339:49|354:76|390:82,1,120,0|10,3:0|0:0,0:0:0:0:
419,115,57439,1,2,0:0:0:0:
419,115,57616,2,0,L|477:101,2,60,2|0|10,3:2|3:0|0:0,0:0:0:0:
371,204,58322,5,12,3:2:0:0:
371,204,58498,1,10,3:2:0:0:
389,303,58851,2,0,B|392:335|392:335|375:364,1,62.9999980773926,12|10,3:2|3:2,0:0:0:0:
275,353,59381,5,12,3:2:0:0:
275,353,59557,1,10,3:2:0:0:
257,254,59910,2,0,B|254:222|254:222|271:193,1,62.9999980773926,12|10,3:2|3:2,0:0:0:0:
348,132,60439,2,0,P|377:141|408:146,2,62.9999980773926,10|10|10,3:2|3:2|3:2,0:0:0:0:
317,91,60969,6,0,P|264:58|203:68,1,125.999996154785,4|2,3:2|3:2,0:0:0:0:
178,111,61498,2,0,P|188:140|193:171,1,62.9999980773926,10|2,0:0|0:0,0:0:0:0:
158,208,61851,2,0,P|147:237|142:268,2,62.9999980773926,2|0|10,3:2|3:0|0:0,0:0:0:0:
237,270,62557,5,4,3:2:0:0:
336,254,62910,1,4,3:2:0:0:
391,169,63263,1,4,3:2:0:0:
367,70,63616,1,4,3:2:0:0:
277,23,63969,6,0,P|212:20|145:39,1,132.00000402832,4|10,3:2|0:0,0:0:0:0:
42,33,64675,2,0,P|56:61|62:100,1,66.0000020141602,2|0,3:2|3:0,0:0:0:0:
33,139,65028,2,0,P|19:167|13:206,1,66.0000020141602,10|2,0:0|0:0,0:0:0:0:
18,253,65381,1,2,3:2:0:0:
96,323,65734,1,8,0:0:0:0:
96,323,65910,2,0,P|159:305|225:308,1,132.00000402832,2|2,3:2|3:2,0:0:0:0:
275,291,66439,2,0,P|283:259|283:226,1,66.0000020141602,10|2,0:0|0:0,0:0:0:0:
264,177,66792,6,0,P|247:116|278:55,1,132.00000402832,2|10,3:2|0:0,0:0:0:0:
381,68,67498,2,0,P|395:96|401:135,1,66.0000020141602,2|0,3:2|3:0,0:0:0:0:
397,182,67851,2,0,P|391:214|377:243,1,66.0000020141602,10|2,0:0|0:0,0:0:0:0:
347,287,68204,1,2,3:2:0:0:
241,276,68557,1,8,0:0:0:0:
241,276,68734,2,0,B|213:261|182:289|182:289|142:278|120:303,1,132.00000402832,2|2,3:2|3:2,0:0:0:0:
87,345,69263,1,10,0:0:0:0:
17,265,69616,6,0,P|21:202|34:131,1,132.00000402832,4|8,3:2|0:0,0:0:0:0:
106,56,70322,2,0,P|142:55|177:64,1,66.0000020141602,2|2,3:2|3:2,0:0:0:0:
205,101,70675,2,0,P|241:102|276:93,1,66.0000020141602,10|2,0:0|0:0,0:0:0:0:
307,57,71028,2,0,P|371:43|427:79,1,132.00000402832,2|8,3:2|0:0,0:0:0:0:
503,147,71734,2,0,L|480:218,1,66.0000020141602,2|2,3:2|3:2,0:0:0:0:
430,215,72087,2,0,L|407:286,1,66.0000020141602,10|2,0:0|0:0,0:0:0:0:
365,306,72439,6,0,B|301:274|301:338|237:310,1,132.00000402832,4|8,3:2|0:0,0:0:0:0:
190,290,72969,1,10,0:0:0:0:
190,290,73145,2,0,P|154:290|123:299,2,66.0000020141602,10|0|8,3:2|3:0|0:0,0:0:0:0:
247,201,73851,2,0,P|309:181|368:212,1,132.00000402832,4|8,3:2|0:0,0:0:0:0:
405,245,74381,1,2,3:2:0:0:
405,245,74557,1,4,3:2:0:0:
484,175,74910,1,12,3:2:0:0:
435,81,75263,6,0,P|366:76|304:101,1,132.00000402832,4|10,3:2|0:0,0:0:0:0:
239,178,75969,2,0,L|218:78,2,99.0000030212403,2|2|2,3:2|0:0|0:0,0:0:0:0:
284,205,76675,2,0,P|345:191|402:236,1,132.00000402832,2|8,3:2|0:0,0:0:0:0:
409,280,77204,2,0,L|281:308,1,132.00000402832,2|2,3:2|3:2,0:0:0:0:
228,320,77734,1,10,0:0:0:0:
200,217,78087,6,0,B|143:253|132:189|74:231,1,132.00000402832,2|10,3:2|0:0,0:0:0:0:
33,263,78616,1,8,0:0:0:0:
33,263,78792,2,0,B|41:295|41:295|25:339|25:339|33:359,2,99.0000030212403,2|2|2,3:2|3:2|3:2,0:0:0:0:
0,222,79498,2,0,P|-12:153|21:100,1,132.00000402832,4|10,3:2|0:0,0:0:0:0:
66,88,80028,1,2,3:2:0:0:
66,88,80204,2,0,P|135:93|195:118,1,132.00000402832,2|10,0:0|0:0,0:0:0:0:
255,201,80910,6,0,P|247:233|247:269,2,66.0000020141602,4|2|10,3:2|0:0|0:0,0:0:0:0:
293,164,81439,1,2,3:2:0:0:
387,116,81792,2,0,P|386:83|379:50,1,66.0000020141602,2|10,3:2|0:0,0:0:0:0:
341,13,82145,2,0,P|272:18|212:43,1,132.00000402832,2|2,3:2|3:2,0:0:0:0:
108,50,82851,2,0,P|132:111|136:176,1,132.00000402832,2|2,3:2|3:2,0:0:0:0:
106,220,83381,2,0,P|98:251|97:284,1,66.0000020141602,10|2,0:0|0:0,0:0:0:0:
128,327,83734,5,4,3:2:0:0:
210,261,84087,2,0,P|274:250|331:282,1,132.00000402832,10|2,0:0|3:2,0:0:0:0:
376,306,84616,1,0,3:0:0:0:
376,306,84792,2,0,P|407:298|432:277,1,66.0000020141602,10|0,0:0|3:0,0:0:0:0:
473,243,85145,1,4,3:2:0:0:
471,134,85498,6,0,B|390:55|355:136|279:51,1,215.999993408203,4|2,3:2|0:0,0:0:0:0:
179,17,86557,6,0,P|166:53|162:85,1,66.0000020141602,12|12,3:2|3:2,0:0:0:0:
157,133,86910,1,12,3:2:0:0:
51,124,87263,6,0,P|64:160|68:192,1,66.0000020141602,12|12,3:2|3:2,0:0:0:0:
73,240,87616,1,12,3:2:0:0:
178,234,87969,6,0,P|165:270|161:302,1,66.0000020141602,12|12,3:2|3:2,0:0:0:0:
200,333,88322,2,0,P|232:338|263:349,1,66.0000020141602,12|12,3:2|3:2,0:0:0:0:
