osu file format v14

[General]
AudioFilename: audio.mp3
AudioLeadIn: 0
PreviewTime: 63969
Countdown: 0
SampleSet: Soft
StackLeniency: 0.7
Mode: 0
LetterboxInBreaks: 0
WidescreenStoryboard: 0

[Editor]
DistanceSpacing: 1.2
BeatDivisor: 4
GridSize: 4
TimelineZoom: 1.4

[Metadata]
Title:TWO BY TWO (TV Size)
TitleUnicode:TWO BY TWO (TV Size)
Artist:Kouda Yumeha
ArtistUnicode:幸田夢波
Creator:kunka
Version:Hard
Source:Fate/kaleid liner プリズマ☆イリヤ ツヴァイ!
Tags:ed ending japanese anime j-pop jpop Prisma☆Illya 2wei! Zwei! デ プレッツェ kunkakunkakunkakunka
BeatmapID:3776291
BeatmapSetID:1838789

[Difficulty]
HPDrainRate:5
CircleSize:4
OverallDifficulty:6
ApproachRate:8
SliderMultiplier:1.4
SliderTickRate:1

[Events]
//Background and Video events
0,0,"BG.jpg",0,0
//Break Periods
//Storyboard Layer 0 (Background)
//Storyboard Layer 1 (Fail)
//Storyboard Layer 2 (Pass)
//Storyboard Layer 3 (Foreground)
//Storyboard Layer 4 (Overlay)
//Storyboard Sound Samples

[TimingPoints]
440,352.941176470588,4,2,1,40,1,0
440,-142.857142857143,4,2,1,40,0,0
6087,-111.111111111111,4,2,1,50,0,0
7498,-100,4,2,1,60,0,0
8910,-90.9090909090909,4,2,1,75,0,0
11645,-90.9090909090909,4,2,1,5,0,0
11734,-100,4,2,1,60,0,0
21439,-125,4,2,1,55,0,0
23028,-111.111111111111,4,2,1,45,0,0
24439,-100,4,2,1,50,0,0
34145,-90.9090909090909,4,2,1,70,0,0
35734,-100,4,2,1,50,0,0
47028,-125,4,2,1,45,0,0
55498,-100,4,2,1,50,0,0
58322,-90.9090909090909,4,2,1,65,0,0
62557,-105.263157894737,4,2,1,55,0,0
62910,-100,4,2,1,60,0,0
63263,-95.2380952380952,4,2,1,65,0,0
63616,-90.9090909090909,4,2,1,70,0,0
63969,-86.9565217391304,4,2,1,60,0,1
78792,-80,4,2,1,80,0,1
78969,-80,4,2,1,5,0,1
79057,-80,4,2,1,80,0,1
79234,-80,4,2,1,5,0,1
79322,-80,4,2,1,80,0,1
79498,-86.9565217391304,4,2,1,60,0,1
85498,-125,4,2,1,50,0,1
86557,-90.9090909090909,4,2,1,75,0,1
88498,-90.9090909090909,4,2,1,75,0,0

[Colours]
Combo1 : 222,14,217
Combo2 : 218,143,188
Combo3 : 217,233,14
Combo4 : 233,58,89
Combo5 : 234,141,38

[HitObjects]
441,145,2910,5,0,3:0:0:0:
441,145,3263,6,0,P|402:64|312:87,1,195.999994018555,4|10,3:2|0:0,0:0:0:0:
313,85,4322,1,2,0:0:0:0:
227,132,4675,2,0,P|174:125|127:126,1,97.9999970092774,4|0,3:2|0:0,0:0:0:0:
85,146,5204,1,2,0:0:0:0:
85,146,5381,2,0,B|82:161|57:185|57:185|73:212|69:232,1,97.9999970092774,10|2,0:0|0:0,0:0:0:0:
186,279,6087,6,0,P|248:265|307:287,2,125.999996154785,4|2|2,3:2|3:2|3:2,0:0:0:0:
143,311,6969,2,0,P|154:339|159:375,2,62.9999980773926,2|0|2,3:2|3:0|3:2,0:0:0:0:
102,289,7498,2,0,P|74:115|209:95,1,350,4|8,3:2|0:0,0:0:0:0:
236,117,8557,1,10,0:0:0:0:
432,32,8910,5,12,3:2:0:0:
432,32,9087,1,12,3:2:0:0:
409,121,9263,1,12,3:2:0:0:
298,230,9616,5,12,3:2:0:0:
298,230,9793,1,12,3:2:0:0:
321,319,9969,1,12,3:2:0:0:
148,172,10322,5,12,3:2:0:0:
148,172,10499,1,12,3:2:0:0:
171,83,10675,1,12,3:2:0:0:
257,115,10851,1,12,3:2:0:0:
25,41,11204,1,8,3:2:0:0:
25,41,11381,2,0,P|4:96|26:149,1,115.50000352478,12|0,3:2|0:0,0:0:0:0:
57,171,11734,6,0,L|129:160,1,70,4|0,3:2|0:0,0:0:0:0:
161,237,12087,2,0,L|233:226,1,70,10|0,0:0|0:0,0:0:0:0:
292,282,12439,2,0,P|287:316|287:351,2,70,2|0|10,3:2|3:0|0:0,0:0:0:0:
366,241,12969,6,0,P|397:180|383:112,1,140,2|2,3:2|3:2,0:0:0:0:
316,62,13498,2,0,P|278:62|243:67,1,70,10|0,0:0|0:0,0:0:0:0:
175,112,13851,1,2,3:2:0:0:
175,112,14028,1,0,3:0:0:0:
102,70,14204,1,10,0:0:0:0:
68,234,14557,6,0,P|52:270|58:308,1,70,2|0,3:2|0:0,0:0:0:0:
137,315,14910,2,0,P|153:279|147:241,1,70,10|0,0:0|0:0,0:0:0:0:
122,169,15263,2,0,P|106:133|112:95,2,70,2|0|10,3:2|3:0|0:0,0:0:0:0:
204,185,15792,6,0,B|272:161|272:213|344:185,1,140,4|2,3:2|3:2,0:0:0:0:
422,166,16322,2,0,P|456:169|489:188,1,70,10|0,0:0|0:0,0:0:0:0:
500,269,16675,1,4,3:2:0:0:
500,269,16851,1,2,3:2:0:0:
458,342,17028,1,10,0:0:0:0:
458,342,17204,1,2,0:0:0:0:
359,288,17381,6,0,P|320:293|284:304,1,70,4|0,3:2|0:0,0:0:0:0:
210,328,17734,2,0,P|176:318|141:314,1,70,10|0,0:0|0:0,0:0:0:0:
57,307,18087,2,0,P|42:344|45:378,2,70,2|0|10,3:2|3:0|0:0,0:0:0:0:
106,238,18616,6,0,B|117:166|66:175|81:100,1,140,2|2,3:2|3:2,0:0:0:0:
126,33,19145,2,0,P|160:27|198:39,1,70,10|0,0:0|0:0,0:0:0:0:
268,75,19498,1,2,3:2:0:0:
268,75,19675,1,0,3:0:0:0:
347,49,19851,1,10,0:0:0:0:
423,198,20204,6,0,P|407:229|398:267,1,70,2|0,3:2|0:0,0:0:0:0:
322,299,20557,2,0,P|313:265|297:234,1,70,8|2,0:0|0:0,0:0:0:0:
237,174,20910,1,2,3:2:0:0:
237,174,21087,1,0,3:0:0:0:
156,196,21263,1,8,0:0:0:0:
216,256,21439,5,4,3:2:0:0:
256,192,21528,12,2,23028,3:2:0:0:
336,83,24439,6,0,P|371:83|406:97,1,70,4|0,0:0|0:0,0:0:0:0:
388,178,24792,2,0,P|353:178|318:164,1,70,10|0,0:0|0:0,0:0:0:0:
256,110,25145,2,0,L|246:35,2,70,2|0|10,0:0|0:0|0:0,0:0:0:0:
205,178,25675,1,2,0:0:0:0:
128,144,25851,6,0,P|57:131|-1:179,1,140,2|8,0:0|0:0,0:0:0:0:
3,253,26381,2,0,L|13:328,2,70,2|2|2,0:0|0:0|0:0,0:0:0:0:
78,214,26910,1,10,0:0:0:0:
78,214,27087,1,2,0:0:0:0:
154,249,27263,6,0,P|188:249|221:236,1,70,2|0,0:0|0:0,0:0:0:0:
288,185,27616,2,0,P|322:184|355:197,1,70,10|0,0:0|0:0,0:0:0:0:
410,261,27969,2,0,P|397:293|397:328,2,70,2|0|10,0:0|0:0|0:0,0:0:0:0:
465,197,28498,1,2,0:0:0:0:
413,130,28675,6,0,B|384:108|384:108|332:127|275:105,1,140,2|8,0:0|0:0,0:0:0:0:
208,67,29204,2,0,P|196:35|172:0,2,70,2|2|2,0:0|0:0|0:0,0:0:0:0:
210,151,29734,1,10,0:0:0:0:
210,151,29910,1,0,0:0:0:0:
128,172,30087,6,0,L|39:156,1,70,2|2,0:0|0:0,0:0:0:0:
10,227,30439,2,0,P|-6:301|23:364,2,140,10|0|8,0:0|0:0|0:0,0:0:0:0:
59,159,31322,6,0,L|50:89,1,70,2|0,0:0|0:0,0:0:0:0:
103,25,31675,1,2,0:0:0:0:
103,25,31851,2,0,L|173:34,1,70,10|0,0:0|0:0,0:0:0:0:
240,83,32204,2,0,P|273:77|306:88,1,70,2|2,0:0|0:0,0:0:0:0:
377,133,32557,1,10,0:0:0:0:
377,133,32734,1,2,0:0:0:0:
350,212,32910,6,0,P|352:246|359:281,1,70,2|2,0:0|0:0,0:0:0:0:
428,329,33263,1,10,0:0:0:0:
488,270,33439,1,8,0:0:0:0:
488,270,33528,1,8,0:0:0:0:
488,270,33616,2,0,P|485:235|478:200,1,70,8|0,0:0|0:0,0:0:0:0:
457,119,33969,1,8,0:0:0:0:
356,50,34145,6,0,P|317:53|273:66,1,77.0000023498536,4|0,0:0|0:0,0:0:0:0:
187,145,34498,2,0,P|225:148|270:161,1,77.0000023498536,4|0,0:0|0:0,0:0:0:0:
346,249,34851,2,0,P|273:239|209:281,1,154.000004699707,4|10,0:0|0:0,0:0:0:0:
160,361,35381,1,10,0:0:0:0:
71,336,35557,1,10,0:0:0:0:
69,248,35734,6,0,P|65:211|55:179,1,70,4|0,3:2|0:0,0:0:0:0:
103,110,36087,2,0,L|175:118,1,70,10|0,0:0|0:0,0:0:0:0:
223,184,36439,2,0,P|212:217|209:252,1,70,2|0,3:2|3:0,0:0:0:0:
244,328,36792,1,10,0:0:0:0:
244,328,36969,1,2,0:0:0:0:
307,272,37145,6,0,P|367:241|431:266,1,140,2|8,3:2|0:0,0:0:0:0:
498,214,37675,1,2,0:0:0:0:
498,214,37851,2,0,P|494:179|484:145,1,70,2|2,3:2|3:2,0:0:0:0:
429,81,38204,1,10,0:0:0:0:
429,81,38381,1,2,0:0:0:0:
350,52,38557,6,0,P|311:54|270:66,1,70,2|0,3:2|0:0,0:0:0:0:
221,121,38910,2,0,P|186:112|152:111,1,70,10|0,0:0|0:0,0:0:0:0:
69,95,39263,2,0,L|60:22,2,70,2|0|10,3:2|3:0|0:0,0:0:0:0:
96,174,39792,1,2,0:0:0:0:
48,243,39969,6,0,P|106:258|170:211,1,140,2|8,3:2|0:0,0:0:0:0:
206,140,40498,1,2,0:0:0:0:
206,140,40675,2,0,L|278:148,1,70,2|2,3:2|3:2,0:0:0:0:
331,210,41028,2,0,L|323:279,1,70,10|2,0:0|0:0,0:0:0:0:
263,339,41381,6,0,P|328:314|392:339,1,140,2|8,3:2|0:0,0:0:0:0:
471,312,41910,1,0,0:0:0:0:
471,312,42087,2,0,P|481:282|475:240,1,70,2|0,3:2|3:0,0:0:0:0:
449,165,42439,1,10,0:0:0:0:
449,165,42616,1,2,0:0:0:0:
377,121,42792,6,0,L|305:129,1,70,2|0,3:2|0:0,0:0:0:0:
253,193,43145,2,0,B|259:226|259:226|228:292|228:292|237:331,2,140,10|2|10,0:0|3:2|0:0,0:0:0:0:
208,120,44028,1,2,0:0:0:0:
245,45,44204,6,0,P|279:32|314:27,1,70,2|0,3:2|0:0,0:0:0:0:
394,43,44557,2,0,P|429:61|452:85,1,70,10|0,0:0|0:0,0:0:0:0:
494,154,44910,1,2,3:2:0:0:
494,154,45087,1,0,3:0:0:0:
438,216,45263,2,0,L|445:287,1,70,10|0,0:0|0:0,0:0:0:0:
345,338,45616,6,0,P|283:305|212:319,1,140,4|10,3:2|0:0,0:0:0:0:
147,364,46145,2,0,P|122:344|79:343,1,70,4|0,3:2|0:0,0:0:0:0:
13,297,46498,1,2,3:2:0:0:
13,297,46675,1,10,0:0:0:0:
43,219,46851,1,2,0:0:0:0:
128,236,47028,6,0,B|183:237|170:199|233:197,1,112,4|2,3:2|0:0,0:0:0:0:
307,212,47557,1,2,3:2:0:0:
307,212,47734,1,2,3:2:0:0:
370,68,48087,1,10,0:0:0:0:
370,68,48263,1,2,3:2:0:0:
468,189,48616,5,2,3:2:0:0:
322,247,48969,1,2,3:2:0:0:
322,247,49145,2,0,P|289:238|261:238,1,56,2|2,3:2|0:0,0:0:0:0:
198,275,49498,2,0,P|165:283|137:284,1,56,10|2,0:0|0:0,0:0:0:0:
69,257,49851,6,0,P|49:209|68:153,1,112,2|2,3:2|0:0,0:0:0:0:
114,91,50381,1,2,3:2:0:0:
114,91,50557,1,2,3:2:0:0:
266,127,50910,1,10,0:0:0:0:
266,127,51087,1,2,3:2:0:0:
405,55,51439,5,2,3:2:0:0:
358,204,51792,1,2,3:2:0:0:
358,204,51969,2,0,P|349:229|351:266,1,56,2|2,3:2|3:2,0:0:0:0:
426,270,52322,2,0,P|435:245|433:208,1,56,10|2,3:2|3:2,0:0:0:0:
407,142,52675,6,0,B|364:105|351:143|304:105,1,112,2|2,3:2|0:0,0:0:0:0:
255,44,53204,1,2,3:2:0:0:
255,44,53381,1,2,3:2:0:0:
106,95,53734,1,10,0:0:0:0:
106,95,53910,1,2,3:2:0:0:
220,202,54263,5,2,3:2:0:0:
71,253,54616,1,2,3:2:0:0:
71,253,54792,2,0,P|93:267|110:293,1,56,10|0,0:0|3:0,0:0:0:0:
179,327,55145,2,0,P|201:310|228:303,1,56,10|2,0:0|0:0,0:0:0:0:
334,336,55498,5,4,3:2:0:0:
298,171,55851,2,0,P|297:139|314:100,1,70,10|2,0:0|0:0,0:0:0:0:
381,58,56204,1,2,3:2:0:0:
381,58,56381,1,0,3:2:0:0:
426,128,56557,2,0,P|427:160|410:199,1,70,10|2,0:0|0:0,0:0:0:0:
343,242,56910,5,0,3:0:0:0:
224,122,57263,2,0,P|187:121|153:128,1,70,10|2,0:0|0:0,0:0:0:0:
72,147,57616,1,2,3:2:0:0:
72,147,57792,1,0,3:0:0:0:
80,230,57969,2,0,P|87:264|90:306,1,70,10|0,0:0|0:0,0:0:0:0:
194,359,58322,5,12,3:2:0:0:
307,337,58498,1,10,3:2:0:0:
99,235,58851,1,12,3:2:0:0:
212,213,59027,1,10,3:2:0:0:
368,41,59381,5,12,3:2:0:0:
255,63,59557,1,10,3:2:0:0:
463,165,59910,1,12,3:2:0:0:
350,187,60086,1,10,3:2:0:0:
174,337,60439,5,10,3:2:0:0:
129,255,60616,1,10,3:2:0:0:
81,334,60792,1,10,3:2:0:0:
205,265,60969,6,0,P|260:260|348:311,1,154.000004699707,4|2,3:2|3:2,0:0:0:0:
425,351,61498,2,0,P|437:314|468:287,1,77.0000023498536,10|2,0:0|0:0,0:0:0:0:
491,200,61851,1,2,3:2:0:0:
491,200,62028,1,0,3:0:0:0:
424,136,62204,2,0,P|384:136|348:148,1,77.0000023498536,10|0,0:0|0:0,0:0:0:0:
278,219,62557,6,0,P|288:250|295:292,1,66.4999982242585,4|0,3:2|0:0,0:0:0:0:
193,312,62910,2,0,P|182:278|175:244,1,70,4|0,3:2|0:0,0:0:0:0:
198,136,63263,6,0,P|191:100|180:65,1,73.4999977569581,4|0,3:2|0:0,0:0:0:0:
68,96,63616,2,0,P|74:134|87:171,1,77.0000023498536,4|0,3:2|0:0,0:0:0:0:
199,235,63969,6,0,P|237:221|281:219,1,80.5000015354157,4|0,3:2|0:0,0:0:0:0:
352,279,64322,2,0,P|390:292|434:295,1,80.5000015354157,10|0,0:0|0:0,0:0:0:0:
502,230,64675,2,0,P|498:189|485:151,1,80.5000015354157,2|0,3:2|3:0,0:0:0:0:
433,70,65028,1,10,0:0:0:0:
433,70,65204,1,2,0:0:0:0:
347,24,65381,6,0,L|262:43,1,80.5000015354157,2|0,3:2|0:0,0:0:0:0:
203,113,65734,1,8,0:0:0:0:
260,190,65910,2,0,P|283:259|235:333,1,161.000003070831,2|2,3:2|3:2,0:0:0:0:
146,304,66439,1,10,0:0:0:0:
57,342,66616,1,2,0:0:0:0:
1,263,66792,6,0,P|4:222|17:184,1,80.5000015354157,2|0,3:2|0:0,0:0:0:0:
113,191,67145,2,0,P|109:150|96:112,1,80.5000015354157,10|0,0:0|0:0,0:0:0:0:
135,23,67498,2,0,P|170:7|213:9,1,80.5000015354157,2|0,3:2|3:0,0:0:0:0:
301,44,67851,1,10,0:0:0:0:
301,44,68028,1,2,0:0:0:0:
293,140,68204,6,0,P|369:126|436:176,1,161.000003070831,2|8,3:2|0:0,0:0:0:0:
413,267,68734,2,0,P|337:281|270:231,1,161.000003070831,2|2,3:2|3:2,0:0:0:0:
201,168,69263,2,0,P|163:157|119:164,1,80.5000015354157,10|2,0:0|0:0,0:0:0:0:
9,92,69616,6,0,P|24:166|36:251,1,161.000003070831,4|8,3:2|0:0,0:0:0:0:
103,319,70145,1,2,0:0:0:0:
103,319,70322,2,0,P|142:310|189:307,1,80.5000015354157,2|2,3:2|3:2,0:0:0:0:
259,248,70675,2,0,P|299:251|338:260,1,80.5000015354157,10|2,0:0|0:0,0:0:0:0:
386,176,71028,6,0,P|311:134|240:153,1,161.000003070831,2|8,3:2|0:0,0:0:0:0:
148,176,71557,1,2,0:0:0:0:
148,176,71734,2,0,P|137:135|132:97,1,80.5000015354157,2|2,3:2|3:2,0:0:0:0:
201,29,72087,2,0,P|240:34|279:44,1,80.5000015354157,10|2,0:0|0:0,0:0:0:0:
412,17,72439,6,0,P|396:91|385:176,1,161.000003070831,4|8,3:2|0:0,0:0:0:0:
443,253,72969,1,10,0:0:0:0:
443,253,73057,1,8,0:0:0:0:
443,253,73145,2,0,P|462:293|462:331,1,80.5000015354157,10|0,3:2|3:0,0:0:0:0:
368,351,73498,2,0,P|349:311|349:273,1,80.5000015354157,8|0,0:0|0:0,0:0:0:0:
412,154,73851,5,4,3:2:0:0:
328,105,74028,1,8,0:0:0:0:
328,105,74116,1,8,0:0:0:0:
328,105,74204,2,0,P|283:109|246:117,1,80.5000015354157,8|2,0:0|3:2,0:0:0:0:
173,177,74557,1,4,3:2:0:0:
173,177,74734,1,0,3:0:0:0:
91,125,74910,2,0,P|86:80|79:43,1,80.5000015354157,12|0,3:2|0:0,0:0:0:0:
1,141,75263,6,0,P|5:185|13:223,1,80.5000015354157,4|0,3:2|0:0,0:0:0:0:
70,288,75616,2,0,P|109:280|149:276,1,80.5000015354157,10|0,0:0|0:0,0:0:0:0:
231,328,75969,2,0,P|279:355|341:329,2,120.750002303124,2|2|2,3:2|0:0|0:0,0:0:0:0:
234,231,76675,6,0,P|238:190|248:148,1,80.5000015354157,2|0,3:2|0:0,0:0:0:0:
318,86,77028,1,8,0:0:0:0:
245,22,77204,2,0,P|169:15|109:76,1,161.000003070831,2|2,3:2|3:2,0:0:0:0:
25,116,77734,1,10,0:0:0:0:
45,210,77910,1,2,0:0:0:0:
128,258,78087,6,0,P|167:246|206:241,1,80.5000015354157,2|0,3:2|0:0,0:0:0:0:
296,274,78439,1,10,0:0:0:0:
407,356,78616,1,8,0:0:0:0:
407,356,78704,1,8,0:0:0:0:
407,356,78792,6,0,P|418:311|435:272,1,87.5,2|0,3:2|0:0,0:0:0:0:
468,256,79057,2,0,P|457:213|440:173,1,87.5,2|0,3:2|0:0,0:0:0:0:
426,140,79322,1,2,3:2:0:0:
313,208,79498,6,0,P|240:224|170:178,1,161.000003070831,4|10,3:2|0:0,0:0:0:0:
113,100,80028,1,2,3:2:0:0:
113,100,80204,2,0,P|71:103|27:113,1,80.5000015354157,2|0,0:0|3:0,0:0:0:0:
0,202,80557,2,0,P|3:244|13:288,1,80.5000015354157,10|0,0:0|0:0,0:0:0:0:
144,257,80910,6,0,P|135:296|132:336,2,80.5000015354157,4|2|10,3:2|0:0|0:0,0:0:0:0:
214,190,81439,2,0,P|256:193|300:203,1,80.5000015354157,2|0,3:2|0:0,0:0:0:0:
378,246,81792,1,2,3:2:0:0:
378,246,81969,1,10,0:0:0:0:
458,193,82145,6,0,P|460:153|445:116,1,80.5000015354157,2|0,3:2|0:0,0:0:0:0:
375,49,82498,1,2,3:2:0:0:
375,49,82675,1,10,0:0:0:0:
286,87,82851,2,0,P|246:95|206:98,1,80.5000015354157,2|0,3:2|0:0,0:0:0:0:
118,58,83204,1,2,3:2:0:0:
118,58,83381,1,10,0:0:0:0:
44,120,83557,1,2,0:0:0:0:
81,209,83734,5,4,3:2:0:0:
265,267,84087,2,0,P|269:307|250:356,1,80.5000015354157,10|0,0:0|0:0,0:0:0:0:
161,336,84439,2,0,P|157:296|176:247,1,80.5000015354157,2|0,3:2|3:0,0:0:0:0:
225,179,84792,2,0,P|236:140|232:101,1,80.5000015354157,10|0,0:0|3:0,0:0:0:0:
167,30,85145,1,4,3:2:0:0:
167,30,85498,6,0,B|281:134|302:12|429:79,1,280,4|2,3:2|0:0,0:0:0:0:
492,176,86557,5,12,3:2:0:0:
492,176,86734,1,12,3:2:0:0:
404,205,86910,1,12,3:2:0:0:
196,267,87263,5,12,3:2:0:0:
196,267,87440,1,12,3:2:0:0:
283,296,87616,1,12,3:2:0:0:
223,97,87969,5,12,3:2:0:0:
223,97,88145,1,12,3:2:0:0:
135,67,88322,1,12,3:2:0:0:
67,129,88498,1,12,3:2:0:0:
