osu file format v14

[General]
AudioFilename: audio.mp3
AudioLeadIn: 0
PreviewTime: 63969
Countdown: 0
SampleSet: Soft
StackLeniency: 0.7
Mode: 0
LetterboxInBreaks: 0
WidescreenStoryboard: 0

[Editor]
DistanceSpacing: 1.2
BeatDivisor: 4
GridSize: 4
TimelineZoom: 1.4

[Metadata]
Title:TWO BY TWO (TV Size)
TitleUnicode:TWO BY TWO (TV Size)
Artist:Kouda Yumeha
ArtistUnicode:幸田夢波
Creator:kunka
Version:Easy
Source:Fate/kaleid liner プリズマ☆イリヤ ツヴァイ!
Tags:ed ending japanese anime j-pop jpop Prisma☆Illya 2wei! Zwei! デ プレッツェ kunkakunkakunkakunka
BeatmapID:3776290
BeatmapSetID:1838789

[Difficulty]
HPDrainRate:3
CircleSize:3
OverallDifficulty:3.5
ApproachRate:4
SliderMultiplier:0.9
SliderTickRate:1

[Events]
//Background and Video events
0,0,"BG.jpg",0,0
//Break Periods
//Storyboard Layer 0 (Background)
//Storyboard Layer 1 (Fail)
//Storyboard Layer 2 (Pass)
//Storyboard Layer 3 (Foreground)
//Storyboard Layer 4 (Overlay)
//Storyboard Sound Samples

[TimingPoints]
440,352.941176470588,4,2,1,40,1,0
440,-111.111111111111,4,2,1,40,0,0
6087,-111.111111111111,4,2,1,50,0,0
7498,-111.111111111111,4,2,1,60,0,0
8910,-111.111111111111,4,2,1,75,0,0
11734,-111.111111111111,4,2,1,60,0,0
21439,-111.111111111111,4,2,1,55,0,0
23028,-111.111111111111,4,2,1,45,0,0
24439,-111.111111111111,4,2,1,50,0,0
34145,-111.111111111111,4,2,1,70,0,0
35734,-111.111111111111,4,2,1,50,0,0
47028,-111.111111111111,4,2,1,45,0,0
55498,-111.111111111111,4,2,1,50,0,0
58322,-111.111111111111,4,2,1,65,0,0
62557,-111.111111111111,4,2,1,55,0,0
62910,-111.111111111111,4,2,1,60,0,0
63263,-111.111111111111,4,2,1,65,0,0
63616,-111.111111111111,4,2,1,70,0,0
63969,-111.111111111111,4,2,1,60,0,1
78792,-111.111111111111,4,2,1,80,0,1
79498,-111.111111111111,4,2,1,60,0,1
85498,-111.111111111111,4,2,1,50,0,1
86557,-111.111111111111,4,2,1,75,0,1
88498,-111.111111111111,4,2,1,75,0,0

[Colours]
Combo1 : 222,14,217
Combo2 : 218,143,188
Combo3 : 217,233,14
Combo4 : 233,58,89
Combo5 : 234,141,38

[HitObjects]
461,307,3263,6,0,P|387:279|300:305,1,161.999995056152,4|10,3:2|0:0,0:0:0:0:
228,354,4322,1,2,0:0:0:0:
167,277,4675,2,0,P|147:199|175:125,1,161.999995056152,4|10,3:2|0:0,0:0:0:0:
367,96,6087,6,0,P|407:106|451:94,2,80.9999975280762,4|2|2,3:2|3:2|3:2,0:0:0:0:
326,69,6969,2,0,P|286:59|242:71,1,80.9999975280762,2|2,3:2|3:2,0:0:0:0:
203,88,7498,1,4,3:2:0:0:
52,337,8557,1,10,0:0:0:0:
12,248,8910,6,0,P|16:207|30:165,1,80.9999975280762,12|12,3:2|3:2,0:0:0:0:
123,149,9616,2,0,P|134:187|139:227,1,80.9999975280762,12|12,3:2|3:2,0:0:0:0:
234,246,10322,2,0,P|238:205|250:167,1,80.9999975280762,12|12,3:2|3:2,0:0:0:0:
266,121,10851,1,12,3:2:0:0:
200,49,11204,2,0,L|154:52,1,40.4999987640381,8|12,3:2|3:2,0:0:0:0:
79,106,11734,6,0,P|37:100|0:112,2,80.9999975280762,4|10|2,3:2|0:0|3:2,0:0:0:0:
198,190,12969,2,0,P|186:228|181:268,1,80.9999975280762,2|2,3:2|3:2,0:0:0:0:
194,315,13498,1,10,0:0:0:0:
283,352,13851,2,0,B|322:342|322:342|364:359,1,80.9999975280762,2|10,3:2|0:0,0:0:0:0:
443,307,14557,6,0,P|455:268|451:229,2,80.9999975280762,2|10|2,3:2|0:0|3:2,0:0:0:0:
306,254,15792,2,0,P|301:214|314:176,1,80.9999975280762,4|2,3:2|3:2,0:0:0:0:
336,132,16322,1,10,0:0:0:0:
294,44,16675,1,4,3:2:0:0:
197,31,17028,1,10,0:0:0:0:
121,91,17381,6,0,P|82:102|42:96,2,80.9999975280762,4|10|2,3:2|0:0|3:2,0:0:0:0:
236,181,18616,2,0,P|274:169|314:175,1,80.9999975280762,2|2,3:2|3:2,0:0:0:0:
360,190,19146,1,10,0:0:0:0:
405,275,19498,2,0,P|394:315|388:358,1,80.9999975280762,2|10,3:2|0:0,0:0:0:0:
291,366,20204,6,0,P|285:325|274:286,1,80.9999975280762,2|8,3:2|0:0,0:0:0:0:
189,238,20910,2,0,P|148:243|109:254,1,80.9999975280762,2|8,3:2|0:0,0:0:0:0:
64,271,21439,1,4,3:2:0:0:
256,192,21616,12,2,23028,3:2:0:0:
212,130,24439,6,0,P|172:126|127:135,1,80.9999975280763,4|10,0:0|0:0,0:0:0:0:
70,208,25145,2,0,P|66:248|75:293,1,80.9999975280763,2|10,0:0|0:0,0:0:0:0:
161,329,25851,2,0,P|242:314|318:343,1,161.999995056153,2|2,0:0|0:0,0:0:0:0:
410,359,26910,1,10,0:0:0:0:
480,291,27263,6,0,L|470:207,1,80.9999975280763,2|10,0:0|0:0,0:0:0:0:
374,193,27969,2,0,L|364:109,1,80.9999975280763,2|10,0:0|0:0,0:0:0:0:
293,46,28675,2,0,P|212:31|136:60,1,161.999995056153,2|2,0:0|0:0,0:0:0:0:
71,128,29734,1,10,0:0:0:0:
114,214,30087,6,0,P|154:206|199:210,1,80.9999975280763,2|10,0:0|0:0,0:0:0:0:
281,251,30792,2,0,P|322:286|390:279,2,121.499996292114,0|2|10,0:0|0:0|0:0,0:0:0:0:
274,154,32204,2,0,P|278:113|292:76,1,80.9999975280763,2|10,0:0|0:0,0:0:0:0:
375,24,32910,5,2,0:0:0:0:
451,83,33263,2,0,P|477:176|442:278,1,202.499993820191,10|4,0:0|0:0,0:0:0:0:
370,336,34498,1,4,0:0:0:0:
280,298,34851,2,0,B|244:290|244:290|204:306|204:306|164:298,1,121.499996292114,4|10,0:0|0:0,0:0:0:0:
66,304,35734,6,0,P|62:261|53:221,1,80.9999975280763,4|10,3:2|0:0,0:0:0:0:
93,135,36439,2,0,P|132:125|172:123,1,80.9999975280763,2|10,3:2|0:0,0:0:0:0:
249,183,37145,2,0,P|315:226|396:205,1,161.999995056153,2|2,3:2|3:2,0:0:0:0:
452,131,38204,1,10,0:0:0:0:
395,52,38557,6,0,P|352:54|315:62,1,80.9999975280763,2|10,3:2|0:0,0:0:0:0:
226,103,39263,2,0,P|185:101|145:92,1,80.9999975280763,2|10,3:2|0:0,0:0:0:0:
48,100,39969,2,0,B|24:134|24:134|60:186|51:260,1,161.999995056153,2|2,3:2|3:2,0:0:0:0:
40,345,41028,1,10,0:0:0:0:
136,353,41381,6,0,B|216:317|216:385|292:353,1,161.999995056153,2|2,3:2|3:2,0:0:0:0:
368,292,42439,2,0,L|345:212,1,80.9999975280763,10|2,0:0|3:2,0:0:0:0:
404,136,43145,2,0,B|486:142,2,80.9999975280763,10|2|10,0:0|3:2|0:0,0:0:0:0:
321,84,44204,5,2,3:2:0:0:
236,132,44557,1,10,0:0:0:0:
260,226,44910,2,0,P|269:267|259:311,1,80.9999975280763,2|10,3:2|0:0,0:0:0:0:
188,368,45616,1,4,3:2:0:0:
55,309,46145,2,0,P|47:269|56:230,1,80.9999975280763,4|2,3:2|3:2,0:0:0:0:
80,187,46675,1,10,0:0:0:0:
63,91,47028,6,0,P|141:87|181:105,1,121.499996292114,4|2,3:2|3:2,0:0:0:0:
221,128,47734,1,2,3:2:0:0:
365,104,48263,2,0,P|370:64|388:18,2,80.9999975280763,2|2|2,3:2|3:2|3:2,0:0:0:0:
367,152,49145,2,0,P|372:192|385:230,1,80.9999975280763,2|10,3:2|0:0,0:0:0:0:
349,320,49851,6,0,B|313:332|313:332|273:316|273:316|233:332,1,121.499996292114,2|2,3:2|3:2,0:0:0:0:
191,352,50557,1,2,3:2:0:0:
58,289,51087,2,0,P|42:331|46:372,2,80.9999975280763,2|2|2,3:2|3:2|3:2,0:0:0:0:
85,248,51969,2,0,P|96:209|91:169,1,80.9999975280763,2|10,3:2|3:2,0:0:0:0:
39,87,52675,6,0,P|97:71|156:100,1,121.499996292114,2|2,3:2|3:2,0:0:0:0:
186,128,53381,1,2,3:2:0:0:
278,240,53910,2,0,P|268:280|266:322,2,80.9999975280763,2|2|2,3:2|3:2|3:2,0:0:0:0:
310,204,54792,1,10,0:0:0:0:
285,109,55145,1,10,0:0:0:0:
355,42,55498,6,0,P|282:13|207:51,1,161.999995056153,4|2,3:2|3:2,0:0:0:0:
132,104,56557,1,10,0:0:0:0:
35,91,56910,2,0,B|11:128|16:168|16:168|44:205|42:249,1,161.999995056153,0|2,3:0|3:2,0:0:0:0:
215,332,58322,5,12,3:2:0:0:
354,288,58851,2,0,L|348:245,1,40.4999987640381,12|10,3:2|3:2,0:0:0:0:
300,162,59381,5,12,3:2:0:0:
165,217,59910,2,0,L|124:211,1,40.4999987640381,12|10,3:2|3:2,0:0:0:0:
73,129,60439,2,0,P|73:90|98:47,1,80.9999975280763,10|10,3:2|3:2,0:0:0:0:
135,31,60969,6,0,P|191:29|260:53,1,121.499996292114,4|10,3:2|0:0,0:0:0:0:
334,101,61851,1,2,3:2:0:0:
301,192,62204,1,10,0:0:0:0:
371,259,62557,2,0,P|388:298|396:344,1,80.9999975280763,4|4,3:2|3:2,0:0:0:0:
301,362,63263,2,0,P|284:323|276:277,1,80.9999975280763,4|4,3:2|3:2,0:0:0:0:
209,215,63969,6,0,B|129:179|129:247|53:215,1,161.999995056153,4|2,3:2|3:2,0:0:0:0:
20,123,65028,1,10,0:0:0:0:
86,52,65381,2,0,P|153:46|209:67,1,121.499996292114,2|2,3:2|3:2,0:0:0:0:
344,28,66439,1,10,0:0:0:0:
394,112,66792,6,0,B|386:155|413:188|413:188|376:210|368:257,1,161.999995056153,2|2,3:2|3:2,0:0:0:0:
299,321,67851,1,10,0:0:0:0:
210,280,68204,2,0,P|150:269|85:291,2,121.499996292114,2|2|10,3:2|3:2|0:0,0:0:0:0:
299,321,69616,5,4,3:2:0:0:
449,197,70322,2,0,P|443:154|430:117,1,80.9999975280763,2|10,3:2|0:0,0:0:0:0:
342,76,71028,2,0,P|303:89|263:94,1,80.9999975280763,2|8,3:2|0:0,0:0:0:0:
166,102,71734,1,2,3:2:0:0:
82,52,72087,1,10,0:0:0:0:
35,137,72439,6,0,P|54:211|68:297,1,161.999995056153,4|10,3:2|3:2,0:0:0:0:
134,366,73498,1,8,0:0:0:0:
220,321,73851,2,0,P|280:318|344:331,1,121.499996292114,4|2,3:2|3:2,0:0:0:0:
385,348,74557,1,4,3:2:0:0:
441,268,74910,1,12,3:2:0:0:
380,191,75263,6,0,P|305:174|222:204,1,161.999995056153,4|2,3:2|3:2,0:0:0:0:
145,255,76322,1,8,0:0:0:0:
69,193,76675,2,0,B|51:157|51:157|86:123|90:72,1,121.499996292114,2|2,3:2|3:2,0:0:0:0:
220,23,77734,1,10,0:0:0:0:
288,91,78087,6,0,P|296:131|285:173,1,80.9999975280763,2|10,3:2|0:0,0:0:0:0:
218,239,78792,2,0,P|224:270|222:307,2,60.7499981460572,2|2|2,3:2|3:2|3:2,0:0:0:0:
188,199,79498,2,0,P|117:175|47:222,1,161.999995056153,4|2,3:2|0:0,0:0:0:0:
22,313,80557,1,10,0:0:0:0:
111,349,80910,6,0,P|166:333|233:334,2,121.499996292114,4|2|10,3:2|3:2|0:0,0:0:0:0:
64,335,82145,2,0,P|48:280|49:213,1,121.499996292114,2|10,3:2|0:0,0:0:0:0:
80,179,82851,2,0,P|140:178|198:194,1,121.499996292114,2|10,3:2|0:0,0:0:0:0:
279,249,83734,5,4,3:2:0:0:
317,159,84087,2,0,P|356:150|396:151,2,80.9999975280763,10|2|10,0:0|3:2|0:0,0:0:0:0:
220,172,85145,1,4,3:2:0:0:
134,125,85498,1,4,3:2:0:0:
332,338,86557,6,0,P|368:319|412:313,1,80.9999975280763,12|12,3:2|3:2,0:0:0:0:
453,227,87263,2,0,P|417:208|373:202,1,80.9999975280763,12|12,3:2|3:2,0:0:0:0:
327,118,87969,2,0,P|363:99|407:93,1,80.9999975280763,12|12,3:2|3:2,0:0:0:0:
450,86,88498,1,12,3:2:0:0:
