osu file format v14

[General]
AudioFilename: audio.mp3
AudioLeadIn: 0
PreviewTime: 46071
Countdown: 0
SampleSet: Soft
StackLeniency: 0.7
Mode: 0
LetterboxInBreaks: 0
WidescreenStoryboard: 0

[Editor]
DistanceSpacing: 1
BeatDivisor: 4
GridSize: 4
TimelineZoom: 2

[Metadata]
Title:Happening * Diary (TV Size)
TitleUnicode:ハプニング☆ダイアリー (TV Size)
Artist:Kouda Yumeha
ArtistUnicode:幸田夢波
Creator:kunka
Version:Normal
Source:Fate/kaleid liner プリズマ☆イリヤ ツヴァイ ヘルツ!
Tags:ed ending japanese anime j-pop jpop Prisma☆Illya 2wei Zwei Herz! デ プレッツェ Akitoshi Corinn -Laura- Sekai Sekai-nyan Sekaii HabiHolic kunkakunkakunkakunka
BeatmapID:3778968
BeatmapSetID:1838790

[Difficulty]
HPDrainRate:4
CircleSize:3.5
OverallDifficulty:5
ApproachRate:5.5
SliderMultiplier:1.1
SliderTickRate:1

[Events]
//Background and Video events
0,0,"BG.jpg",0,0
Video,9,"Happening Diary.mp4"
//Break Periods
//Storyboard Layer 0 (Background)
//Storyboard Layer 1 (Fail)
//Storyboard Layer 2 (Pass)
//Storyboard Layer 3 (Foreground)
//Storyboard Layer 4 (Overlay)
//Storyboard Sound Samples

[TimingPoints]
-292,303.030303030303,4,2,1,50,1,0
920,-95.2380952380952,4,2,1,70,0,0
10617,-111.111111111111,4,2,1,50,0,0
19101,-111.111111111111,4,2,1,55,0,0
20314,-111.111111111111,4,2,1,60,0,0
30011,-100,4,2,1,65,0,0
33647,-95.2380952380952,4,2,1,80,0,0
34859,-100,4,2,1,65,0,0
39708,-95.2380952380952,4,2,1,70,0,0
43344,-95.2380952380952,4,2,1,73,0,0
43950,-95.2380952380952,4,2,1,76,0,0
44556,-95.2380952380952,4,2,1,80,0,0
46071,-125,4,2,1,60,0,0
46374,-125,4,2,1,75,0,0
46677,-125,4,2,1,60,0,0
46980,-95.2380952380952,4,2,1,70,0,1
55768,-90.9090909090909,4,2,1,60,0,1
56071,-90.9090909090909,4,2,1,70,0,1
56374,-90.9090909090909,4,2,1,80,0,1
56677,-95.2380952380952,4,2,1,70,0,1
66374,-111.111111111111,4,2,1,55,0,0
73647,-125,4,2,1,50,0,0
74859,-105.263157894737,4,2,1,60,0,0
76071,-95.2380952380952,4,2,1,70,0,0
85768,-125,4,2,1,60,0,0
86366,-125,4,2,1,50,0,0
86980,-125,4,2,1,40,0,0
87586,-125,4,2,1,30,0,0
88192,-125,4,2,1,5,0,0

[Colours]
Combo1 : 238,120,49
Combo2 : 34,177,27
Combo3 : 11,143,215
Combo4 : 231,24,117
Combo5 : 198,193,23

[HitObjects]
162,32,920,6,0,P|151:87|175:139,1,115.49999647522,4|10,3:2|0:0,0:0:0:0:
223,172,1374,1,2,0:0:0:0:
223,172,1526,2,0,L|218:237,2,57.7499982376099,2|2|10,3:2|3:2|0:0,0:0:0:0:
272,142,1980,2,0,P|326:131|386:161,1,115.49999647522,2|0,0:0|3:0,0:0:0:0:
420,195,2435,1,10,3:2:0:0:
449,306,2738,2,0,L|514:311,2,57.7499982376099,2|2|10,0:0|3:2|0:0,0:0:0:0:
341,348,3344,6,0,P|330:292|354:240,1,115.49999647522,4|10,3:2|0:0,0:0:0:0:
384,191,3798,1,2,0:0:0:0:
384,191,3950,2,0,L|452:201,2,57.7499982376099,2|2|10,3:2|3:2|0:0,0:0:0:0:
352,142,4404,2,0,P|300:118|244:129,1,115.49999647522,2|0,3:2|3:0,0:0:0:0:
194,156,4859,1,10,0:0:0:0:
82,124,5162,1,2,0:0:0:0:
34,229,5465,1,10,3:2:0:0:
82,333,5768,6,0,P|137:343|189:319,1,115.49999647522,4|10,3:2|0:0,0:0:0:0:
228,276,6223,1,2,0:0:0:0:
228,276,6374,2,0,L|285:267,2,57.7499982376099,2|2|10,3:2|3:2|0:0,0:0:0:0:
197,226,6829,2,0,P|186:170|209:118,1,115.49999647522,2|0,0:0|3:0,0:0:0:0:
249,76,7283,1,10,0:0:0:0:
363,86,7586,2,0,L|354:28,2,57.7499982376099,2|2|10,0:0|3:2|0:0,0:0:0:0:
454,156,8192,6,0,P|465:211|442:263,1,115.49999647522,4|10,3:2|0:0,0:0:0:0:
396,300,8647,1,2,0:0:0:0:
396,300,8798,2,0,L|404:357,2,57.7499982376099,2|2|10,3:2|3:2|0:0,0:0:0:0:
341,281,9253,2,0,P|285:270|233:293,1,115.49999647522,4|8,3:2|0:0,0:0:0:0:
180,317,9708,1,10,0:0:0:0:
86,248,10011,1,10,3:2:0:0:
86,133,10314,1,10,0:0:0:0:
180,66,10617,6,0,P|228:63|274:94,1,98.9999969787599,4|2,3:2|3:2,0:0:0:0:
299,128,11071,2,0,P|340:102|389:105,1,98.9999969787599,2|2,0:0|0:0,0:0:0:0:
481,139,11677,1,2,3:2:0:0:
443,230,11980,1,2,0:0:0:0:
443,230,12132,2,0,P|421:280|415:340,2,98.9999969787599,2|10|2,3:2|0:0|0:0,0:0:0:0:
434,131,13041,6,0,P|388:118|333:133,1,98.9999969787599,2|2,3:2|3:2,0:0:0:0:
296,154,13495,2,0,P|289:107|273:57,1,98.9999969787599,2|2,0:0|0:0,0:0:0:0:
185,13,14101,1,2,3:2:0:0:
97,59,14404,1,2,0:0:0:0:
97,59,14556,2,0,P|47:81|-3:90,2,98.9999969787599,2|10|2,3:2|0:0|0:0,0:0:0:0:
153,140,15465,6,0,P|146:186|130:237,1,98.9999969787599,2|2,3:2|3:2,0:0:0:0:
97,272,15920,2,0,P|145:269|191:300,1,98.9999969787599,2|2,0:0|0:0,0:0:0:0:
269,349,16526,2,0,P|310:323|359:326,1,98.9999969787599,2|2,3:2|0:0,0:0:0:0:
405,343,16980,1,2,3:2:0:0:
474,273,17283,2,0,P|495:229|490:180,2,98.9999969787599,10|2|2,0:0|0:0|3:2,0:0:0:0:
378,247,18192,2,0,P|331:242|285:264,1,98.9999969787599,2|10,3:2|0:0,0:0:0:0:
236,254,18647,2,0,P|232:204|235:156,1,98.9999969787599,2|2,3:2|3:2,0:0:0:0:
261,113,19101,5,4,3:2:0:0:
261,113,19253,2,0,L|310:116,2,49.4999984893799,10|10|10,0:0|0:0|3:2,0:0:0:0:
231,73,19708,2,0,P|187:51|138:56,1,98.9999969787599,10|10,3:2|0:0,0:0:0:0:
63,120,20314,6,0,P|73:170|74:227,1,98.9999969787599,4|10,3:2|0:0,0:0:0:0:
64,266,20768,2,0,P|111:254|163:267,1,98.9999969787599,2|2,0:0|3:2,0:0:0:0:
245,314,21374,2,0,P|292:325|340:313,1,98.9999969787599,10|2,0:0|3:2,0:0:0:0:
382,286,21829,1,10,0:0:0:0:
418,193,22132,2,0,L|403:139,1,49.4999984893799,2|2,3:2|3:2,0:0:0:0:
419,97,22435,1,10,0:0:0:0:
343,32,22738,6,0,P|294:35|254:70,1,98.9999969787599,2|10,3:2|0:0,0:0:0:0:
217,95,23192,2,0,P|167:85|110:84,1,98.9999969787599,2|2,0:0|3:2,0:0:0:0:
46,151,23798,2,0,P|36:201|35:258,1,98.9999969787599,10|2,0:0|3:2,0:0:0:0:
66,286,24253,1,10,0:0:0:0:
129,362,24556,2,0,L|181:350,1,49.4999984893799,2|2,3:2|3:2,0:0:0:0:
205,309,24859,2,0,L|257:297,1,49.4999984893799,10|10,0:0|0:0,0:0:0:0:
295,324,25162,6,0,P|341:340|389:332,1,98.9999969787599,2|10,3:2|0:0,0:0:0:0:
432,307,25617,2,0,P|461:268|469:219,1,98.9999969787599,2|2,0:0|3:2,0:0:0:0:
396,152,26223,2,0,B|347:167|347:135|299:151,1,98.9999969787599,10|2,0:0|3:2,0:0:0:0:
256,176,26677,2,0,L|251:227,1,49.4999984893799,10|2,0:0|0:0,0:0:0:0:
235,272,26980,1,2,3:2:0:0:
145,315,27283,1,10,0:0:0:0:
53,276,27586,6,0,P|45:226|46:171,1,98.9999969787599,2|10,3:2|0:0,0:0:0:0:
112,105,28192,1,0,3:0:0:0:
112,105,28344,2,0,P|161:104|210:112,1,98.9999969787599,2|10,3:2|0:0,0:0:0:0:
295,61,28950,1,0,3:0:0:0:
295,61,29101,2,0,P|345:52|392:75,1,98.9999969787599,10|10,0:0|0:0,0:0:0:0:
446,150,29707,2,0,L|439:203,1,49.4999984893799,10|10,0:0|0:0,0:0:0:0:
397,235,30011,6,0,P|341:224|284:223,1,110,4|10,3:0|0:0,0:0:0:0:
241,251,30465,1,0,0:0:0:0:
241,251,30617,2,0,P|230:304|228:359,1,110,2|10,3:2|0:0,0:0:0:0:
118,366,31223,2,0,P|116:311|105:257,1,110,4|10,3:0|0:0,0:0:0:0:
63,221,31677,1,0,0:0:0:0:
63,221,31829,2,0,P|64:166|75:112,1,110,2|10,3:2|0:0,0:0:0:0:
160,43,32435,5,4,3:0:0:0:
238,120,32738,2,0,L|223:184,1,55,10|2,0:0|0:0,0:0:0:0:
233,228,33041,2,0,P|285:217|339:247,1,110,2|10,3:2|0:0,0:0:0:0:
419,319,33647,5,4,3:2:0:0:
419,319,33950,1,12,3:2:0:0:
495,232,34253,1,4,3:2:0:0:
495,232,34556,1,12,3:2:0:0:
437,138,34859,6,0,P|379:140|320:152,1,110,4|10,3:0|0:0,0:0:0:0:
273,145,35314,1,0,0:0:0:0:
273,145,35465,2,0,P|262:90|261:36,1,110,2|10,3:2|0:0,0:0:0:0:
152,20,36071,2,0,P|94:22|35:34,1,110,4|10,3:0|0:0,0:0:0:0:
7,73,36526,1,0,0:0:0:0:
7,73,36677,2,0,P|9:131|21:190,1,110,2|10,3:2|0:0,0:0:0:0:
76,275,37283,5,4,3:0:0:0:
171,219,37586,2,0,L|228:221,1,55,10|2,0:0|0:0,0:0:0:0:
271,251,37889,2,0,P|313:284|375:276,1,110,2|10,3:2|0:0,0:0:0:0:
398,174,38495,2,0,P|356:141|294:149,1,110,4|10,3:0|0:0,0:0:0:0:
248,158,38950,1,2,0:0:0:0:
248,158,39101,2,0,L|244:42,1,110,2|10,3:2|0:0,0:0:0:0:
347,8,39708,6,0,L|404:24,1,57.7499982376099,4|2,3:2|0:0,0:0:0:0:
442,65,40011,2,0,P|426:120|419:184,1,115.49999647522,10|2,0:0|3:2,0:0:0:0:
309,215,40617,2,0,P|321:242|328:276,1,57.7499982376099,10|2,0:0|0:0,0:0:0:0:
321,326,40920,2,0,P|261:315|205:339,1,115.49999647522,2|10,3:2|0:0,0:0:0:0:
161,363,41374,1,2,0:0:0:0:
103,262,41677,1,2,3:2:0:0:
103,262,41829,2,0,P|109:233|121:207,1,57.7499982376099,10|2,0:0|0:0,0:0:0:0:
158,163,42132,6,0,L|274:186,1,115.49999647522,2|10,3:2|0:0,0:0:0:0:
311,227,42586,1,2,0:0:0:0:
311,227,42738,2,0,L|424:204,1,115.49999647522,2|10,3:2|0:0,0:0:0:0:
409,89,43344,2,0,L|293:112,1,115.49999647522,2|10,3:2|0:0,0:0:0:0:
256,153,43798,1,2,0:0:0:0:
256,153,43950,2,0,L|142:130,1,115.49999647522,2|10,3:2|0:0,0:0:0:0:
28,146,44556,5,12,0:0:0:0:
4,259,44859,1,12,0:0:0:0:
102,319,45162,2,0,B|130:311|130:311|186:327|186:327|214:319,1,115.49999647522,12|12,0:0|0:0,0:0:0:0:
315,265,45768,1,10,3:2:0:0:
427,291,46071,6,0,P|412:336|413:380,2,88,2|2|2,0:0|0:0|0:0,0:0:0:0:
492,208,46980,6,0,P|481:147|465:90,1,115.49999647522,4|10,3:2|0:0,0:0:0:0:
421,59,47435,2,0,P|360:69|303:86,1,115.49999647522,2|0,0:0|3:0,0:0:0:0:
253,101,47889,1,10,0:0:0:0:
329,187,48192,2,0,P|346:237|333:302,1,115.49999647522,2|10,3:2|0:0,0:0:0:0:
241,365,48798,2,0,P|182:350|121:354,1,115.49999647522,2|10,3:2|0:0,0:0:0:0:
71,251,49404,5,2,3:2:0:0:
141,159,49707,1,10,0:0:0:0:
141,159,49859,2,0,P|198:156|254:171,1,115.49999647522,2|0,0:0|3:0,0:0:0:0:
308,191,50314,1,10,0:0:0:0:
403,126,50617,1,2,3:2:0:0:
485,208,50920,2,0,B|495:235|495:235|473:276|479:339,2,115.49999647522,10|2|10,0:0|3:2|0:0,0:0:0:0:
416,116,51829,5,4,3:2:0:0:
416,116,51980,2,0,P|387:114|359:122,1,57.7499982376099,0|10,0:0|0:0,0:0:0:0:
314,159,52283,2,0,P|262:164|213:129,1,115.49999647522,2|0,0:0|3:0,0:0:0:0:
189,75,52738,1,10,0:0:0:0:
75,97,53041,1,2,3:2:0:0:
75,97,53192,2,0,L|86:164,1,57.7499982376099,2|8,0:0|0:0,0:0:0:0:
50,200,53495,2,0,P|32:257|57:312,1,115.49999647522,2|0,0:0|3:0,0:0:0:0:
95,344,53950,1,10,0:0:0:0:
195,286,54253,5,4,3:2:0:0:
195,286,54404,2,0,L|184:219,1,57.7499982376099,2|8,0:0|0:0,0:0:0:0:
206,175,54707,2,0,P|263:157|318:182,1,115.49999647522,2|0,0:0|3:0,0:0:0:0:
354,216,55162,1,10,0:0:0:0:
420,121,55465,1,2,3:2:0:0:
352,27,55768,6,0,L|227:50,2,121.000003692627,12|12|12,3:2|3:2|3:2,0:0:0:0:
420,121,56677,6,0,P|405:179|420:234,1,115.49999647522,4|10,3:2|0:0,0:0:0:0:
455,276,57132,2,0,P|392:281|350:319,1,115.49999647522,2|0,0:0|3:0,0:0:0:0:
323,363,57586,1,10,0:0:0:0:
232,291,57889,2,0,P|177:273|124:291,1,115.49999647522,2|10,3:2|0:0,0:0:0:0:
24,348,58495,2,0,P|18:291|3:233,1,115.49999647522,2|10,3:2|0:0,0:0:0:0:
7,119,59101,5,2,3:2:0:0:
84,33,59404,1,10,0:0:0:0:
84,33,59556,2,0,P|143:31|201:51,1,115.49999647522,2|0,0:0|3:0,0:0:0:0:
248,74,60011,1,10,0:0:0:0:
268,187,60314,1,2,3:2:0:0:
172,251,60617,2,0,B|121:223|114:260|60:233,2,115.49999647522,10|2|10,0:0|3:2|0:0,0:0:0:0:
251,335,61526,5,4,3:2:0:0:
251,335,61677,2,0,P|281:325|314:321,1,57.7499982376099,2|8,0:0|0:0,0:0:0:0:
361,341,61980,2,0,P|416:348|460:306,1,115.49999647522,2|0,0:0|3:0,0:0:0:0:
476,255,62435,1,10,0:0:0:0:
381,188,62738,1,2,3:2:0:0:
381,188,62889,2,0,P|352:192|325:201,1,57.7499982376099,2|8,0:0|0:0,0:0:0:0:
275,231,63192,2,0,P|233:183|179:173,1,115.49999647522,2|0,0:0|3:0,0:0:0:0:
127,183,63647,1,10,0:0:0:0:
90,73,63950,5,2,3:2:0:0:
191,17,64253,1,10,0:0:0:0:
191,17,64404,2,0,P|246:20|313:37,1,115.49999647522,2|0,0:0|3:0,0:0:0:0:
361,44,64859,1,10,0:0:0:0:
475,31,65162,2,0,P|462:83|455:156,1,115.49999647522,2|10,3:2|0:0,0:0:0:0:
427,256,65768,2,0,P|444:295|437:346,2,86.6249973564149,2|2|2,3:2|0:0|3:2,0:0:0:0:
375,230,66374,6,0,L|273:253,2,98.9999969787599,4|0|8,3:2|3:0|3:2,0:0:0:0:
391,132,67283,2,0,P|343:107|292:113,1,98.9999969787599,2|0,3:2|3:0,0:0:0:0:
208,149,67889,1,0,3:0:0:0:
120,103,68192,2,0,P|119:67|112:24,2,74.2499977340699,10|2|2,0:0|0:0|0:0,0:0:0:0:
90,142,68798,6,0,P|80:189|100:244,2,98.9999969787599,2|0|8,3:2|3:0|3:2,0:0:0:0:
179,184,69708,1,2,3:2:0:0:
256,122,70011,2,0,P|256:97|261:69,2,49.4999984893799,0|8|0,3:0|0:0|3:0,0:0:0:0:
353,102,70617,2,0,P|418:132|425:203,1,148.49999546814,10|2,0:0|0:0,0:0:0:0:
386,233,71223,6,0,P|337:222|280:221,2,98.9999969787599,2|0|8,3:2|3:0|3:2,0:0:0:0:
431,321,72132,1,2,3:2:0:0:
338,356,72435,2,0,P|287:353|229:374,1,98.9999969787599,2|2,3:2|3:2,0:0:0:0:
146,338,73041,2,0,P|151:289|165:239,1,98.9999969787599,10|2,0:0|3:2,0:0:0:0:
202,162,73647,1,10,3:2:0:0:
202,162,74859,6,0,P|144:153|50:189,2,156.749995814324,10|10|10,0:0|0:0|0:0,0:0:0:0:
298,225,76071,6,0,P|306:168|331:108,1,115.49999647522,4|10,3:2|0:0,0:0:0:0:
366,71,76526,1,2,0:0:0:0:
366,71,76677,2,0,L|424:87,2,57.7499982376099,2|2|10,3:2|3:2|0:0,0:0:0:0:
330,25,77132,2,0,P|270:13|216:36,1,115.49999647522,2|2,0:0|3:2,0:0:0:0:
175,67,77586,1,10,0:0:0:0:
204,178,77889,2,0,L|259:162,2,57.7499982376099,2|2|10,0:0|3:2|0:0,0:0:0:0:
91,153,78495,6,0,P|112:206|120:263,1,115.49999647522,4|10,3:2|0:0,0:0:0:0:
90,313,78950,1,2,0:0:0:0:
90,313,79101,2,0,L|34:328,2,57.7499982376099,2|2|10,3:2|3:2|0:0,0:0:0:0:
129,355,79556,2,0,P|189:367|243:344,1,115.49999647522,2|2,3:2|3:2,0:0:0:0:
285,314,80011,1,10,0:0:0:0:
392,355,80314,1,2,0:0:0:0:
476,276,80617,1,10,3:2:0:0:
417,176,80920,6,0,P|355:167|307:191,1,115.49999647522,4|10,3:2|0:0,0:0:0:0:
264,226,81374,1,2,0:0:0:0:
264,226,81526,2,0,L|270:286,2,57.7499982376099,2|2|10,3:2|3:2|0:0,0:0:0:0:
216,193,81980,2,0,P|164:169|107:179,1,115.49999647522,2|2,0:0|3:2,0:0:0:0:
56,206,82435,1,10,0:0:0:0:
15,97,82738,2,0,L|9:39,2,57.7499982376099,2|2|10,0:0|3:2|0:0,0:0:0:0:
120,50,83344,6,0,P|181:51|240:65,1,115.49999647522,4|10,3:2|0:0,0:0:0:0:
265,110,83798,1,2,0:0:0:0:
265,110,83950,2,0,L|322:104,2,57.7499982376099,2|2|10,3:2|3:2|0:0,0:0:0:0:
233,158,84404,2,0,P|220:216|242:271,1,115.49999647522,2|2,3:2|3:2,0:0:0:0:
271,314,84859,1,10,0:0:0:0:
373,260,85162,2,0,L|438:269,1,57.7499982376099,2|2,0:0|3:2,0:0:0:0:
487,274,85465,1,12,3:2:0:0:
487,274,85617,1,10,0:0:0:0:
256,192,85768,12,0,88192,0:0:0:0:
