osu file format v14

[General]
AudioFilename: audio.mp3
AudioLeadIn: 0
PreviewTime: 46071
Countdown: 0
SampleSet: Soft
StackLeniency: 0.7
Mode: 0
LetterboxInBreaks: 0
WidescreenStoryboard: 0

[Editor]
DistanceSpacing: 1.6
BeatDivisor: 4
GridSize: 4
TimelineZoom: 2

[Metadata]
Title:Happening * Diary (TV Size)
TitleUnicode:ハプニング☆ダイアリー (TV Size)
Artist:Kouda Yumeha
ArtistUnicode:幸田夢波
Creator:kunka
Version:Master
Source:Fate/kaleid liner プリズマ☆イリヤ ツヴァイ ヘルツ!
Tags:ed ending japanese anime j-pop jpop Prisma☆Illya 2wei Zwei Herz! デ プレッツェ Akitoshi Corinn -Laura- Sekai Sekai-nyan Sekaii HabiHolic kunkakunkakunkakunka
BeatmapID:3776294
BeatmapSetID:1838790

[Difficulty]
HPDrainRate:6.5
CircleSize:4.5
OverallDifficulty:9
ApproachRate:9.5
SliderMultiplier:1.8
SliderTickRate:1

[Events]
//Background and Video events
0,0,"BG.jpg",0,0
Video,9,"Happening Diary.mp4"
//Break Periods
//Storyboard Layer 0 (Background)
//Storyboard Layer 1 (Fail)
//Storyboard Layer 2 (Pass)
//Storyboard Layer 3 (Foreground)
//Storyboard Layer 4 (Overlay)
//Storyboard Sound Samples

[TimingPoints]
-292,303.030303030303,4,2,1,50,1,0
617,-142.857142857143,4,2,1,50,0,0
844,-142.857142857143,4,2,1,5,0,0
920,-90.9090909090909,4,2,1,70,0,0
2208,-90.9090909090909,4,2,1,5,0,0
2283,-90.9090909090909,4,2,1,70,0,0
4632,-90.9090909090909,4,2,1,5,0,0
4708,-90.9090909090909,4,2,1,70,0,0
7056,-90.9090909090909,4,2,1,5,0,0
7132,-90.9090909090909,4,2,1,70,0,0
9480,-90.9090909090909,4,2,1,5,0,0
9556,-90.9090909090909,4,2,1,70,0,0
10617,-125,4,2,1,50,0,0
10844,-125,4,2,1,5,0,0
10920,-125,4,2,1,50,0,0
11904,-125,4,2,1,5,0,0
11980,-125,4,2,1,50,0,0
13268,-125,4,2,1,5,0,0
13344,-125,4,2,1,50,0,0
14329,-125,4,2,1,5,0,0
14404,-125,4,2,1,50,0,0
15692,-125,4,2,1,5,0,0
15768,-125,4,2,1,50,0,0
16753,-125,4,2,1,5,0,0
16829,-125,4,2,1,50,0,0
18117,-125,4,2,1,5,0,0
18192,-125,4,2,1,50,0,0
19101,-117.647058823529,4,2,1,55,0,0
20314,-111.111111111111,4,2,1,60,0,0
20541,-111.111111111111,4,2,1,5,0,0
20617,-111.111111111111,4,2,1,60,0,0
21601,-111.111111111111,4,2,1,5,0,0
21677,-111.111111111111,4,2,1,60,0,0
22965,-111.111111111111,4,2,1,5,0,0
23041,-111.111111111111,4,2,1,60,0,0
24026,-111.111111111111,4,2,1,5,0,0
24101,-111.111111111111,4,2,1,60,0,0
25389,-111.111111111111,4,2,1,5,0,0
25465,-111.111111111111,4,2,1,60,0,0
26450,-111.111111111111,4,2,1,5,0,0
26526,-111.111111111111,4,2,1,60,0,0
27814,-111.111111111111,4,2,1,5,0,0
27889,-111.111111111111,4,2,1,60,0,0
28874,-111.111111111111,4,2,1,5,0,0
28950,-111.111111111111,4,2,1,60,0,0
30011,-90.9090909090909,4,2,1,65,0,0
33647,-71.4285714285714,4,2,1,80,0,0
33874,-71.4285714285714,4,2,1,5,0,0
33950,-71.4285714285714,4,2,1,80,0,0
34177,-71.4285714285714,4,2,1,5,0,0
34253,-71.4285714285714,4,2,1,80,0,0
34480,-71.4285714285714,4,2,1,5,0,0
34556,-71.4285714285714,4,2,1,80,0,0
34859,-90.9090909090909,4,2,1,65,0,0
39708,-86.9565217391304,4,2,1,70,0,0
43344,-86.9565217391304,4,2,1,73,0,0
43950,-86.9565217391304,4,2,1,76,0,0
44556,-80,4,2,1,80,0,0
46071,-125,4,2,1,60,0,0
46298,-125,4,2,1,5,0,0
46374,-83.3333333333333,4,2,1,75,0,0
46601,-83.3333333333333,4,2,1,5,0,0
46677,-125,4,2,1,60,0,0
46904,-125,4,2,1,5,0,0
46980,-86.9565217391304,4,2,1,70,0,1
47207,-86.9565217391304,4,2,1,5,0,1
47283,-86.9565217391304,4,2,1,70,0,1
48420,-86.9565217391304,4,2,1,5,0,1
48495,-86.9565217391304,4,2,1,70,0,1
49632,-86.9565217391304,4,2,1,5,0,1
49707,-86.9565217391304,4,2,1,70,0,1
52056,-86.9565217391304,4,2,1,5,0,1
52132,-86.9565217391304,4,2,1,70,0,1
55768,-100,4,2,1,60,0,1
55995,-100,4,2,1,5,0,1
56071,-71.4285714285714,4,2,1,70,0,1
56298,-71.4285714285714,4,2,1,5,0,1
56374,-55.5555555555556,4,2,1,80,0,1
56601,-55.5555555555556,4,2,1,5,0,1
56677,-86.9565217391304,4,2,1,70,0,1
56904,-86.9565217391304,4,2,1,5,0,1
56980,-86.9565217391304,4,2,1,70,0,1
58117,-86.9565217391304,4,2,1,5,0,1
58192,-86.9565217391304,4,2,1,70,0,1
59329,-86.9565217391304,4,2,1,5,0,1
59404,-86.9565217391304,4,2,1,70,0,1
64177,-86.9565217391304,4,2,1,5,0,1
64253,-86.9565217391304,4,2,1,70,0,1
66374,-111.111111111111,4,2,1,55,0,0
73647,-125,4,2,1,50,0,0
74859,-105.263157894737,4,2,1,60,0,0
75086,-105.263157894737,4,2,1,5,0,0
75162,-105.263157894737,4,2,1,60,0,0
76071,-90.9090909090909,4,2,1,70,0,0
77359,-90.9090909090909,4,2,1,5,0,0
77435,-90.9090909090909,4,2,1,70,0,0
79783,-90.9090909090909,4,2,1,5,0,0
79859,-90.9090909090909,4,2,1,70,0,0
82207,-90.9090909090909,4,2,1,5,0,0
82283,-90.9090909090909,4,2,1,70,0,0
84632,-90.9090909090909,4,2,1,5,0,0
84707,-90.9090909090909,4,2,1,70,0,0
85692,-166.666666666667,4,2,1,60,0,0
86366,-166.666666666667,4,2,1,50,0,0
86980,-166.666666666667,4,2,1,40,0,0
87586,-166.666666666667,4,2,1,30,0,0
88192,-166.666666666667,4,2,1,5,0,0

[Colours]
Combo1 : 238,120,49
Combo2 : 34,177,27
Combo3 : 11,143,215
Combo4 : 231,24,117
Combo5 : 198,193,23

[HitObjects]
385,118,617,6,0,P|383:155|406:128,1,94.499997116089,2|0,3:2|0:0,0:0:0:0:
432,33,920,5,4,3:2:0:0:
491,179,1071,1,2,3:2:0:0:
343,237,1223,1,10,0:0:0:0:
284,91,1374,1,2,0:0:0:0:
441,262,1526,1,2,3:2:0:0:
322,364,1677,1,2,3:2:0:0:
263,217,1829,1,10,0:0:0:0:
473,183,1980,6,0,P|403:190|341:239,1,148.50000453186,2|0,0:0|0:0,0:0:0:0:
293,299,2283,1,0,3:0:0:0:
144,243,2435,2,0,P|98:228|49:236,1,99.0000030212403,10|2,3:2|3:2,0:0:0:0:
12,81,2738,1,2,0:0:0:0:
163,125,2889,1,2,3:2:0:0:
289,28,3041,1,10,0:0:0:0:
229,224,3192,1,2,0:0:0:0:
235,248,3268,1,2,0:0:0:0:
242,271,3344,5,4,3:2:0:0:
388,330,3495,1,2,3:2:0:0:
446,182,3647,1,10,0:0:0:0:
300,123,3798,1,2,0:0:0:0:
313,326,3950,1,2,3:2:0:0:
214,202,4101,1,2,3:2:0:0:
334,98,4253,1,10,0:0:0:0:
111,132,4404,6,0,P|183:115|262:144,1,148.50000453186,2|0,3:2|0:0,0:0:0:0:
311,189,4708,1,0,3:0:0:0:
445,104,4859,2,0,P|417:141|407:200,1,99.0000030212403,10|2,0:0|3:2,0:0:0:0:
327,329,5162,5,2,0:0:0:0:
171,354,5314,1,2,3:2:0:0:
52,248,5465,1,10,3:2:0:0:
59,90,5617,1,10,3:2:0:0:
244,216,5768,5,4,3:2:0:0:
389,155,5920,1,2,3:2:0:0:
180,71,6071,1,10,0:0:0:0:
325,9,6223,1,2,0:0:0:0:
330,218,6374,1,2,3:2:0:0:
175,180,6526,1,2,3:2:0:0:
65,293,6677,1,10,0:0:0:0:
267,353,6829,6,0,P|262:278|248:203,1,148.50000453186,2|0,0:0|0:0,0:0:0:0:
227,129,7132,1,0,3:0:0:0:
343,22,7283,2,0,P|392:16|438:44,1,99.0000030212403,10|2,0:0|3:2,0:0:0:0:
355,178,7586,1,2,0:0:0:0:
406,328,7738,1,2,3:2:0:0:
510,209,7889,1,10,0:0:0:0:
317,280,8041,1,2,0:0:0:0:
292,277,8117,1,2,0:0:0:0:
267,280,8192,5,4,3:2:0:0:
122,341,8344,1,2,3:2:0:0:
203,134,8495,1,10,0:0:0:0:
58,196,8647,1,2,0:0:0:0:
208,342,8798,1,2,3:2:0:0:
339,252,8950,1,2,3:2:0:0:
491,294,9101,1,10,0:0:0:0:
428,96,9253,6,0,L|279:121,1,148.50000453186,4|0,3:2|0:0,0:0:0:0:
203,134,9556,1,8,0:0:0:0:
40,39,9708,1,10,0:0:0:0:
37,226,9859,1,10,0:0:0:0:
178,53,10011,6,0,P|197:44|228:37,1,49.5000015106202,10|10,3:2|0:0,0:0:0:0:
304,40,10162,2,0,P|324:46|352:62,1,49.5000015106202,10|10,0:0|0:0,0:0:0:0:
403,118,10314,2,0,P|413:136|422:166,1,49.5000015106202,10|2,0:0|0:0,0:0:0:0:
421,242,10465,2,0,P|414:262|399:290,1,49.5000015106202,10|2,0:0|0:0,0:0:0:0:
344,343,10617,6,0,P|287:325|236:328,1,108,4|0,3:2|0:0,0:0:0:0:
192,346,10920,1,2,3:2:0:0:
192,346,11071,2,0,L|176:276,1,72,2|8,0:0|0:0,0:0:0:0:
81,238,11374,2,0,L|65:308,1,72,2|0,0:0|0:0,0:0:0:0:
33,146,11677,6,0,P|81:129|135:148,1,108,2|0,3:2|0:0,0:0:0:0:
177,171,11980,1,2,0:0:0:0:
177,171,12132,2,0,P|215:178|246:170,1,72,2|2,3:2|0:0,0:0:0:0:
335,120,12435,1,10,0:0:0:0:
335,120,12586,1,2,3:2:0:0:
370,25,12738,1,2,0:0:0:0:
370,25,12889,1,2,3:2:0:0:
178,78,13041,6,0,P|213:117|237:173,1,108,2|0,3:2|0:0,0:0:0:0:
244,209,13344,1,2,3:2:0:0:
244,209,13495,2,0,P|229:246|232:289,1,72,2|8,0:0|0:0,0:0:0:0:
328,299,13798,2,0,P|343:262|340:219,1,72,2|0,0:0|0:0,0:0:0:0:
341,71,14101,6,0,P|386:44|439:53,1,108,2|0,3:2|0:0,0:0:0:0:
474,76,14404,1,2,0:0:0:0:
474,76,14556,2,0,P|466:111|464:152,1,72,2|2,3:2|0:0,0:0:0:0:
464,248,14859,1,10,0:0:0:0:
464,248,15011,1,2,3:2:0:0:
365,224,15162,1,2,0:0:0:0:
365,224,15314,1,2,3:2:0:0:
216,324,15465,6,0,P|269:335|321:319,1,108,2|0,3:2|0:0,0:0:0:0:
354,294,15768,1,2,3:2:0:0:
354,294,15920,2,0,P|356:258|364:223,1,72,2|8,0:0|0:0,0:0:0:0:
454,176,16223,2,0,P|462:211|464:246,1,72,2|0,0:0|0:0,0:0:0:0:
285,246,16526,6,0,P|233:243|179:261,1,108,2|0,3:2|0:0,0:0:0:0:
142,281,16829,1,2,0:0:0:0:
142,281,16980,2,0,P|106:281|71:270,1,72,2|2,3:2|0:0,0:0:0:0:
18,184,17283,1,10,0:0:0:0:
18,184,17435,1,2,3:2:0:0:
87,110,17586,2,0,P|122:109|157:120,1,72,2|0,0:0|3:0,0:0:0:0:
297,36,17889,6,0,P|264:71|246:133,1,108,2|0,3:2|0:0,0:0:0:0:
260,168,18192,1,2,3:2:0:0:
260,168,18344,1,2,0:0:0:0:
215,257,18495,1,10,0:0:0:0:
215,257,18647,2,0,P|250:256|285:267,1,72,2|0,3:2|0:0,0:0:0:0:
373,316,18950,1,2,3:2:0:0:
451,165,19101,5,4,3:2:0:0:
292,185,19253,1,10,0:0:0:0:
406,295,19404,1,10,0:0:0:0:
292,185,19556,1,10,3:2:0:0:
200,266,19708,5,10,3:2:0:0:
168,287,19783,1,8,0:0:0:0:
131,295,19859,1,8,0:0:0:0:
93,290,19935,1,8,0:0:0:0:
59,272,20011,2,0,P|52:255|43:237,1,38.2500007295609,10|0,0:0|0:0,0:0:0:0:
99,138,20162,2,0,P|105:154|114:172,1,38.2500007295609,10|0,0:0|0:0,0:0:0:0:
231,198,20314,6,0,P|282:170|350:171,1,121.499996292114,4|0,3:2|0:0,0:0:0:0:
420,197,20617,1,10,0:0:0:0:
330,291,20768,2,0,P|317:334|313:377,1,80.9999975280763,2|0,0:0|3:0,0:0:0:0:
188,333,21071,2,0,P|183:292|171:254,1,80.9999975280763,2|0,3:2|0:0,0:0:0:0:
32,118,21374,6,0,P|17:169|51:227,1,121.499996292114,10|0,0:0|0:0,0:0:0:0:
124,254,21677,1,2,3:2:0:0:
248,214,21829,2,0,P|286:204|333:211,1,80.9999975280763,10|0,0:0|0:0,0:0:0:0:
465,124,22132,1,2,3:2:0:0:
403,237,22283,1,2,3:2:0:0:
322,135,22435,2,0,P|310:94|305:55,1,80.9999975280763,10|0,0:0|0:0,0:0:0:0:
106,61,22738,6,0,B|33:54|19:147|71:119,1,121.499996292114,2|0,3:2|0:0,0:0:0:0:
139,140,23041,1,10,0:0:0:0:
201,252,23192,2,0,P|213:290|217:330,1,80.9999975280763,2|0,0:0|3:0,0:0:0:0:
90,357,23495,2,0,P|77:318|73:278,1,80.9999975280763,2|0,3:2|0:0,0:0:0:0:
172,140,23798,6,0,B|224:112|224:160|292:140,1,121.499996292114,10|0,0:0|0:0,0:0:0:0:
364,110,24101,1,2,3:2:0:0:
456,201,24253,2,0,P|417:208|386:238,1,80.9999975280763,10|2,0:0|0:0,0:0:0:0:
332,353,24556,1,2,3:2:0:0:
206,322,24707,1,2,3:2:0:0:
297,229,24859,1,10,0:0:0:0:
463,318,25011,1,10,0:0:0:0:
463,318,25086,1,8,0:0:0:0:
463,318,25162,6,0,P|472:259|454:198,1,121.499996292114,2|0,3:2|0:0,0:0:0:0:
407,134,25465,1,10,0:0:0:0:
277,136,25617,2,0,P|240:158|198:159,1,80.9999975280763,2|0,0:0|3:0,0:0:0:0:
156,38,25920,2,0,P|192:15|235:15,1,80.9999975280763,2|0,3:2|0:0,0:0:0:0:
379,140,26223,6,0,P|347:177|318:245,1,121.499996292114,10|0,0:0|0:0,0:0:0:0:
298,322,26526,1,2,3:2:0:0:
171,293,26677,1,10,0:0:0:0:
292,357,26829,1,2,0:0:0:0:
208,192,26980,2,0,P|202:153|217:110,1,80.9999975280763,2|0,3:2|3:0,0:0:0:0:
339,75,27283,2,0,P|344:113|329:156,1,80.9999975280763,10|0,0:0|3:0,0:0:0:0:
140,92,27586,6,0,P|77:95|26:138,1,121.499996292114,2|0,3:2|0:0,0:0:0:0:
10,207,27889,1,10,0:0:0:0:
61,327,28041,1,2,0:0:0:0:
266,237,28192,1,0,3:0:0:0:
189,342,28344,1,2,3:2:0:0:
138,222,28495,1,0,0:0:0:0:
317,357,28647,6,0,P|381:361|423:324,1,121.499996292114,10|0,0:0|0:0,0:0:0:0:
457,252,28950,1,0,3:0:0:0:
368,150,29101,2,0,P|327:151|288:160,1,80.9999975280763,10|0,0:0|3:0,0:0:0:0:
168,241,29404,1,10,0:0:0:0:
98,131,29556,1,2,3:2:0:0:
159,17,29707,1,10,0:0:0:0:
4,168,29859,1,10,0:0:0:0:
4,168,29935,1,8,0:0:0:0:
4,168,30011,6,0,P|24:209|38:259,1,99.0000030212403,4|0,3:0|0:0,0:0:0:0:
191,302,30314,2,0,P|232:281|282:267,1,99.0000030212403,10|0,0:0|0:0,0:0:0:0:
440,288,30617,1,2,3:2:0:0:
379,142,30768,1,0,0:0:0:0:
296,277,30920,2,0,P|306:327|314:381,1,99.0000030212403,10|0,0:0|0:0,0:0:0:0:
449,195,31223,6,0,P|425:153|374:142,1,99.0000030212403,4|0,3:0|0:0,0:0:0:0:
224,181,31526,2,0,P|200:222|153:234,1,99.0000030212403,10|0,0:0|0:0,0:0:0:0:
0,176,31829,1,2,3:2:0:0:
108,290,31980,1,2,0:0:0:0:
178,116,32132,2,0,P|229:102|274:119,1,99.0000030212403,10|0,0:0|0:0,0:0:0:0:
484,90,32435,6,0,P|457:138|448:193,1,99.0000030212403,4|0,3:0|0:0,0:0:0:0:
367,317,32738,2,0,P|356:268|331:226,1,99.0000030212403,10|2,0:0|0:0,0:0:0:0:
198,139,33041,1,2,3:2:0:0:
44,176,33192,1,0,0:0:0:0:
67,18,33344,1,10,0:0:0:0:
203,97,33495,1,2,0:0:0:0:
2,231,33647,6,0,P|84:219|161:291,1,188.999994232178,4|0,3:2|0:0,0:0:0:0:
236,342,33950,2,0,L|217:146,1,188.999994232178,12|0,3:2|0:0,0:0:0:0:
303,196,34253,2,0,P|394:205|459:141,1,188.999994232178,4|0,3:2|0:0,0:0:0:0:
432,50,34556,2,0,L|236:69,1,188.999994232178,12|0,3:2|0:0,0:0:0:0:
185,152,34859,6,0,P|188:205|155:240,1,99.0000030212403,4|0,3:0|0:0,0:0:0:0:
7,192,35162,2,0,P|2:143|32:106,1,99.0000030212403,10|0,0:0|0:0,0:0:0:0:
180,47,35465,1,2,3:2:0:0:
321,118,35617,1,2,0:0:0:0:
219,239,35768,2,0,P|222:293|231:342,1,99.0000030212403,10|0,0:0|0:0,0:0:0:0:
440,262,36071,6,0,P|402:231|354:236,1,99.0000030212403,4|0,3:0|0:0,0:0:0:0:
198,205,36374,2,0,P|246:209|283:179,1,99.0000030212403,10|0,0:0|0:0,0:0:0:0:
319,24,36677,1,2,3:2:0:0:
176,93,36829,1,2,0:0:0:0:
29,33,36980,2,0,P|13:75|24:132,1,99.0000030212403,10|0,0:0|0:0,0:0:0:0:
232,186,37283,6,0,P|281:176|336:172,1,99.0000030212403,4|0,3:0|0:0,0:0:0:0:
267,318,37586,2,0,P|217:308|163:304,1,99.0000030212403,10|2,0:0|0:0,0:0:0:0:
108,157,37889,1,2,3:2:0:0:
108,157,38040,1,0,0:0:0:0:
219,44,38192,2,0,P|268:48|316:57,1,99.0000030212403,10|0,0:0|0:0,0:0:0:0:
465,226,38495,6,0,P|416:227|377:193,1,99.0000030212403,4|0,3:0|0:0,0:0:0:0:
346,40,38798,1,10,0:0:0:0:
227,145,38950,1,2,0:0:0:0:
18,66,39101,2,0,P|42:102|58:161,1,99.0000030212403,2|0,3:2|0:0,0:0:0:0:
133,294,39404,2,0,P|145:246|172:204,1,99.0000030212403,10|0,0:0|0:0,0:0:0:0:
398,117,39708,5,4,3:2:0:0:
246,52,39859,1,2,0:0:0:0:
323,199,40011,1,10,0:0:0:0:
357,12,40162,1,2,0:0:0:0:
357,12,40238,1,2,0:0:0:0:
357,12,40314,2,0,P|302:18|253:33,1,103.500001974106,2|2,3:2|3:2,0:0:0:0:
179,71,40541,1,2,0:0:0:0:
155,81,40617,2,0,P|100:75|51:60,1,103.500001974106,10|2,0:0|0:0,0:0:0:0:
21,271,40920,5,2,3:2:0:0:
174,210,41071,1,2,3:2:0:0:
148,374,41223,1,10,0:0:0:0:
71,208,41374,1,2,0:0:0:0:
73,182,41450,1,2,0:0:0:0:
84,158,41526,1,2,3:2:0:0:
263,233,41677,1,2,3:2:0:0:
263,233,41829,2,0,P|315:221|374:214,1,103.500001974106,10|2,0:0|0:0,0:0:0:0:
427,277,42056,1,2,0:0:0:0:
412,302,42132,6,0,P|363:324|318:307,1,103.500001974106,2|2,3:2|0:0,0:0:0:0:
244,255,42359,1,2,0:0:0:0:
244,255,42435,1,10,0:0:0:0:
80,279,42586,2,0,P|91:308|92:334,1,51.7500009870529,2|2,0:0|0:0,0:0:0:0:
42,255,42738,2,0,P|40:206|71:163,1,103.500001974106,2|2,3:2|3:2,0:0:0:0:
146,134,42965,1,2,0:0:0:0:
146,134,43041,2,0,L|134:75,1,51.7500009870529,10|2,0:0|0:0,0:0:0:0:
220,106,43192,2,0,L|230:156,1,51.7500009870529,2|2,3:2|0:0,0:0:0:0:
187,253,43344,6,0,L|134:243,1,51.7500009870529,2|2,3:2|0:0,0:0:0:0:
205,290,43495,2,0,L|152:280,1,51.7500009870529,2|2,3:2|0:0,0:0:0:0:
223,327,43647,2,0,P|272:352|320:331,1,103.500001974106,10|2,0:0|0:0,0:0:0:0:
396,207,43950,5,2,3:2:0:0:
354,178,44025,1,2,0:0:0:0:
342,129,44101,1,2,3:2:0:0:
365,84,44177,1,2,0:0:0:0:
413,66,44253,1,10,0:0:0:0:
460,84,44328,1,2,0:0:0:0:
483,129,44404,1,2,0:0:0:0:
471,178,44480,1,2,0:0:0:0:
429,206,44556,5,12,0:0:0:0:
231,162,44707,1,0,3:0:0:0:
365,9,44859,1,12,0:0:0:0:
231,162,45010,1,0,3:0:0:0:
24,80,45162,5,12,0:0:0:0:
94,210,45314,1,0,3:0:0:0:
272,29,45465,2,0,P|261:81|253:145,1,112.5,12|0,0:0|3:0,0:0:0:0:
348,328,45768,1,10,3:2:0:0:
376,304,46071,6,0,P|429:306|492:318,1,108,2|0,0:0|0:0,0:0:0:0:
508,209,46374,6,0,P|418:190|352:236,1,161.999995056153,2|0,0:0|0:0,0:0:0:0:
315,131,46677,6,0,L|343:25,1,108,2|0,0:0|0:0,0:0:0:0:
204,80,46980,6,0,P|134:67|69:124,1,155.250002961159,4|0,3:2|0:0,0:0:0:0:
47,195,47283,1,10,0:0:0:0:
166,310,47435,2,0,P|211:285|271:278,1,103.500001974106,2|0,0:0|3:0,0:0:0:0:
425,303,47738,1,0,3:0:0:0:
359,151,47889,2,0,P|314:126|254:119,1,103.500001974106,10|0,0:0|0:0,0:0:0:0:
28,47,48192,6,0,P|105:67|140:131,1,155.250002961159,2|0,3:2|0:0,0:0:0:0:
107,205,48495,2,0,P|87:249|96:308,1,103.500001974106,10|0,0:0|0:0,0:0:0:0:
249,359,48798,1,2,3:2:0:0:
407,310,48950,1,0,3:0:0:0:
291,159,49101,1,10,0:0:0:0:
491,283,49253,1,2,3:2:0:0:
491,283,49329,1,2,0:0:0:0:
491,283,49404,6,0,P|468:224|383:224,1,155.250002961159,2|0,3:2|0:0,0:0:0:0:
318,271,49707,1,10,0:0:0:0:
156,232,49859,2,0,P|149:179|138:125,1,103.500001974106,2|0,0:0|3:0,0:0:0:0:
264,20,50162,1,0,3:0:0:0:
334,169,50314,2,0,P|323:219|317:270,1,103.500001974106,10|0,0:0|0:0,0:0:0:0:
125,345,50617,5,2,3:2:0:0:
38,204,50768,1,2,0:0:0:0:
184,125,50920,1,10,0:0:0:0:
271,266,51071,1,2,0:0:0:0:
133,187,51223,5,2,3:2:0:0:
155,52,51374,1,2,3:2:0:0:
262,140,51526,1,10,0:0:0:0:
17,136,51677,1,2,3:2:0:0:
17,136,51753,1,2,0:0:0:0:
17,136,51829,6,0,P|75:112|158:146,1,155.250002961159,4|0,3:2|0:0,0:0:0:0:
219,199,52132,1,10,0:0:0:0:
98,312,52283,2,0,P|92:257|82:199,1,103.500001974106,2|0,0:0|3:0,0:0:0:0:
136,43,52586,1,0,3:0:0:0:
300,65,52738,2,0,P|352:61|399:17,1,103.500001974106,10|0,0:0|0:0,0:0:0:0:
474,247,53041,5,2,3:2:0:0:
343,347,53192,2,0,P|347:295|391:248,1,103.500001974106,2|8,0:0|0:0,0:0:0:0:
460,111,53495,2,0,P|405:117|358:130,1,103.500001974106,2|0,0:0|3:0,0:0:0:0:
203,189,53798,1,0,3:0:0:0:
62,100,53950,1,10,0:0:0:0:
152,331,54101,1,2,3:2:0:0:
152,331,54177,1,2,0:0:0:0:
152,331,54253,5,4,3:2:0:0:
295,249,54404,1,2,0:0:0:0:
436,338,54556,1,8,0:0:0:0:
437,100,54707,2,0,P|382:106|335:119,1,103.500001974106,2|0,0:0|3:0,0:0:0:0:
185,196,55011,1,0,3:0:0:0:
24,157,55162,2,0,P|43:204|51:255,1,103.500001974106,10|0,0:0|0:0,0:0:0:0:
172,369,55465,2,0,P|180:318|199:270,1,103.500001974106,2|0,3:2|0:0,0:0:0:0:
236,67,55768,6,0,P|292:62|264:109,1,135,12|0,3:2|0:0,0:0:0:0:
226,63,56071,6,0,P|303:56|264:121,1,188.999994232178,12|0,3:2|0:0,0:0:0:0:
214,59,56374,6,0,P|313:50|262:133,1,242.999992584229,12|0,3:2|0:0,0:0:0:0:
176,213,56677,6,0,P|254:207|305:261,1,155.250002961159,4|0,3:2|0:0,0:0:0:0:
341,332,56980,1,10,0:0:0:0:
490,258,57132,2,0,P|490:205|478:150,1,103.500001974106,2|0,0:0|3:0,0:0:0:0:
370,30,57435,1,0,3:0:0:0:
275,165,57586,2,0,P|275:218|287:273,1,103.500001974106,10|0,0:0|0:0,0:0:0:0:
50,311,57889,6,0,P|119:284|196:310,1,155.250002961159,2|0,3:2|0:0,0:0:0:0:
265,348,58192,2,0,P|299:307|349:292,1,103.500001974106,10|0,0:0|0:0,0:0:0:0:
510,312,58495,1,2,3:2:0:0:
458,154,58647,1,0,3:0:0:0:
298,196,58798,1,10,0:0:0:0:
66,127,58950,1,2,3:2:0:0:
66,127,59026,1,2,0:0:0:0:
66,127,59101,6,0,B|104:195|32:201|79:274,1,155.250002961159,2|0,3:2|0:0,0:0:0:0:
129,340,59404,1,10,0:0:0:0:
287,291,59556,2,0,P|341:296|397:312,1,103.500001974106,2|0,0:0|3:0,0:0:0:0:
492,179,59859,1,0,3:0:0:0:
469,15,60011,2,0,P|415:20|359:36,1,103.500001974106,10|0,0:0|0:0,0:0:0:0:
158,54,60314,5,2,3:2:0:0:
244,195,60465,1,2,0:0:0:0:
99,274,60617,1,10,0:0:0:0:
12,132,60768,1,2,0:0:0:0:
160,326,60920,5,2,3:2:0:0:
25,304,61071,1,2,3:2:0:0:
113,197,61223,1,10,0:0:0:0:
319,317,61374,1,2,3:2:0:0:
319,317,61450,1,2,0:0:0:0:
319,317,61526,5,4,3:2:0:0:
338,153,61677,2,0,L|238:179,1,103.500001974106,2|8,0:0|0:0,0:0:0:0:
91,257,61980,2,0,P|68:213|76:158,1,103.500001974106,2|0,0:0|3:0,0:0:0:0:
194,28,62283,1,0,3:0:0:0:
38,84,62435,2,0,P|88:78|134:101,1,103.500001974106,10|0,0:0|0:0,0:0:0:0:
363,25,62738,5,2,3:2:0:0:
481,139,62889,2,0,P|457:189|449:246,1,103.500001974106,2|8,0:0|0:0,0:0:0:0:
299,309,63192,2,0,P|289:258|267:211,1,103.500001974106,2|0,0:0|3:0,0:0:0:0:
123,128,63495,1,0,3:0:0:0:
21,259,63647,1,10,0:0:0:0:
234,368,63798,1,2,3:2:0:0:
234,368,63874,1,2,0:0:0:0:
234,368,63950,6,0,P|311:332|380:326,1,155.250002961159,2|0,3:2|0:0,0:0:0:0:
462,340,64253,1,10,0:0:0:0:
400,186,64404,2,0,P|347:161|299:157,1,103.500001974106,2|0,0:0|3:0,0:0:0:0:
154,231,64707,1,0,3:0:0:0:
0,168,64859,2,0,P|11:218|15:289,1,103.500001974106,10|0,0:0|0:0,0:0:0:0:
165,355,65162,5,2,3:2:0:0:
224,135,65313,1,2,0:0:0:0:
80,214,65465,1,10,0:0:0:0:
311,276,65616,1,2,0:0:0:0:
467,97,65768,6,0,P|452:142|445:199,1,103.500001974106,2|0,3:2|3:0,0:0:0:0:
367,228,65995,1,2,0:0:0:0:
367,228,66071,2,0,P|346:209|317:197,1,51.7500009870529,8|0,0:0|0:0,0:0:0:0:
242,217,66223,2,0,P|234:239|231:268,1,51.7500009870529,2|0,3:2|0:0,0:0:0:0:
281,340,66374,6,0,P|353:325|431:366,2,161.999995056153,4|0|8,3:2|3:0|3:2,0:0:0:0:
193,297,67132,1,0,0:0:0:0:
117,357,67283,2,0,P|79:370|37:355,1,80.9999975280763,2|0,3:2|0:0,0:0:0:0:
7,266,67586,2,0,P|9:226|17:181,1,80.9999975280763,0|0,3:0|0:0,0:0:0:0:
56,97,67889,1,0,3:0:0:0:
244,163,68192,2,0,P|281:177|324:203,1,80.9999975280763,10|0,0:0|0:0,0:0:0:0:
363,183,68420,1,2,0:0:0:0:
363,183,68495,2,0,P|369:143|368:93,1,80.9999975280763,0|2,3:0|0:0,0:0:0:0:
279,63,68798,6,0,P|206:77|128:36,2,161.999995056153,2|0|8,3:2|3:0|3:2,0:0:0:0:
360,9,69556,1,0,0:0:0:0:
440,64,69708,2,0,P|468:92|477:142,1,80.9999975280763,2|0,3:2|0:0,0:0:0:0:
307,209,70011,1,0,3:0:0:0:
397,243,70162,1,8,0:0:0:0:
261,312,70314,2,0,L|270:224,1,80.9999975280763,0|0,3:0|0:0,0:0:0:0:
175,143,70617,2,0,B|74:103|44:174|73:200,1,161.999995056153,10|0,0:0|3:0,0:0:0:0:
128,275,71071,1,2,0:0:0:0:
269,231,71223,6,0,L|239:68,2,161.999995056153,2|0|8,3:2|3:0|3:2,0:0:0:0:
485,165,72132,2,0,P|469:199|458:242,1,80.9999975280763,2|0,3:2|0:0,0:0:0:0:
368,311,72435,2,0,P|357:272|341:234,1,80.9999975280763,2|0,3:2|0:0,0:0:0:0:
233,199,72738,2,0,P|194:209|156:225,1,80.9999975280763,2|0,3:2|0:0,0:0:0:0:
102,326,73041,2,0,P|140:336|178:352,1,80.9999975280763,10|0,0:0|0:0,0:0:0:0:
291,345,73344,2,0,P|301:306|317:268,1,80.9999975280763,2|0,3:2|0:0,0:0:0:0:
371,182,73647,5,10,3:2:0:0:
366,153,73950,1,2,0:0:0:0:
354,126,74253,1,2,0:0:0:0:
338,101,74556,1,2,0:0:0:0:
312,78,74859,6,0,P|246:80|186:94,1,128.249996575356,10|0,0:0|0:0,0:0:0:0:
118,119,75162,1,0,3:0:0:0:
289,228,75314,1,10,0:0:0:0:
231,351,75465,1,0,3:0:0:0:
109,287,75617,1,0,3:0:0:0:
288,191,75768,2,0,P|333:192|374:201,1,85.4999977169037,10|0,0:0|0:0,0:0:0:0:
124,326,76071,5,4,3:2:0:0:
65,180,76222,1,2,3:2:0:0:
272,268,76374,1,10,0:0:0:0:
213,122,76525,1,2,0:0:0:0:
423,242,76677,1,2,3:2:0:0:
301,344,76829,1,2,3:2:0:0:
242,198,76980,1,10,0:0:0:0:
465,94,77132,6,0,P|391:81|324:106,1,148.50000453186,2|0,0:0|0:0,0:0:0:0:
265,159,77435,1,2,3:2:0:0:
102,99,77586,2,0,P|119:144|130:200,1,99.0000030212403,10|2,0:0|3:2,0:0:0:0:
23,312,77889,1,2,0:0:0:0:
171,367,78041,1,2,3:2:0:0:
277,248,78192,1,10,0:0:0:0:
62,227,78344,1,2,0:0:0:0:
54,203,78420,1,2,0:0:0:0:
56,178,78495,5,4,3:2:0:0:
115,32,78646,1,2,3:2:0:0:
204,236,78798,1,10,0:0:0:0:
263,90,78949,1,2,0:0:0:0:
118,238,79101,1,2,3:2:0:0:
227,353,79253,1,2,3:2:0:0:
359,267,79404,1,10,0:0:0:0:
115,308,79556,6,0,P|83:236|109:175,1,148.50000453186,2|0,3:2|0:0,0:0:0:0:
168,123,79859,1,2,3:2:0:0:
306,201,80011,2,0,P|286:245|272:295,1,99.0000030212403,10|2,0:0|3:2,0:0:0:0:
422,240,80314,5,2,0:0:0:0:
367,91,80465,1,2,3:2:0:0:
224,20,80617,1,10,3:2:0:0:
73,68,80768,1,10,3:2:0:0:
198,273,80920,5,4,3:2:0:0:
287,69,81071,1,2,3:2:0:0:
139,127,81223,1,10,0:0:0:0:
346,215,81374,1,2,0:0:0:0:
147,207,81526,1,2,3:2:0:0:
271,109,81677,1,2,3:2:0:0:
281,267,81829,1,10,0:0:0:0:
27,283,81980,6,0,P|92:279|161:325,1,148.50000453186,2|0,0:0|0:0,0:0:0:0:
217,378,82283,1,2,3:2:0:0:
358,306,82435,2,0,P|355:257|350:208,1,99.0000030212403,10|2,0:0|3:2,0:0:0:0:
245,103,82738,1,2,0:0:0:0:
138,218,82889,1,2,3:2:0:0:
66,77,83041,1,10,0:0:0:0:
231,201,83192,1,2,0:0:0:0:
255,204,83268,1,2,0:0:0:0:
279,198,83344,5,4,3:2:0:0:
421,23,83495,1,2,3:2:0:0:
437,180,83647,1,10,0:0:0:0:
263,43,83798,1,2,0:0:0:0:
340,254,83950,1,2,3:2:0:0:
184,285,84102,1,2,3:2:0:0:
49,202,84253,1,10,0:0:0:0:
208,367,84404,6,0,P|208:290|227:214,1,148.50000453186,2|0,3:2|0:0,0:0:0:0:
268,154,84707,1,2,3:2:0:0:
166,32,84859,2,0,P|116:37|66:49,1,99.0000030212403,10|2,0:0|3:2,0:0:0:0:
109,228,85162,5,2,0:0:0:0:
10,113,85314,1,2,3:2:0:0:
234,130,85465,1,12,3:2:0:0:
109,228,85617,1,10,0:0:0:0:
256,192,85692,12,0,88192,0:0:0:0:
