osu file format v14

[General]
AudioFilename: audio.mp3
AudioLeadIn: 0
PreviewTime: 46071
Countdown: 0
SampleSet: Soft
StackLeniency: 0.7
Mode: 0
LetterboxInBreaks: 0
WidescreenStoryboard: 0

[Editor]
DistanceSpacing: 1.2
BeatDivisor: 4
GridSize: 4
TimelineZoom: 2

[Metadata]
Title:Happening * Diary (TV Size)
TitleUnicode:ハプニング☆ダイアリー (TV Size)
Artist:Kouda Yumeha
ArtistUnicode:幸田夢波
Creator:kunka
Version:Easy
Source:Fate/kaleid liner プリズマ☆イリヤ ツヴァイ ヘルツ!
Tags:ed ending japanese anime j-pop jpop Prisma☆Illya 2wei Zwei Herz! デ プレッツェ Akitoshi Corinn -Laura- Sekai Sekai-nyan Sekaii HabiHolic kunkakunkakunkakunka
BeatmapID:3780169
BeatmapSetID:1838790

[Difficulty]
HPDrainRate:2
CircleSize:3
OverallDifficulty:3
ApproachRate:4
SliderMultiplier:0.9
SliderTickRate:1

[Events]
//Background and Video events
0,0,"BG.jpg",0,0
Video,9,"Happening Diary.mp4"
//Break Periods
//Storyboard Layer 0 (Background)
//Storyboard Layer 1 (Fail)
//Storyboard Layer 2 (Pass)
//Storyboard Layer 3 (Foreground)
//Storyboard Layer 4 (Overlay)
//Storyboard Sound Samples

[TimingPoints]
-292,303.030303030303,4,2,1,50,1,0
920,-111.111111111111,4,2,1,70,0,0
10617,-111.111111111111,4,2,1,50,0,0
19101,-111.111111111111,4,2,1,55,0,0
20314,-111.111111111111,4,2,1,60,0,0
30011,-111.111111111111,4,2,1,65,0,0
33647,-111.111111111111,4,2,1,80,0,0
34859,-111.111111111111,4,2,1,65,0,0
39708,-111.111111111111,4,2,1,70,0,0
43344,-111.111111111111,4,2,1,73,0,0
43950,-111.111111111111,4,2,1,76,0,0
44556,-111.111111111111,4,2,1,80,0,0
46071,-111.111111111111,4,2,1,60,0,0
46374,-111.111111111111,4,2,1,75,0,0
46677,-111.111111111111,4,2,1,60,0,0
46980,-111.111111111111,4,2,1,70,0,1
55768,-111.111111111111,4,2,1,60,0,1
56071,-111.111111111111,4,2,1,70,0,1
56374,-111.111111111111,4,2,1,80,0,1
56677,-111.111111111111,4,2,1,70,0,1
66374,-111.111111111111,4,2,1,55,0,0
73647,-111.111111111111,4,2,1,50,0,0
74859,-111.111111111111,4,2,1,60,0,0
76071,-111.111111111111,4,2,1,70,0,0
85617,-111.111111111111,4,2,1,60,0,0
86366,-111.111111111111,4,2,1,50,0,0
86980,-111.111111111111,4,2,1,40,0,0
87586,-111.111111111111,4,2,1,30,0,0
88192,-111.111111111111,4,2,1,5,0,0

[Colours]
Combo1 : 238,120,49
Combo2 : 34,177,27
Combo3 : 11,143,215
Combo4 : 231,24,117
Combo5 : 198,193,23

[HitObjects]
92,94,920,6,0,P|80:56|88:13,2,80.9999975280763,4|10|2,3:2|0:0|3:2,0:0:0:0:
171,150,1829,1,10,0:0:0:0:
262,117,2132,2,0,P|343:110|410:149,1,161.999995056153,2|2,3:2|0:0,0:0:0:0:
478,218,3041,1,10,0:0:0:0:
417,294,3344,6,0,P|427:331|434:373,2,80.9999975280763,4|10|2,3:2|0:0|3:2,0:0:0:0:
350,226,4253,1,10,0:0:0:0:
270,281,4556,2,0,P|232:293|190:286,1,80.9999975280763,2|10,0:0|0:0,0:0:0:0:
132,209,5162,2,0,P|135:169|157:132,1,80.9999975280763,2|10,0:0|3:2,0:0:0:0:
243,91,5768,6,0,L|330:91,2,80.9999975280763,4|10|2,3:2|0:0|3:2,0:0:0:0:
177,18,6677,1,10,0:0:0:0:
93,66,6980,2,0,P|63:144|95:215,1,161.999995056153,2|2,3:2|0:0,0:0:0:0:
179,256,7889,1,10,0:0:0:0:
265,210,8192,6,0,L|265:123,2,80.9999975280763,4|10|2,3:2|0:0|3:2,0:0:0:0:
321,344,9253,2,0,P|270:363|206:342,1,121.499996292114,4|10,3:2|0:0,0:0:0:0:
132,281,10011,1,10,3:2:0:0:
36,297,10314,1,10,0:0:0:0:
5,204,10617,6,0,P|25:133|104:107,1,161.999995056153,4|8,3:2|0:0,0:0:0:0:
244,144,11677,2,0,P|304:136|364:134,1,121.499996292114,2|2,3:2|3:2,0:0:0:0:
462,141,12435,1,10,0:0:0:0:
473,335,13041,6,0,P|405:362|335:316,1,161.999995056153,2|8,3:2|0:0,0:0:0:0:
190,306,14101,2,0,P|127:315|70:299,1,121.499996292114,2|2,3:2|3:2,0:0:0:0:
3,230,14859,1,10,0:0:0:0:
102,63,15465,6,0,P|177:47|238:102,1,161.999995056153,2|8,3:2|0:0,0:0:0:0:
294,233,16526,2,0,P|285:293|303:354,1,121.499996292114,2|2,3:2|3:2,0:0:0:0:
398,354,17283,2,0,P|417:317|421:272,1,80.9999975280763,10|2,0:0|0:0,0:0:0:0:
432,181,17889,2,0,L|515:169,2,80.9999975280763,2|2|10,3:2|3:2|0:0,0:0:0:0:
307,105,18950,1,2,3:2:0:0:
231,43,19253,6,0,B|195:23|195:23|157:49|106:41,1,121.499996292114,10|10,0:0|3:2,0:0:0:0:
40,100,20011,1,10,0:0:0:0:
72,191,20314,6,0,P|91:254|101:309,1,121.499996292114,4|2,3:2|0:0,0:0:0:0:
187,353,21071,1,2,3:2:0:0:
271,305,21374,2,0,P|319:286|388:303,1,121.499996292114,10|10,0:0|0:0,0:0:0:0:
472,345,22132,1,2,3:2:0:0:
466,150,22738,6,0,P|403:158|347:172,1,121.499996292114,2|2,3:2|0:0,0:0:0:0:
267,228,23495,1,2,3:2:0:0:
208,305,23798,2,0,P|151:318|91:285,1,121.499996292114,10|10,0:0|0:0,0:0:0:0:
38,212,24556,1,2,3:2:0:0:
183,83,25162,6,0,B|243:79|226:128|299:125,1,121.499996292114,2|2,3:2|0:0,0:0:0:0:
386,99,25920,1,2,3:2:0:0:
442,178,26223,2,0,P|452:243|454:298,1,121.499996292114,10|10,0:0|0:0,0:0:0:0:
379,361,26980,2,0,P|338:366|290:361,1,80.9999975280763,2|10,3:2|0:0,0:0:0:0:
231,292,27586,6,0,P|227:251|232:211,2,80.9999975280763,2|10|0,3:2|0:0|3:0,0:0:0:0:
93,340,28647,1,10,0:0:0:0:
18,215,29101,1,10,0:0:0:0:
84,144,29404,2,0,P|122:135|163:144,1,80.9999975280763,10|10,0:0|0:0,0:0:0:0:
243,198,30011,6,0,P|319:226|398:188,1,161.999995056153,4|2,3:0|3:2,0:0:0:0:
452,121,30920,1,10,0:0:0:0:
385,50,31223,2,0,P|309:22|230:60,1,161.999995056153,4|2,3:0|3:2,0:0:0:0:
167,119,32132,1,10,0:0:0:0:
73,93,32435,2,0,P|66:52|45:11,2,80.9999975280763,4|10|2,3:0|0:0|3:2,0:0:0:0:
38,184,33344,1,10,0:0:0:0:
103,255,33647,6,0,L|189:241,1,80.9999975280763,4|12,3:2|3:2,0:0:0:0:
248,169,34253,2,0,L|327:182,1,80.9999975280763,4|12,3:2|3:2,0:0:0:0:
424,194,34859,6,0,P|447:269|402:340,1,161.999995056153,4|2,3:0|3:2,0:0:0:0:
315,371,35768,1,10,0:0:0:0:
236,314,36071,2,0,P|213:239|258:168,1,161.999995056153,4|2,3:0|3:2,0:0:0:0:
333,116,36980,1,10,0:0:0:0:
273,39,37283,6,0,P|232:37|190:46,1,80.9999975280763,4|10,3:0|0:0,0:0:0:0:
123,112,37889,2,0,P|121:152|130:195,1,80.9999975280763,2|10,3:2|0:0,0:0:0:0:
158,284,38495,1,4,3:0:0:0:
303,155,39101,2,0,L|383:164,1,80.9999975280763,2|10,3:2|0:0,0:0:0:0:
466,214,39708,6,0,B|483:251|483:251|462:287|459:343,1,121.499996292114,4|2,3:2|0:0,0:0:0:0:
316,355,40617,1,10,0:0:0:0:
233,303,40920,2,0,B|177:279|177:331|109:303,1,121.499996292114,2|2,3:2|0:0,0:0:0:0:
30,257,41677,1,2,3:2:0:0:
46,161,41980,1,2,0:0:0:0:
256,192,42132,12,12,44556,0:0:0:0:
257,173,46071,6,0,P|293:189|337:181,2,80.9999975280763,2|2|2,0:0|0:0|0:0,0:0:0:0:
181,111,46980,6,0,P|124:97|65:132,1,121.499996292114,4|2,3:2|0:0,0:0:0:0:
13,259,47889,1,10,0:0:0:0:
68,338,48192,2,0,L|154:326,1,80.9999975280763,2|10,3:2|0:0,0:0:0:0:
223,265,48798,2,0,L|309:253,1,80.9999975280763,2|10,3:2|0:0,0:0:0:0:
369,325,49404,6,0,P|445:338|510:288,2,161.999995056153,2|2|2,3:2|3:2|3:2,0:0:0:0:
303,253,50920,2,0,P|303:214|313:174,1,80.9999975280763,10|2,0:0|3:2,0:0:0:0:
340,80,51526,1,10,0:0:0:0:
256,30,51829,6,0,P|196:29|134:49,1,121.499996292114,4|2,3:2|0:0,0:0:0:0:
53,166,52738,1,10,0:0:0:0:
149,155,53041,2,0,P|209:154|271:174,1,121.499996292114,2|2,3:2|0:0,0:0:0:0:
402,116,53950,1,10,0:0:0:0:
453,198,54253,2,0,P|453:258|435:316,1,121.499996292114,4|2,3:2|0:0,0:0:0:0:
293,347,55162,1,10,0:0:0:0:
205,304,55465,1,2,3:2:0:0:
113,335,55768,6,0,P|77:351|33:343,2,80.9999975280763,12|12|12,3:2|3:2|3:2,0:0:0:0:
124,238,56677,6,0,P|129:184|185:156,1,121.499996292114,4|2,3:2|0:0,0:0:0:0:
328,176,57586,1,10,0:0:0:0:
419,208,57889,2,0,P|459:204|498:194,1,80.9999975280763,2|10,3:2|0:0,0:0:0:0:
480,98,58495,2,0,P|439:101|401:112,1,80.9999975280763,2|10,3:2|0:0,0:0:0:0:
328,176,59101,6,0,P|266:223|184:207,2,161.999995056153,2|2|2,3:2|3:2|3:2,0:0:0:0:
311,79,60617,2,0,P|271:67|228:67,1,80.9999975280763,10|2,0:0|3:2,0:0:0:0:
135,73,61223,1,10,0:0:0:0:
54,126,61526,6,0,B|40:164|40:164|58:199|63:256,1,121.499996292114,4|2,3:2|0:0,0:0:0:0:
162,350,62435,1,10,0:0:0:0:
255,323,62738,2,0,P|313:318|367:355,1,121.499996292114,2|2,3:2|0:0,0:0:0:0:
434,223,63647,1,10,0:0:0:0:
373,147,63950,6,0,P|309:148|249:164,1,121.499996292114,2|2,3:2|0:0,0:0:0:0:
136,249,64859,1,10,0:0:0:0:
63,184,65162,2,0,P|51:145|59:102,1,80.9999975280763,2|10,3:2|0:0,0:0:0:0:
123,35,65768,2,0,P|162:23|205:31,1,80.9999975280763,2|8,3:2|0:0,0:0:0:0:
268,99,66374,6,0,B|348:139|348:71|424:99,1,161.999995056153,4|8,3:2|3:2,0:0:0:0:
487,172,67283,2,0,P|497:252|449:319,1,161.999995056153,2|0,3:2|3:0,0:0:0:0:
365,357,68192,1,10,0:0:0:0:
215,233,68798,6,0,B|139:205|139:273|59:233,1,161.999995056153,2|8,3:2|3:2,0:0:0:0:
11,147,69708,1,2,3:2:0:0:
67,68,70011,2,0,L|150:70,1,80.9999975280763,0|0,3:0|3:0,0:0:0:0:
245,72,70617,1,10,0:0:0:0:
432,21,71223,6,0,B|422:58|445:98|445:98|412:129|411:170,1,161.999995056153,2|8,3:2|3:2,0:0:0:0:
410,267,72132,1,2,3:2:0:0:
324,313,72435,2,0,P|283:312|245:298,1,80.9999975280763,2|2,3:2|3:2,0:0:0:0:
185,222,73041,2,0,P|185:181|199:143,1,80.9999975280763,10|2,0:0|3:2,0:0:0:0:
249,60,73647,1,10,3:2:0:0:
249,60,74859,6,0,P|301:84|364:69,2,121.499996292114,10|10|10,0:0|0:0|0:0,0:0:0:0:
155,32,76071,6,0,P|113:35|74:48,2,80.9999975280763,4|10|2,3:2|0:0|3:2,0:0:0:0:
249,60,76980,1,10,0:0:0:0:
197,142,77283,2,0,P|171:218|193:295,1,161.999995056153,2|2,3:2|0:0,0:0:0:0:
263,361,78192,1,10,0:0:0:0:
338,299,78495,6,0,P|380:302|419:315,2,80.9999975280763,4|10|2,3:2|0:0|3:2,0:0:0:0:
267,231,79404,1,10,0:0:0:0:
192,294,79708,2,0,P|153:306|113:308,1,80.9999975280763,2|10,0:0|0:0,0:0:0:0:
41,243,80314,2,0,P|38:202|26:164,1,80.9999975280763,2|10,0:0|3:2,0:0:0:0:
105,107,80920,6,0,P|108:65|121:26,2,80.9999975280763,4|10|2,3:2|0:0|3:2,0:0:0:0:
174,174,81829,1,10,0:0:0:0:
262,134,82132,2,0,P|338:112|414:138,1,161.999995056153,2|2,3:2|0:0,0:0:0:0:
479,210,83041,1,10,0:0:0:0:
415,283,83344,6,0,P|427:321|429:361,2,80.9999975280763,4|10|2,3:2|0:0|3:2,0:0:0:0:
350,211,84253,1,10,0:0:0:0:
252,207,84556,2,0,P|210:209|173:221,1,80.9999975280763,2|10,3:2|0:0,0:0:0:0:
85,262,85162,1,2,0:0:0:0:
19,189,85465,1,12,3:2:0:0:
256,192,85617,12,0,88192,0:0:0:0:
