osu file format v14

[General]
AudioFilename: audio.mp3
AudioLeadIn: 0
PreviewTime: 60797
Countdown: 0
SampleSet: Normal
StackLeniency: 0.7
Mode: 1
LetterboxInBreaks: 0
WidescreenStoryboard: 1

[Editor]
DistanceSpacing: 1.6
BeatDivisor: 12
GridSize: 32
TimelineZoom: 1.3

[Metadata]
Title:Yuukyuu no Joukikikan
TitleUnicode:悠久の蒸気機関
Artist:Kou Ogata
ArtistUnicode:Kou Ogata
Creator:CallMeLyra
Version:Stingy's Muzukashii
Source:東方非想天則 ~ 超弩級ギニョルの謎を追え.
Tags:th12.3 irish celtic acoustic folk instrumental stingy k-waves LAB Akiyama Uni あきやまうに The Eternal Steam Engine Staff Roll Ending Credits 無常幻想詩 mujou gensoushi th15.5 東方憑依華 ~ Antinomy of Common Flowers. mandolin concertina tin whistle video game Touhou Hisoutensoku ~ Choudokyuu Ginyoru no Nazo wo Oe Unperceiving Unthinkable of Natural Law ~ Chase the Enigma of the Gargantuan Guignol 黄昏フロンティア Twilight Frontier Tasofro U2 上海アリス幻楽団 東方project ZUN team shanghai alice Hyouibana UNL AoCF
BeatmapID:3286774
BeatmapSetID:1519783

[Difficulty]
HPDrainRate:7
CircleSize:5
OverallDifficulty:4
ApproachRate:5
SliderMultiplier:1.4
SliderTickRate:1

[Events]
//Background and Video events
0,0,"MoF gang.jpg",0,-60
//Break Periods
//Storyboard Layer 0 (Background)
//Storyboard Layer 1 (Fail)
//Storyboard Layer 2 (Pass)
//Storyboard Layer 3 (Foreground)
//Storyboard Layer 4 (Overlay)
//Storyboard Sound Samples

[TimingPoints]
1110,937.5,4,1,0,50,1,0
1110,-90.9090909090909,4,1,0,50,0,0
16108,-76.9230769230769,4,1,0,50,0,0
30719,-71.4285714285714,4,1,0,50,0,0
30875,-68.9655172413793,4,1,0,50,0,0
31110,-66.6666666666667,4,1,0,70,0,1
46110,-66.6666666666667,4,1,0,70,0,0
61110,-66.6666666666667,4,1,0,70,0,1
75406,-66.6666666666667,4,1,0,70,0,1
75719,-66.6666666666667,4,1,0,70,0,1
76110,-66.6666666666667,4,1,0,70,0,0
76500,-66.6666666666667,4,1,0,70,0,0
76969,-66.6666666666667,4,1,0,70,0,0
77281,-66.6666666666667,4,1,0,70,0,0
77594,-66.6666666666667,4,1,0,70,0,0
77906,-66.6666666666667,4,1,0,70,0,0
78375,-66.6666666666667,4,1,0,70,0,0
78844,-66.6666666666667,4,1,0,70,0,0
79156,-66.6666666666667,4,1,0,70,0,0
79469,-66.6666666666667,4,1,0,70,0,0
79781,-66.6666666666667,4,1,0,70,0,0
80250,-66.6666666666667,4,1,0,70,0,0
80719,-66.6666666666667,4,1,0,70,0,0
81031,-66.6666666666667,4,1,0,70,0,0
81344,-66.6666666666667,4,1,0,70,0,0
81656,-66.6666666666667,4,1,0,70,0,0
82125,-66.6666666666667,4,1,0,70,0,0
82594,-66.6666666666667,4,1,0,70,0,0
82906,-66.6666666666667,4,1,0,70,0,0
83219,-66.6666666666667,4,1,0,70,0,0
83531,-66.6666666666667,4,1,0,70,0,0
84000,-66.6666666666667,4,1,0,70,0,0
84469,-66.6666666666667,4,1,0,70,0,0
84781,-66.6666666666667,4,1,0,70,0,0
85094,-66.6666666666667,4,1,0,70,0,0
85406,-66.6666666666667,4,1,0,70,0,0
85875,-66.6666666666667,4,1,0,70,0,0
86344,-66.6666666666667,4,1,0,70,0,0
86656,-66.6666666666667,4,1,0,70,0,0
86969,-66.6666666666667,4,1,0,70,0,0
87281,-66.6666666666667,4,1,0,70,0,0
87750,-66.6666666666667,4,1,0,70,0,0
88219,-66.6666666666667,4,1,0,70,0,0
88531,-66.6666666666667,4,1,0,70,0,0
88844,-66.6666666666667,4,1,0,70,0,0
89156,-66.6666666666667,4,1,0,70,0,0
89625,-66.6666666666667,4,1,0,70,0,0
90094,-66.6666666666667,4,1,0,70,0,0
90406,-66.6666666666667,4,1,0,70,0,0
90719,-66.6666666666667,4,1,0,70,0,0
91031,-66.6666666666667,4,1,0,70,0,0

[HitObjects]
256,192,1110,5,0,0:0:0:0:
256,192,2047,1,8,0:0:0:0:
256,192,2985,1,0,0:0:0:0:
256,192,3922,1,8,0:0:0:0:
256,192,4860,1,0,0:0:0:0:
256,192,5797,1,8,0:0:0:0:
256,192,6735,1,0,0:0:0:0:
256,192,7672,1,0,0:0:0:0:
256,192,8610,1,0,0:0:0:0:
256,192,9547,1,8,0:0:0:0:
256,192,10485,1,0,0:0:0:0:
256,192,11422,1,8,0:0:0:0:
256,192,12360,1,0,0:0:0:0:
256,192,13297,1,8,0:0:0:0:
256,192,14235,1,0,0:0:0:0:
256,192,15172,1,0,0:0:0:0:
256,192,16110,1,8,0:0:0:0:
256,192,16735,1,0,0:0:0:0:
256,192,17047,1,8,0:0:0:0:
256,192,17672,1,8,0:0:0:0:
256,192,17985,1,0,0:0:0:0:
256,192,18297,1,0,0:0:0:0:
256,192,18610,1,0,0:0:0:0:
256,192,18922,1,8,0:0:0:0:
256,192,19547,1,8,0:0:0:0:
256,192,19860,1,0,0:0:0:0:
256,192,20485,1,0,0:0:0:0:
256,192,20797,1,8,0:0:0:0:
256,192,21110,1,8,0:0:0:0:
256,192,21422,1,8,0:0:0:0:
256,192,21735,1,0,0:0:0:0:
256,192,22047,1,8,0:0:0:0:
256,192,22360,1,0,0:0:0:0:
256,192,22672,1,8,0:0:0:0:
256,192,23610,1,0,0:0:0:0:
256,192,24235,1,8,0:0:0:0:
256,192,24547,1,0,0:0:0:0:
256,192,25172,1,0,0:0:0:0:
256,192,25485,1,8,0:0:0:0:
256,192,25797,1,0,0:0:0:0:
256,192,26110,1,0,0:0:0:0:
256,192,26422,1,8,0:0:0:0:
256,192,27047,1,0,0:0:0:0:
256,192,27360,1,8,0:0:0:0:
256,192,27985,1,0,0:0:0:0:
256,192,28297,1,8,0:0:0:0:
256,192,28610,1,0,0:0:0:0:
256,192,28922,1,8,0:0:0:0:
256,192,29235,1,0,0:0:0:0:
256,192,29860,1,0,0:0:0:0:
256,192,30172,1,0,0:0:0:0:
256,192,31110,1,12,0:0:0:0:
256,192,31578,1,0,0:0:0:0:
256,192,31735,1,0,0:0:0:0:
256,192,32047,1,8,0:0:0:0:
256,192,32672,1,8,0:0:0:0:
256,192,32985,1,0,0:0:0:0:
256,192,33297,1,0,0:0:0:0:
256,192,33453,1,0,0:0:0:0:
256,192,33610,1,0,0:0:0:0:
256,192,33922,1,8,0:0:0:0:
256,192,34235,1,0,0:0:0:0:
256,192,34547,1,0,0:0:0:0:
256,192,34860,1,8,0:0:0:0:
256,192,35328,1,0,0:0:0:0:
256,192,35485,1,0,0:0:0:0:
256,192,35797,1,8,0:0:0:0:
256,192,36110,1,0,0:0:0:0:
256,192,36266,1,0,0:0:0:0:
256,192,36422,1,0,0:0:0:0:
256,192,36735,1,8,0:0:0:0:
256,192,37047,1,8,0:0:0:0:
256,192,37203,1,8,0:0:0:0:
256,192,37360,1,0,0:0:0:0:
256,192,37672,1,8,0:0:0:0:
256,192,37985,1,0,0:0:0:0:
256,192,38297,1,8,0:0:0:0:
256,192,38610,1,8,0:0:0:0:
256,192,39078,1,0,0:0:0:0:
256,192,39235,1,8,0:0:0:0:
256,192,39547,1,0,0:0:0:0:
256,192,40172,1,0,0:0:0:0:
256,192,40485,1,8,0:0:0:0:
256,192,40797,1,0,0:0:0:0:
256,192,40953,1,0,0:0:0:0:
256,192,41110,1,0,0:0:0:0:
256,192,41422,1,8,0:0:0:0:
256,192,41735,1,8,0:0:0:0:
256,192,42047,1,0,0:0:0:0:
256,192,42360,1,8,0:0:0:0:
256,192,42828,1,0,0:0:0:0:
256,192,42985,1,0,0:0:0:0:
256,192,43297,1,8,0:0:0:0:
256,192,43610,1,0,0:0:0:0:
256,192,43922,1,8,0:0:0:0:
256,192,44235,1,8,0:0:0:0:
256,192,44547,1,0,0:0:0:0:
256,192,44703,1,0,0:0:0:0:
256,192,44860,1,8,0:0:0:0:
256,192,45172,1,8,0:0:0:0:
256,192,46110,1,12,0:0:0:0:
256,192,46422,1,8,0:0:0:0:
256,192,46578,1,8,0:0:0:0:
256,192,46735,1,0,0:0:0:0:
256,192,47047,1,8,0:0:0:0:
256,192,47360,1,8,0:0:0:0:
256,192,47672,1,0,0:0:0:0:
256,192,47985,1,8,0:0:0:0:
256,192,48297,1,0,0:0:0:0:
256,192,48610,1,0,0:0:0:0:
256,192,48922,1,8,0:0:0:0:
256,192,49235,1,0,0:0:0:0:
256,192,49860,1,0,0:0:0:0:
256,192,50016,1,0,0:0:0:0:
256,192,50172,1,8,0:0:0:0:
256,192,50485,1,0,0:0:0:0:
256,192,50797,1,8,0:0:0:0:
256,192,51110,1,8,0:0:0:0:
256,192,51266,1,8,0:0:0:0:
256,192,51422,1,0,0:0:0:0:
256,192,51735,1,0,0:0:0:0:
256,192,52203,1,8,0:0:0:0:
256,192,52516,1,0,0:0:0:0:
256,192,52672,1,8,0:0:0:0:
256,192,52985,1,0,0:0:0:0:
256,192,53297,1,8,0:0:0:0:
256,192,53610,1,0,0:0:0:0:
256,192,53922,1,0,0:0:0:0:
256,192,54078,1,0,0:0:0:0:
256,192,54235,1,0,0:0:0:0:
256,192,54547,1,8,0:0:0:0:
256,192,54860,1,0,0:0:0:0:
256,192,55172,1,0,0:0:0:0:
256,192,55485,1,8,0:0:0:0:
256,192,55797,1,8,0:0:0:0:
256,192,56110,1,0,0:0:0:0:
256,192,56422,1,8,0:0:0:0:
256,192,56735,1,0,0:0:0:0:
256,192,57360,1,0,0:0:0:0:
256,192,57516,1,0,0:0:0:0:
256,192,57672,1,8,0:0:0:0:
256,192,57985,1,0,0:0:0:0:
256,192,58297,1,8,0:0:0:0:
256,192,58610,1,8,0:0:0:0:
256,192,58766,1,8,0:0:0:0:
256,192,58922,1,8,0:0:0:0:
256,192,59235,1,0,0:0:0:0:
256,192,59547,1,0,0:0:0:0:
256,192,59703,1,0,0:0:0:0:
256,192,59860,1,0,0:0:0:0:
256,192,60172,1,8,0:0:0:0:
256,192,60485,1,0,0:0:0:0:
256,192,60797,1,0,0:0:0:0:
256,192,61110,1,12,0:0:0:0:
256,192,61578,1,0,0:0:0:0:
256,192,61735,1,0,0:0:0:0:
256,192,62047,1,8,0:0:0:0:
256,192,62672,1,8,0:0:0:0:
256,192,62985,1,0,0:0:0:0:
256,192,63297,1,0,0:0:0:0:
256,192,63453,1,0,0:0:0:0:
256,192,63610,1,0,0:0:0:0:
256,192,63922,1,8,0:0:0:0:
256,192,64235,1,8,0:0:0:0:
256,192,64547,1,0,0:0:0:0:
256,192,64860,1,8,0:0:0:0:
256,192,65328,1,0,0:0:0:0:
256,192,65485,1,0,0:0:0:0:
256,192,65797,1,8,0:0:0:0:
256,192,66110,1,0,0:0:0:0:
256,192,66266,1,0,0:0:0:0:
256,192,66422,1,0,0:0:0:0:
256,192,66735,1,8,0:0:0:0:
256,192,67047,1,8,0:0:0:0:
256,192,67203,1,8,0:0:0:0:
256,192,67360,1,0,0:0:0:0:
256,192,67672,1,8,0:0:0:0:
256,192,67985,1,0,0:0:0:0:
256,192,68297,1,0,0:0:0:0:
256,192,68610,1,8,0:0:0:0:
256,192,69078,1,0,0:0:0:0:
256,192,69235,1,8,0:0:0:0:
256,192,69547,1,0,0:0:0:0:
256,192,70172,1,0,0:0:0:0:
256,192,70485,1,8,0:0:0:0:
256,192,70797,1,0,0:0:0:0:
256,192,70953,1,0,0:0:0:0:
256,192,71110,1,8,0:0:0:0:
256,192,71422,1,8,0:0:0:0:
256,192,71735,1,0,0:0:0:0:
256,192,72047,1,0,0:0:0:0:
256,192,72360,1,8,0:0:0:0:
256,192,72828,1,0,0:0:0:0:
256,192,72985,1,0,0:0:0:0:
256,192,73297,1,8,0:0:0:0:
256,192,73610,1,0,0:0:0:0:
256,192,73922,1,8,0:0:0:0:
256,192,74235,1,8,0:0:0:0:
256,192,74547,1,0,0:0:0:0:
256,192,74703,1,0,0:0:0:0:
256,192,74860,1,8,0:0:0:0:
256,192,75172,1,8,0:0:0:0:
256,192,76110,1,0,0:0:0:0:
256,192,76578,1,8,0:0:0:0:
256,192,77047,1,8,0:0:0:0:
256,192,77360,1,0,0:0:0:0:
256,192,77672,1,0,0:0:0:0:
256,192,77985,1,8,0:0:0:0:
256,192,78453,1,8,0:0:0:0:
256,192,78922,1,0,0:0:0:0:
256,192,79235,1,0,0:0:0:0:
256,192,79547,1,8,0:0:0:0:
256,192,79860,1,8,0:0:0:0:
256,192,82672,5,0,0:0:0:0:
256,192,82985,1,0,0:0:0:0:
256,192,83297,1,8,0:0:0:0:
256,192,83610,1,0,0:0:0:0:
256,192,84078,1,8,0:0:0:0:
256,192,84547,1,8,0:0:0:0:
256,192,84860,1,0,0:0:0:0:
256,192,85172,1,0,0:0:0:0:
256,192,85485,1,8,0:0:0:0:
256,192,85953,1,8,0:0:0:0:
256,192,86422,1,8,0:0:0:0:
256,192,86735,1,8,0:0:0:0:
256,192,87047,1,0,0:0:0:0:
256,192,87360,1,8,0:0:0:0:
256,192,88610,1,0,0:0:0:0:
256,192,88922,1,8,0:0:0:0:
256,192,89235,1,8,0:0:0:0:
256,192,89703,1,0,0:0:0:0:
256,192,90172,1,8,0:0:0:0:
256,192,90485,1,0,0:0:0:0:
256,192,90797,1,8,0:0:0:0:
256,192,91110,1,8,0:0:0:0:
256,192,91422,12,0,94547,0:0:0:0:
