osu file format v14

[General]
AudioFilename: audio.mp3
AudioLeadIn: 0
PreviewTime: 2540
Countdown: 1
SampleSet: None
StackLeniency: 0.7
Mode: 0
LetterboxInBreaks: 0
WidescreenStoryboard: 0

[Editor]
DistanceSpacing: 1.2
BeatDivisor: 4
GridSize: 4
TimelineZoom: 1

[Metadata]
Title:Sougen no mura saruuba
TitleUnicode:草原の村 サルーバ
Artist:Kou Ogata
ArtistUnicode:Kou Ogata
Creator:Ekoro
Version:Dream
Source:
Tags:k-waves LAB k waves irish folk
BeatmapID:1612575
BeatmapSetID:767184

[Difficulty]
HPDrainRate:4
CircleSize:4.5
OverallDifficulty:4.5
ApproachRate:7
SliderMultiplier:1.2
SliderTickRate:1

[Events]
//Background and Video events
0,0,"347688.jpg",0,0
//Break Periods
//Storyboard Layer 0 (Background)
//Storyboard Layer 1 (Fail)
//Storyboard Layer 2 (Pass)
//Storyboard Layer 3 (Foreground)
//Storyboard Sound Samples

[TimingPoints]
2540,833.333333333333,3,2,1,50,1,0

[Colours]
Combo1 : 255,140,85
Combo2 : 128,255,128
Combo3 : 255,255,128

[HitObjects]
40,244,2540,6,0,L|32:364,2,120,2|2|2,0:0|0:0|0:0,0:0:0:0:
144,148,5039,2,0,L|136:28,2,120,2|0|2,0:0|0:0|0:0,0:0:0:0:
184,288,7539,6,0,P|232:308|300:312,1,120,2|0,0:0|0:0,0:0:0:0:
368,288,8789,1,2,0:0:0:0:
388,356,9206,1,2,0:0:0:0:
320,380,9623,1,0,0:0:0:0:
299,312,10039,6,0,L|303:252,1,60,2|0,0:0|0:0,0:0:0:0:
332,188,10873,1,2,0:0:0:0:
332,188,11706,1,2,0:0:0:0:
404,176,12123,1,0,0:0:0:0:
332,188,12539,6,0,P|272:192|212:176,1,120,2|0,0:0|0:0,0:0:0:0:
214,177,13789,1,0,0:0:0:0:
188,108,14206,1,2,0:0:0:0:
260,120,14623,1,0,0:0:0:0:
188,108,15039,6,0,P|128:104|68:120,1,120,2|2,0:0|0:0,0:0:0:0:
70,119,16289,1,0,0:0:0:0:
8,156,16706,2,0,L|4:216,1,60,0|2,0:0|0:0,0:0:0:0:
32,284,17539,5,2,0:0:0:0:
88,328,17956,1,0,0:0:0:0:
160,344,18373,1,0,0:0:0:0:
228,320,18789,1,0,0:0:0:0:
296,296,19206,1,2,0:0:0:0:
368,312,19623,1,0,0:0:0:0:
424,356,20039,6,0,P|420:296|444:240,1,120,2|2,0:0|0:0,0:0:0:0:
442,241,22539,6,0,L|320:228,2,120,2|2|2,0:0|0:0|0:0,0:0:0:0:
384,108,25039,2,0,L|506:95,2,120,2|0|2,0:0|0:0|0:0,0:0:0:0:
240,120,27539,6,0,P|180:100|144:52,1,120,2|0,0:0|0:0,0:0:0:0:
80,28,28789,1,2,0:0:0:0:
12,56,29206,1,2,0:0:0:0:
68,100,29623,1,0,0:0:0:0:
0,128,30039,6,0,L|4:188,1,60,2|0,0:0|0:0,0:0:0:0:
44,248,30873,1,2,0:0:0:0:
44,248,31706,1,2,0:0:0:0:
20,316,32123,1,0,0:0:0:0:
60,376,32539,6,0,P|120:384|180:368,1,120,2|2,0:0|0:0,0:0:0:0:
300,292,34206,1,2,0:0:0:0:
240,160,35039,6,0,P|180:168|120:152,1,120,2|2,0:0|0:0,0:0:0:0:
0,76,36706,1,2,0:0:0:0:
128,12,37539,5,2,0:0:0:0:
128,12,38373,2,0,L|248:20,1,120,2|0,0:0|0:0,0:0:0:0:
320,24,39623,1,2,0:0:0:0:
392,28,40039,5,2,0:0:0:0:
441,78,40455,1,0,0:0:0:0:
452,148,40872,1,0,0:0:0:0:
420,211,41288,1,0,0:0:0:0:
356,243,41705,1,0,0:0:0:0:
287,231,42122,1,0,0:0:0:0:
237,181,42538,1,2,0:0:0:0:
237,181,44206,1,0,0:0:0:0:
256,40,45039,5,2,0:0:0:0:
256,40,46706,1,2,0:0:0:0:
396,16,47539,1,2,0:0:0:0:
396,16,48789,1,2,0:0:0:0:
468,32,49206,1,2,0:0:0:0:
488,176,50039,5,2,0:0:0:0:
357,239,50873,1,0,0:0:0:0:
256,133,51706,1,2,0:0:0:0:
325,4,52539,1,0,0:0:0:0:
468,32,53373,5,0,0:0:0:0:
468,32,53789,1,0,0:0:0:0:
468,32,54206,2,0,L|476:96,1,60,2|0,0:0|0:0,0:0:0:0:
484,164,55039,5,0,0:0:0:0:
456,304,55873,2,0,P|404:332|336:336,1,120,2|2,0:0|0:0,0:0:0:0:
208,292,57539,5,2,0:0:0:0:
180,152,58373,2,0,P|128:124|60:120,1,120
0,144,59623,1,2,0:0:0:0:
0,144,60039,6,2,B|12:200|4:264|4:264|44:236|44:236|20:312|64:384|180:404|236:300,1,480,2|0,0:0|0:0,0:0:0:0:
268,164,64206,1,2,0:0:0:0:
300,24,65039,2,2,P|360:20|500:244,1,360
501,240,70248,1,2,0:0:0:0:
