osu file format v14

[General]
AudioFilename: audio.mp3
AudioLeadIn: 0
PreviewTime: 117214
Countdown: 0
SampleSet: Soft
StackLeniency: 0.6
Mode: 0
LetterboxInBreaks: 0
WidescreenStoryboard: 0

[Editor]
DistanceSpacing: 1.3
BeatDivisor: 4
GridSize: 8
TimelineZoom: 1

[Metadata]
Title:Harmonia
TitleUnicode:Harmonia
Artist:Kotringo
ArtistUnicode:コトリンゴ
Creator:Ora
Version:Advanced
Source:心が叫びたがってるんだ
Tags:the anthem of the heart animation original soundtrack mito (clammbon) [-R1] HappyRocket88
BeatmapID:1119828
BeatmapSetID:527896

[Difficulty]
HPDrainRate:4.5
CircleSize:3.8
OverallDifficulty:4.5
ApproachRate:6.5
SliderMultiplier:1.5
SliderTickRate:1

[Events]
//Background and Video events
0,0,"jun_naruse__the_anthem_of_the_heart__minimalism_by_greenmapple17-da8cxuw.png",0,0
//Break Periods
2,89803,99050
//Storyboard Layer 0 (Background)
//Storyboard Layer 1 (Fail)
//Storyboard Layer 2 (Pass)
//Storyboard Layer 3 (Foreground)
//Storyboard Sound Samples

[TimingPoints]
508,427.960057061341,4,2,1,50,1,0
14202,428.571428571429,4,2,1,40,1,0
27902,427.655024946543,4,2,1,45,1,0
27902,-95.2380952380952,4,2,1,45,0,0
41613,426.74253200569,4,2,1,45,1,0
45026,-125,4,2,1,40,0,0
48478,428.571428571429,4,2,1,45,1,0
48478,-95.2380952380952,4,2,1,45,0,0
62180,428.571428571429,4,2,1,45,1,0
62180,-100,4,2,1,45,0,0
75919,427.655024946543,4,2,1,50,1,0
75919,-90.9090909090909,4,2,1,50,0,0
89636,432.900432900433,4,2,1,50,1,0
89636,-100,4,2,1,40,0,0
103542,433.212996389892,4,2,1,50,1,0
110500,433.212996389892,4,2,1,50,1,0
114832,-100,4,2,1,45,0,0
115698,-100,4,2,1,50,0,0
116564,-100,4,2,1,55,0,0
117420,420.757363253857,4,2,1,50,1,0
117420,-90.9090909090909,4,2,1,50,0,0
130869,413.793103448276,4,2,1,50,1,1
130869,-86.9565217391304,4,2,1,55,0,1
144110,-95.2380952380952,4,2,1,55,0,0
149282,-100,4,2,1,5,0,0

[Colours]
Combo1 : 104,99,105
Combo2 : 129,98,130
Combo3 : 52,45,53
Combo4 : 192,192,192

[HitObjects]
180,241,13962,5,0,0:0:0:0:
180,241,14176,2,0,P|203:171|182:100,1,150
117,26,14818,2,0,P|94:102|125:181,1,150
309,178,15675,1,0,0:0:0:0:
309,178,15890,2,0,B|384:158|384:158|464:181,1,150
391,253,16533,2,0,B|316:273|316:273|236:250,1,150
51,239,17390,1,0,0:0:0:0:
51,238,17604,6,0,P|79:170|74:96,1,150
248,8,18461,1,0,0:0:0:0:
421,96,18890,2,0,B|359:171|420:237|420:237|484:308|415:391,2,300
235,35,21033,6,0,B|185:17|185:17|70:36,1,150
37,115,21676,2,0,B|87:133|87:133|202:114,1,150
349,217,22533,1,0,0:0:0:0:
349,217,22747,2,0,B|375:263|375:263|376:379,1,150
473,356,23390,2,0,B|474:259|474:259|500:213,1,150
444,132,24033,1,0,0:0:0:0:
253,88,24461,5,0,0:0:0:0:
125,235,24890,2,0,B|97:287|98:348|98:348|64:323,1,150
52,134,25747,2,0,B|127:97|204:134|204:134|275:168|352:123,1,300
354,323,27033,2,0,P|325:280|328:219,1,75
420,252,27461,2,0,P|433:203|480:164,1,75
442,81,27902,6,0,P|367:52|294:80,1,157.499995193482,0|8,0:0|0:0,0:0:0:0:
232,156,28543,1,0,0:0:0:0:
129,148,28757,2,0,L|32:120,1,78.7499975967408
112,41,29184,2,0,L|209:69,1,78.7499975967408,8|0,0:0|0:0,0:0:0:0:
232,156,29612,2,0,P|203:227|227:300,1,157.499995193482,0|8,0:0|0:0,0:0:0:0:
323,337,30254,1,0,0:0:0:0:
410,283,30467,2,0,P|452:274|508:290,2,78.7499975967408,0|0|8,0:0|0:0|0:0,0:0:0:0:
323,337,31109,1,0,0:0:0:0:
227,300,31323,6,0,P|144:287|74:323,1,157.499995193482,0|8,0:0|0:0,0:0:0:0:
46,117,32178,2,0,L|30:11,2,78.7499975967408,0|0|8,0:0|0:0|0:0,0:0:0:0:
62,218,32820,1,0,0:0:0:0:
159,187,33033,2,0,B|238:170|238:170|318:188,1,157.499995193482,0|8,0:0|0:0,0:0:0:0:
501,106,33889,2,0,P|508:58|493:12,1,78.7499975967408
398,30,34316,2,0,P|391:78|406:124,1,78.7499975967408,8|0,0:0|0:0,0:0:0:0:
412,208,34744,6,0,P|460:215|506:200,2,78.7499975967408,0|0|8,0:0|0:0|0:0,0:0:0:0:
312,186,35385,1,0,0:0:0:0:
212,161,35599,2,0,P|163:154|118:169,2,78.7499975967408,0|0|8,0:0|0:0|0:0,0:0:0:0:
312,186,36241,1,0,0:0:0:0:
282,284,36455,2,0,P|191:303|120:280,1,157.499995193482,0|8,0:0|0:0,0:0:0:0:
52,218,37096,1,0,0:0:0:0:
59,115,37310,2,0,P|88:70|126:51,1,78.7499975967408
154,148,37738,2,0,P|183:193|221:212,1,78.7499975967408,8|0,0:0|0:0,0:0:0:0:
250,114,38165,5,0,0:0:0:0:
428,213,38593,2,0,P|445:345|327:290,1,314.999990386963,8|8,0:0|0:0,0:0:0:0:
194,140,39876,2,0,P|147:132|91:150,1,78.7499975967408
116,240,40303,2,0,P|163:248|218:229,1,78.7499975967408,8|0,0:0|0:0,0:0:0:0:
287,201,40731,2,0,P|334:193|392:215,1,78.7499975967408
368,302,41159,2,0,P|321:310|265:292,1,78.7499975967408,8|0,0:0|0:0,0:0:0:0:
197,246,41613,6,0,B|180:199|180:199|196:89,1,150,0|8,0:0|0:0,0:0:0:0:
281,55,42253,1,0,0:0:0:0:
341,131,42466,2,0,P|250:144|190:88,1,150,0|8,0:0|0:0,0:0:0:0:
115,93,43106,1,0,0:0:0:0:
57,170,43319,2,0,P|43:260|99:320,1,150,0|8,0:0|0:0,0:0:0:0:
246,213,44173,1,0,0:0:0:0:
413,313,44600,2,0,L|427:239,1,75,8|0,0:0|0:0,0:0:0:0:
440,162,45026,6,0,P|354:122|367:237,1,240
274,92,46307,2,0,P|257:117|247:144,1,60,8|0,0:0|0:0,0:0:0:0:
229,220,46733,2,0,B|164:241|120:202|120:202|46:182|16:245|16:245|56:315|125:283,1,360
318,320,48478,6,0,P|356:316|391:297,1,78.7499975967408,2|0,0:0|0:0,0:0:0:0:
328,218,48906,1,8,0:0:0:0:
234,261,49120,2,0,P|195:257|160:238,1,78.7499975967408,2|0,0:0|0:0,0:0:0:0:
224,159,49549,1,0,0:0:0:0:
316,114,49763,2,0,P|359:119|404:151,2,78.7499975967408,10|0|0,0:0|0:0|0:0,0:0:0:0:
224,159,50406,2,0,P|181:154|136:122,2,78.7499975967408,2|8|0,0:0|0:0|0:0,0:0:0:0:
310,214,51049,2,0,P|305:257|269:303,1,78.7499975967408,2|0,0:0|0:0,0:0:0:0:
207,351,51478,2,0,P|188:316|185:278,1,78.7499975967408,8|2,0:0|0:0,0:0:0:0:
287,287,51906,6,0,P|370:306|441:253,1,157.499995193482,0|10,0:0|0:0,0:0:0:0:
348,207,52549,1,0,0:0:0:0:
304,114,52763,2,0,L|294:29,1,78.7499975967408
394,10,53192,1,10,0:0:0:0:
348,207,53620,2,0,B|270:221|270:221|191:208,1,157.499995193482,0|10,0:0|0:0,0:0:0:0:
94,179,54263,1,0,0:0:0:0:
44,88,54478,2,0,P|36:54|44:9,1,78.7499975967408
145,14,54906,2,0,P|153:48|145:93,1,78.7499975967408
94,179,55335,6,0,B|74:224|74:224|90:330,1,157.499995193482,0|10,0:0|0:0,0:0:0:0:
189,360,55978,1,0,0:0:0:0:
288,331,56192,2,0,B|304:231,1,78.7499975967408
213,200,56620,1,10,0:0:0:0:
344,43,57049,2,0,P|426:54|463:126,1,157.499995193482,0|10,0:0|0:0,0:0:0:0:
456,216,57692,1,0,0:0:0:0:
377,281,57906,2,0,P|334:287|281:277,1,78.7499975967408
215,222,58335,2,0,P|175:217|137:223,1,78.7499975967408
68,299,58763,6,0,P|34:223|65:151,1,157.499995193482,0|10,0:0|0:0,0:0:0:0:
141,96,59406,1,0,0:0:0:0:
239,123,59620,2,0,P|242:77|228:38,2,78.7499975967408,0|0|10,0:0|0:0|0:0,0:0:0:0:
195,215,60263,2,0,P|185:303|221:369,2,157.499995193482
296,199,61335,2,0,L|394:182,1,78.7499975967408
390,286,61763,2,0,L|293:302,1,78.7499975967408,2|0,0:0|0:0,0:0:0:0:
214,314,62180,6,0,B|134:323|134:323|63:297,1,150,4|10,0:0|0:0,0:0:0:0:
28,210,62822,1,0,0:0:0:0:
64,119,63037,2,0,P|105:113|150:125,1,75
228,154,63465,2,0,P|234:113|218:66,1,75,10|0,0:0|0:0,0:0:0:0:
137,119,63894,2,0,P|145:209|203:250,1,150,0|10,0:0|0:0,0:0:0:0:
285,247,64537,1,0,0:0:0:0:
382,247,64751,2,0,L|406:165,1,75
306,175,65180,2,0,L|282:257,1,75,2|0,0:0|0:0,0:0:0:0:
249,337,65608,6,0,P|154:350|110:315,1,150,0|10,0:0|0:0,0:0:0:0:
189,260,66251,1,0,0:0:0:0:
285,247,66465,2,0,P|315:268|333:300,1,75
431,301,66894,2,0,P|449:268|479:247,1,75,10|0,0:0|0:0,0:0:0:0:
444,155,67322,2,0,P|386:121|305:176,1,150,0|10,0:0|0:0,0:0:0:0:
285,247,67965,1,0,0:0:0:0:
204,302,68180,2,0,P|162:307|107:292,1,75
165,211,68608,2,0,P|170:169|155:114,1,75,2|0,0:0|0:0,0:0:0:0:
70,108,69037,6,0,P|121:51|215:56,1,150,0|10,0:0|0:0,0:0:0:0:
280,83,69680,1,0,0:0:0:0:
376,70,69894,2,0,L|472:56,2,75,0|0|10,0:0|0:0|0:0,0:0:0:0:
280,83,70537,1,0,0:0:0:0:
195,131,70751,2,0,P|165:204|203:280,1,150,0|10,0:0|0:0,0:0:0:0:
261,334,71394,2,0,B|312:347|312:347|416:327,1,150
391,232,72037,2,0,L|305:249,1,75,2|0,0:0|0:0,0:0:0:0:
237,191,72465,6,0,B|224:140|224:140|244:36,2,150,0|10|0,0:0|0:0|0:0,0:0:0:0:
380,323,73751,2,0,B|305:286|228:323|228:323|157:357|80:312,1,300,10|10,0:0|0:0,0:0:0:0:
154,133,75037,2,0,P|161:96|156:59,1,75
60,58,75465,2,0,P|53:95|61:132,1,75,2|0,0:0|0:0,0:0:0:0:
103,229,75919,6,0,P|191:239|253:173,1,165.000005035401,4|10,0:0|0:0,0:0:0:0:
263,86,76560,1,0,0:0:0:0:
339,161,76774,2,0,P|384:170|428:162,1,82.5000025177003
480,253,77201,2,0,P|439:247|399:256,1,82.5000025177003,10|0,0:0|0:0,0:0:0:0:
318,326,77629,2,0,P|231:341|162:284,1,165.000005035401,0|10,0:0|0:0,0:0:0:0:
129,200,78271,1,0,0:0:0:0:
113,94,78484,2,0,L|103:7,2,82.5000025177003,0|0|2,0:0|0:0|0:0,0:0:0:0:
129,200,79126,1,0,0:0:0:0:
234,218,79340,6,0,P|314:186|339:89,1,165.000005035401,0|10,0:0|0:0,0:0:0:0:
236,111,79981,1,0,0:0:0:0:
301,25,80195,2,0,P|348:16|398:29,1,82.5000025177003
467,86,80623,2,0,P|476:133|463:183,1,82.5000025177003,10|0,0:0|0:0,0:0:0:0:
401,249,81050,2,0,P|348:175|393:129,1,165.000005035401,0|10,0:0|0:0,0:0:0:0:
328,41,81692,1,0,0:0:0:0:
244,108,81906,2,0,B|200:118|200:118|138:107,1,82.5000025177003
98,196,82333,2,0,B|142:186|142:186|204:197,1,82.5000025177003,2|0,0:0|0:0,0:0:0:0:
256,267,82761,6,0,P|264:313|258:349,2,82.5000025177003,0|0|10,0:0|0:0|0:0,0:0:0:0:
178,192,83402,1,0,0:0:0:0:
100,117,83616,2,0,P|92:71|98:35,2,82.5000025177003,0|0|10,0:0|0:0|0:0,0:0:0:0:
178,192,84258,1,0,0:0:0:0:
253,115,84472,2,0,P|346:120|398:185,1,165.000005035401,0|10,0:0|0:0,0:0:0:0:
415,274,85113,1,0,0:0:0:0:
346,356,85327,2,0,L|250:342,1,82.5000025177003
199,258,85755,2,0,L|295:244,1,82.5000025177003,2|0,0:0|0:0,0:0:0:0:
366,180,86182,5,0,0:0:0:0:
347,74,86396,1,0,0:0:0:0:
248,31,86610,2,0,B|193:57|202:129|202:129|166:53|26:55|20:181,1,330.000010070801,10|10,0:0|0:0,0:0:0:0:
235,198,87893,2,0,B|288:175|279:104|279:104|347:148|323:251|323:251|335:158|441:144|505:187|525:262|494:336|425:372|358:327,1,660.000020141602
256,192,100025,12,0,102623,0:0:0:0:
48,50,103542,6,0,L|61:209,1,150
184,349,104408,2,0,L|196:199,1,150
376,124,105274,2,0,B|354:113|328:113|328:113|286:133|242:118|242:118|270:83,1,150
69,184,106141,2,0,B|91:195|117:195|117:195|159:175|203:190|203:190|175:225,1,150
386,240,107007,6,0,P|399:189|334:104,1,150
297,196,107657,1,0,0:0:0:0:
209,240,107874,2,0,P|196:189|261:104,1,150
297,196,108523,1,0,0:0:0:0:
295,293,108740,2,0,P|220:341|129:308,1,150
80,279,109390,1,0,0:0:0:0:
32,194,109606,2,0,L|32:112,1,75
129,118,110040,2,0,L|129:193,1,75
224,171,110500,6,0,P|301:187|339:257,1,150
163,334,111366,2,0,P|86:318|48:248,1,150
58,65,112232,2,0,B|135:45|135:45|229:74,1,150
316,224,113099,2,0,B|393:244|393:244|487:215,1,150
314,93,113965,6,0,L|314:14,2,75
255,171,114615,1,0,0:0:0:0:
197,249,114832,2,0,L|197:328,2,75,0|0|8,0:0|0:0|0:0,0:0:0:0:
256,171,115481,1,0,0:0:0:0:
198,92,115698,2,0,P|127:79|47:139,1,150,0|8,0:0|0:0,0:0:0:0:
49,317,116564,2,0,L|66:229,1,75
147,193,116998,1,8,0:0:0:0:
232,239,117214,1,0,0:0:0:0:
273,330,117420,6,0,P|363:337|422:288,1,165.000005035401,0|10,0:0|0:0,0:0:0:0:
416,185,118051,1,0,0:0:0:0:
343,105,118261,2,0,L|251:111,1,82.5000025177003
232,214,118682,2,0,L|314:219,1,82.5000025177003,10|0,0:0|0:0,0:0:0:0:
416,185,119103,2,0,P|449:122|417:28,1,165.000005035401,0|10,0:0|0:0,0:0:0:0:
343,105,119734,1,0,0:0:0:0:
236,90,119944,2,0,P|189:79|145:54,1,82.5000025177003
138,169,120365,2,0,P|91:180|47:205,1,82.5000025177003,2|0,0:0|0:0,0:0:0:0:
119,285,120786,6,0,P|208:308|286:281,1,165.000005035401,0|10,0:0|0:0,0:0:0:0:
361,220,121417,1,0,0:0:0:0:
464,246,121627,2,0,P|494:273|510:316,2,82.5000025177003,0|0|10,0:0|0:0|0:0,0:0:0:0:
361,220,122258,1,0,0:0:0:0:
323,119,122469,2,0,P|317:79|432:44,1,165.000005035401,0|10,0:0|0:0,0:0:0:0:
428,136,123100,1,0,0:0:0:0:
361,220,123310,2,0,L|260:232,1,82.5000025177003
189,288,123731,2,0,L|88:276,1,82.5000025177003,2|0,0:0|0:0,0:0:0:0:
56,182,124152,6,0,L|39:95,2,82.5000025177003,0|0|10,0:0|0:0|0:0,0:0:0:0:
107,278,124783,1,0,0:0:0:0:
168,189,124993,2,0,L|185:102,2,82.5000025177003,0|0|10,0:0|0:0|0:0,0:0:0:0:
107,278,125624,1,0,0:0:0:0:
188,347,125835,2,0,P|283:358|354:316,1,165.000005035401,0|10,0:0|0:0,0:0:0:0:
398,236,126466,1,0,0:0:0:0:
374,131,126676,2,0,P|363:93|327:52,1,82.5000025177003
228,62,127097,2,0,P|202:94|190:133,1,82.5000025177003,2|0,0:0|0:0,0:0:0:0:
285,185,127518,5,0,0:0:0:0:
134,337,127938,2,8,P|66:280|206:271,1,330.000010070801,10|10,0:0|0:0,0:0:0:0:
408,336,129201,2,0,B|447:322|475:287|475:287|440:256|402:243,1,165.000005035401,0|10,0:0|0:0,0:0:0:0:
214,146,130042,2,0,P|205:96|219:54,1,82.5000025177003
320,67,130463,2,0,P|328:107|318:147,1,82.5000025177003,2|0,0:0|0:0,0:0:0:0:
266,239,130869,6,0,L|90:223,1,172.500003290176,4|10,0:0|0:0,0:0:0:0:
6,293,131489,1,0,0:0:0:0:
95,361,131696,2,0,L|271:345,1,172.500003290176,0|10,0:0|0:0,0:0:0:0:
373,309,132317,1,0,0:0:0:0:
454,231,132524,2,0,L|470:140,1,86.2500016450882
427,42,132937,2,0,P|386:29|335:30,1,86.2500016450882,10|0,0:0|0:0,0:0:0:0:
263,109,133351,2,0,L|248:193,2,86.2500016450882,0|0|2,0:0|0:0|0:0,0:0:0:0:
170,46,133972,1,0,0:0:0:0:
60,71,134179,6,0,P|51:114|60:164,1,86.2500016450882
102,257,134593,2,0,B|185:283|185:283|268:258,1,172.500003290176,10|0,0:0|0:0,0:0:0:0:
358,192,135213,1,0,0:0:0:0:
256,144,135420,2,0,L|169:171,1,86.2500016450882,10|0,0:0|0:0,0:0:0:0:
102,257,135834,2,0,P|94:299|105:356,2,86.2500016450882,0|0|10,0:0|0:0|0:0,0:0:0:0:
173,169,136455,1,0,0:0:0:0:
244,257,136662,2,0,P|252:299|241:356,2,86.2500016450882,0|0|2,0:0|0:0|0:0,0:0:0:0:
173,169,137282,1,0,0:0:0:0:
92,90,137489,6,0,P|180:57|265:101,1,172.500003290176,0|10,0:0|0:0,0:0:0:0:
316,174,138110,1,0,0:0:0:0:
427,160,138317,2,0,P|447:107|356:72,1,172.500003290176,0|10,0:0|0:0,0:0:0:0:
316,174,138937,1,0,0:0:0:0:
392,255,139144,2,0,P|441:260|484:245,1,86.2500016450882
442,356,139558,2,0,P|393:351|350:366,1,86.2500016450882,10|0,0:0|0:0,0:0:0:0:
284,275,139972,1,0,0:0:0:0:
321,54,140386,2,0,L|431:66,1,86.2500016450882,2|0,0:0|0:0,0:0:0:0:
353,162,140800,6,0,L|176:184,1,172.500003290176,0|10,0:0|0:0,0:0:0:0:
110,269,141420,1,0,0:0:0:0:
27,192,141627,2,0,P|18:144|29:98,1,86.2500016450882
95,19,142041,2,0,P|143:10|189:21,1,86.2500016450882,10|0,0:0|0:0,0:0:0:0:
270,84,142455,2,0,P|345:122|416:83,1,172.500003290176,0|10,0:0|0:0,0:0:0:0:
486,170,143075,1,0,0:0:0:0:
416,257,143282,2,0,P|410:293|421:343,2,86.2500016450882,0|0|2,0:0|0:0|0:0,0:0:0:0:
486,170,143903,1,0,0:0:0:0:
416,82,144110,6,0,P|352:57|265:90,1,157.499995193482,0|10,0:0|0:0,0:0:0:0:
115,218,144937,2,0,P|136:146|104:61,1,157.499995193482,0|10,0:0|0:0,0:0:0:0:
19,253,145765,2,0,P|77:311|171:298,1,157.499995193482,2|0,0:0|0:0,0:0:0:0:
230,249,146386,1,2,0:0:0:0:
331,235,146593,2,0,P|377:251|413:287,2,78.7499975967408,2|0|2,0:0|0:0|0:0,0:0:0:0:
256,192,147110,12,0,149282,0:0:0:0:
