osu file format v14

[General]
AudioFilename: audio.mp3
AudioLeadIn: 0
PreviewTime: 54104
Countdown: 0
SampleSet: Normal
StackLeniency: 0.7
Mode: 1
LetterboxInBreaks: 0
WidescreenStoryboard: 1

[Editor]
DistanceSpacing: 1
BeatDivisor: 8
GridSize: 32
TimelineZoom: 2.799999

[Metadata]
Title:Nanamori (youth Remix)
TitleUnicode:Nanamori (youth Remix)
Artist:Kotori
ArtistUnicode:Kotori
Creator:Naverlyn
Version:Futsuu
Source:
Tags:yuruyuri uk hardcore nerdcore youth_yu_s dance edm electronic instrumental
BeatmapID:3390641
BeatmapSetID:1660378

[Difficulty]
HPDrainRate:7
CircleSize:2
OverallDifficulty:4
ApproachRate:9
SliderMultiplier:1.4
SliderTickRate:1

[Events]
//Background and Video events
0,0,"bg.jpg",0,60
//Break Periods
//Storyboard Layer 0 (Background)
//Storyboard Layer 1 (Fail)
//Storyboard Layer 2 (Pass)
//Storyboard Layer 3 (Foreground)
//Storyboard Layer 4 (Overlay)
//Storyboard Sound Samples

[TimingPoints]
1116,279.06976744186,4,1,0,70,1,0
1116,-125,4,1,0,70,0,0
14510,-111.111111111111,4,1,0,70,0,0
16742,-100,4,1,0,70,0,0
19255,-105.263157894737,4,1,0,70,0,0
21174,-105.263157894737,4,1,0,35,0,0
21348,-105.263157894737,4,1,0,70,0,0
28185,-100,4,1,0,70,0,0
30104,-100,4,1,0,35,0,0
30278,-100,4,1,0,70,0,0
34569,-100,4,1,0,35,0,0
34743,-100,4,1,0,70,0,0
36557,-142.857142857143,4,1,0,70,0,0
45767,-111.111111111111,4,1,0,70,0,0
54697,-100,4,1,0,70,0,1
62650,-100,4,1,0,70,0,0
63627,-100,4,1,0,70,0,1
72557,-111.111111111111,4,1,0,70,0,0
74755,-111.111111111111,4,1,0,35,0,0
74929,-111.111111111111,4,1,0,70,0,0
81453,-111.111111111111,4,1,0,35,0,0
81627,-111.111111111111,4,1,0,70,0,0
85918,-111.111111111111,4,1,0,35,0,0
86092,-111.111111111111,4,1,0,70,0,0
99348,-111.111111111111,4,1,0,70,0,0
108278,-95.2380952380952,4,1,0,70,0,1
116232,-95.2380952380952,4,1,0,70,0,0
117209,-95.2380952380952,4,1,0,70,0,1
125162,-95.2380952380952,4,1,0,70,0,0
126139,-95.2380952380952,4,1,0,70,0,1
143999,-95.2380952380952,4,1,0,70,0,0

[HitObjects]
256,192,1116,5,12,0:0:0:0:
256,192,1534,1,8,0:0:0:0:
256,192,1953,1,8,0:0:0:0:
256,192,2232,1,0,0:0:0:0:
256,192,2511,1,8,0:0:0:0:
256,192,2650,1,8,0:0:0:0:
256,192,2790,1,0,0:0:0:0:
256,192,3348,1,12,0:0:0:0:
256,192,5581,1,0,0:0:0:0:
256,192,5999,1,8,0:0:0:0:
256,192,6418,1,8,0:0:0:0:
256,192,6976,1,0,0:0:0:0:
256,192,7255,1,8,0:0:0:0:
256,192,7813,1,4,0:0:0:0:
256,192,10046,1,0,0:0:0:0:
256,192,10464,1,0,0:0:0:0:
256,192,10883,1,8,0:0:0:0:
256,192,11302,1,8,0:0:0:0:
256,192,11581,1,0,0:0:0:0:
256,192,11720,1,8,0:0:0:0:
256,192,12278,1,12,0:0:0:0:
256,192,14511,1,8,0:0:0:0:
256,192,14929,1,8,0:0:0:0:
256,192,15209,1,0,0:0:0:0:
256,192,15348,1,8,0:0:0:0:
256,192,15906,1,0,0:0:0:0:
256,192,16046,1,8,0:0:0:0:
256,192,16185,1,8,0:0:0:0:
256,192,16743,1,12,0:0:0:0:
256,192,17302,1,8,0:0:0:0:
256,192,17581,1,0,0:0:0:0:
256,192,17860,1,8,0:0:0:0:
256,192,18139,1,0,0:0:0:0:
256,192,18976,1,8,0:0:0:0:
256,192,19534,1,8,0:0:0:0:
256,192,19813,1,0,0:0:0:0:
256,192,20371,1,8,0:0:0:0:
256,192,20650,1,0,0:0:0:0:
256,192,21209,1,4,0:0:0:0:
256,192,21767,1,8,0:0:0:0:
256,192,22046,1,0,0:0:0:0:
256,192,22604,1,8,0:0:0:0:
256,192,22883,1,0,0:0:0:0:
256,192,23022,1,0,0:0:0:0:
256,192,23162,1,8,0:0:0:0:
256,192,23441,1,0,0:0:0:0:
256,192,23999,1,8,0:0:0:0:
256,192,24278,1,0,0:0:0:0:
256,192,24836,1,8,0:0:0:0:
256,192,25115,1,0,0:0:0:0:
256,192,25674,1,0,0:0:0:0:
256,160,26232,1,8,0:0:0:0:
256,192,26511,1,0,0:0:0:0:
256,192,27069,1,8,0:0:0:0:
256,160,27348,1,0,0:0:0:0:
256,160,27627,1,8,0:0:0:0:
256,160,27767,1,0,0:0:0:0:
256,160,27906,1,8,0:0:0:0:
256,160,28464,1,8,0:0:0:0:
256,160,28743,1,0,0:0:0:0:
256,160,29302,1,8,0:0:0:0:
256,160,29581,1,0,0:0:0:0:
256,160,30139,1,4,0:0:0:0:
256,160,30697,1,8,0:0:0:0:
256,160,30976,1,0,0:0:0:0:
256,160,31395,1,0,0:0:0:0:
256,160,31534,1,8,0:0:0:0:
256,160,31813,1,0,0:0:0:0:
256,160,32371,1,0,0:0:0:0:
256,160,32929,1,8,0:0:0:0:
256,160,33209,1,0,0:0:0:0:
256,160,33767,1,8,0:0:0:0:
256,160,34046,1,0,0:0:0:0:
256,160,34325,1,8,0:0:0:0:
256,160,34464,1,8,0:0:0:0:
256,160,34604,1,4,0:0:0:0:
256,160,35162,1,8,0:0:0:0:
256,160,35441,1,0,0:0:0:0:
256,160,35860,1,0,0:0:0:0:
256,160,35999,1,8,0:0:0:0:
352,160,36139,1,0,0:0:0:0:
256,160,36836,1,0,0:0:0:0:
256,160,37395,1,0,0:0:0:0:
256,160,37674,1,8,0:0:0:0:
256,160,37953,1,8,0:0:0:0:
256,160,38511,1,0,0:0:0:0:
256,160,38790,1,8,0:0:0:0:
256,160,39069,1,0,0:0:0:0:
256,160,39627,1,0,0:0:0:0:
256,160,40185,1,8,0:0:0:0:
256,160,40743,1,0,0:0:0:0:
256,160,41022,1,8,0:0:0:0:
256,160,41162,1,8,0:0:0:0:
256,160,41302,1,0,0:0:0:0:
256,160,41860,1,0,0:0:0:0:
256,160,42139,1,0,0:0:0:0:
256,160,42418,1,8,0:0:0:0:
256,160,42976,1,0,0:0:0:0:
256,160,43255,1,8,0:0:0:0:
256,160,43395,1,8,0:0:0:0:
256,160,43534,1,0,0:0:0:0:
256,160,44092,1,8,0:0:0:0:
256,160,44371,1,0,0:0:0:0:
256,160,44650,1,8,0:0:0:0:
256,160,44929,1,0,0:0:0:0:
256,160,45767,5,8,0:0:0:0:
256,160,46185,1,0,0:0:0:0:
256,160,46325,1,8,0:0:0:0:
256,160,46743,1,0,0:0:0:0:
256,160,46883,1,8,0:0:0:0:
256,160,47162,1,8,0:0:0:0:
256,160,47302,1,0,0:0:0:0:
256,160,47441,1,8,0:0:0:0:
256,160,47860,1,0,0:0:0:0:
256,160,47999,1,8,0:0:0:0:
256,160,48278,1,8,0:0:0:0:
256,160,48418,1,0,0:0:0:0:
256,160,48557,1,8,0:0:0:0:
256,160,48976,1,0,0:0:0:0:
256,160,49115,1,8,0:0:0:0:
256,160,49534,1,0,0:0:0:0:
256,160,49674,1,8,0:0:0:0:
256,160,49953,1,8,0:0:0:0:
256,160,50232,1,8,0:0:0:0:
256,160,50511,1,0,0:0:0:0:
256,160,50650,1,0,0:0:0:0:
256,160,50790,1,8,0:0:0:0:
256,160,51069,1,8,0:0:0:0:
256,160,51209,1,8,0:0:0:0:
256,160,51348,1,8,0:0:0:0:
256,160,51627,1,8,0:0:0:0:
256,160,51767,1,0,0:0:0:0:
256,160,51906,1,0,0:0:0:0:
256,160,52185,1,8,0:0:0:0:
256,160,52464,1,0,0:0:0:0:
256,160,52743,1,0,0:0:0:0:
256,160,52883,1,0,0:0:0:0:
256,160,53022,1,0,0:0:0:0:
256,160,53302,1,8,0:0:0:0:
256,160,53581,1,0,0:0:0:0:
256,160,53720,1,0,0:0:0:0:
256,160,53860,1,8,0:0:0:0:
256,160,54139,1,4,0:0:0:0:
256,160,54697,1,12,0:0:0:0:
256,160,55255,1,12,0:0:0:0:
256,160,55534,1,4,0:0:0:0:
256,160,55674,1,4,0:0:0:0:
256,160,55813,1,12,0:0:0:0:
256,160,56092,1,8,0:0:0:0:
256,160,56371,1,8,0:0:0:0:
256,160,56790,1,0,0:0:0:0:
256,160,56929,1,8,0:0:0:0:
256,160,57488,1,12,0:0:0:0:
256,160,57767,1,4,0:0:0:0:
256,160,57906,1,4,0:0:0:0:
256,160,58046,1,12,0:0:0:0:
256,160,58325,1,8,0:0:0:0:
256,160,58604,1,8,0:0:0:0:
256,160,59022,1,0,0:0:0:0:
224,160,59162,1,8,0:0:0:0:
224,160,59720,1,12,0:0:0:0:
224,160,59999,1,4,0:0:0:0:
224,160,60139,1,4,0:0:0:0:
224,160,60278,1,12,0:0:0:0:
224,160,60557,1,8,0:0:0:0:
224,160,60836,1,8,0:0:0:0:
224,160,61255,1,0,0:0:0:0:
224,160,61395,1,8,0:0:0:0:
224,160,61674,1,8,0:0:0:0:
224,160,61953,1,12,0:0:0:0:
224,160,62092,1,12,0:0:0:0:
224,160,62232,1,4,0:0:0:0:
224,160,62511,1,8,0:0:0:0:
224,160,62790,1,0,0:0:0:0:
224,160,63069,1,0,0:0:0:0:
224,160,63348,1,8,0:0:0:0:
224,160,63627,1,12,0:0:0:0:
256,160,64185,1,12,0:0:0:0:
256,160,64464,1,4,0:0:0:0:
256,159,64604,1,4,0:0:0:0:
256,160,64743,1,12,0:0:0:0:
256,160,65022,1,8,0:0:0:0:
256,160,65302,1,0,0:0:0:0:
256,160,65581,1,8,0:0:0:0:
256,160,65720,1,8,0:0:0:0:
256,160,65860,1,8,0:0:0:0:
256,160,66418,1,12,0:0:0:0:
256,160,66697,1,4,0:0:0:0:
256,160,66836,1,4,0:0:0:0:
256,160,66976,1,12,0:0:0:0:
256,160,67255,1,8,0:0:0:0:
256,160,67534,1,0,0:0:0:0:
256,160,67813,1,8,0:0:0:0:
256,160,67953,1,8,0:0:0:0:
224,160,68092,1,8,0:0:0:0:
224,160,68650,1,12,0:0:0:0:
224,160,68790,1,12,0:0:0:0:
224,160,68929,1,4,0:0:0:0:
224,160,69209,1,12,0:0:0:0:
224,160,69488,1,8,0:0:0:0:
224,160,69767,1,0,0:0:0:0:
224,160,70046,1,8,0:0:0:0:
224,160,70185,1,8,0:0:0:0:
224,160,70325,1,8,0:0:0:0:
224,160,70883,1,8,0:0:0:0:
224,160,71022,1,8,0:0:0:0:
224,160,71162,1,0,0:0:0:0:
224,160,71441,1,8,0:0:0:0:
224,160,71720,1,0,0:0:0:0:
224,160,71999,1,0,0:0:0:0:
224,160,72278,1,8,0:0:0:0:
224,160,72557,1,8,0:0:0:0:
224,128,73115,1,8,0:0:0:0:
224,160,73534,1,0,0:0:0:0:
224,160,73674,1,8,0:0:0:0:
224,128,74092,1,8,0:0:0:0:
224,160,74232,1,8,0:0:0:0:
224,160,74511,1,0,0:0:0:0:
224,160,74790,1,4,0:0:0:0:
224,128,75348,1,8,0:0:0:0:
224,128,75767,1,0,0:0:0:0:
224,128,75906,1,8,0:0:0:0:
224,128,76325,1,8,0:0:0:0:
224,128,76464,1,8,0:0:0:0:
224,128,76743,1,0,0:0:0:0:
224,128,77022,1,8,0:0:0:0:
224,128,77581,1,8,0:0:0:0:
224,160,77999,1,0,0:0:0:0:
224,160,78139,1,8,0:0:0:0:
224,128,78557,1,8,0:0:0:0:
224,160,78697,1,8,0:0:0:0:
224,160,78976,1,8,0:0:0:0:
224,160,79255,1,0,0:0:0:0:
224,128,79813,1,8,0:0:0:0:
224,128,80232,1,0,0:0:0:0:
224,128,80371,1,8,0:0:0:0:
224,128,80790,1,0,0:0:0:0:
224,128,80929,1,8,0:0:0:0:
224,128,81209,1,0,0:0:0:0:
224,128,81488,1,4,0:0:0:0:
224,128,82046,1,8,0:0:0:0:
224,160,82185,1,8,0:0:0:0:
224,160,82325,1,0,0:0:0:0:
224,160,82604,1,8,0:0:0:0:
224,128,83022,1,8,0:0:0:0:
224,160,83162,1,8,0:0:0:0:
224,160,83441,1,8,0:0:0:0:
224,160,83720,1,0,0:0:0:0:
224,128,84278,1,8,0:0:0:0:
224,128,84418,1,0,0:0:0:0:
224,128,84557,1,8,0:0:0:0:
224,128,84836,1,8,0:0:0:0:
224,128,85255,1,0,0:0:0:0:
224,128,85395,1,8,0:0:0:0:
224,128,85674,1,8,0:0:0:0:
224,128,85953,1,4,0:0:0:0:
224,128,86511,1,8,0:0:0:0:
215,151,86929,1,0,0:0:0:0:
224,160,87069,1,8,0:0:0:0:
224,128,87488,1,8,0:0:0:0:
224,160,87627,1,8,0:0:0:0:
224,160,87906,1,0,0:0:0:0:
224,160,88185,1,0,0:0:0:0:
224,128,88743,1,8,0:0:0:0:
224,128,89022,1,8,0:0:0:0:
224,128,89162,1,0,0:0:0:0:
224,128,89302,1,8,0:0:0:0:
224,128,89581,1,0,0:0:0:0:
224,128,89860,1,8,0:0:0:0:
224,128,90418,1,12,0:0:0:0:
256,160,90976,1,0,0:0:0:0:
256,160,91255,1,8,0:0:0:0:
256,160,91534,1,8,0:0:0:0:
256,160,92092,1,0,0:0:0:0:
256,160,92371,1,8,0:0:0:0:
256,160,92650,1,0,0:0:0:0:
256,160,93209,1,0,0:0:0:0:
256,160,93767,1,8,0:0:0:0:
256,160,94325,1,0,0:0:0:0:
256,160,94604,1,8,0:0:0:0:
256,160,94743,1,8,0:0:0:0:
256,160,94883,1,0,0:0:0:0:
256,160,95441,1,0,0:0:0:0:
256,160,95720,1,0,0:0:0:0:
256,160,95999,1,8,0:0:0:0:
256,160,96557,1,0,0:0:0:0:
256,160,96836,1,8,0:0:0:0:
256,160,96976,1,8,0:0:0:0:
256,160,97115,1,0,0:0:0:0:
256,160,97674,1,8,0:0:0:0:
256,160,97953,1,0,0:0:0:0:
256,160,98232,1,8,0:0:0:0:
256,160,98511,1,0,0:0:0:0:
256,160,99348,5,8,0:0:0:0:
256,160,99767,1,0,0:0:0:0:
256,160,99906,1,8,0:0:0:0:
256,160,100325,1,0,0:0:0:0:
256,160,100464,1,8,0:0:0:0:
256,160,100743,1,8,0:0:0:0:
256,160,100883,1,0,0:0:0:0:
256,160,101022,1,8,0:0:0:0:
256,160,101441,1,0,0:0:0:0:
256,160,101581,1,8,0:0:0:0:
256,160,101860,1,8,0:0:0:0:
256,160,101999,1,0,0:0:0:0:
256,160,102139,1,8,0:0:0:0:
256,160,102557,1,0,0:0:0:0:
256,160,102697,1,8,0:0:0:0:
256,160,103115,1,0,0:0:0:0:
256,160,103255,1,8,0:0:0:0:
256,160,103534,1,8,0:0:0:0:
256,160,103813,1,8,0:0:0:0:
256,160,104092,1,0,0:0:0:0:
256,160,104232,1,0,0:0:0:0:
256,160,104371,1,8,0:0:0:0:
256,160,104650,1,8,0:0:0:0:
256,160,104790,1,8,0:0:0:0:
256,160,104929,1,8,0:0:0:0:
256,160,105209,1,8,0:0:0:0:
256,160,105348,1,0,0:0:0:0:
256,160,105488,1,0,0:0:0:0:
256,160,105767,1,8,0:0:0:0:
256,160,106046,1,0,0:0:0:0:
256,160,106325,1,0,0:0:0:0:
256,160,106464,1,0,0:0:0:0:
256,160,106604,1,0,0:0:0:0:
256,160,106883,1,8,0:0:0:0:
256,160,107162,1,0,0:0:0:0:
256,160,107302,1,0,0:0:0:0:
256,160,107441,1,8,0:0:0:0:
256,160,107720,1,4,0:0:0:0:
224,192,107999,1,8,0:0:0:0:
256,192,108139,1,0,0:0:0:0:
256,160,108278,1,12,0:0:0:0:
256,160,108836,1,12,0:0:0:0:
256,160,109115,1,4,0:0:0:0:
256,160,109255,1,4,0:0:0:0:
256,160,109395,1,12,0:0:0:0:
256,160,109674,1,8,0:0:0:0:
256,160,109953,1,8,0:0:0:0:
256,160,110232,1,8,0:0:0:0:
256,160,110371,1,0,0:0:0:0:
256,160,110511,1,0,0:0:0:0:
256,160,111069,1,12,0:0:0:0:
256,160,111348,1,4,0:0:0:0:
256,160,111488,1,4,0:0:0:0:
256,160,111627,1,12,0:0:0:0:
256,160,111906,1,8,0:0:0:0:
256,160,112185,1,0,0:0:0:0:
256,160,112464,1,8,0:0:0:0:
225,168,112604,1,8,0:0:0:0:
224,160,112743,1,0,0:0:0:0:
224,160,113302,1,12,0:0:0:0:
224,160,113581,1,4,0:0:0:0:
224,160,113720,1,4,0:0:0:0:
224,160,113860,1,12,0:0:0:0:
224,160,114139,1,8,0:0:0:0:
224,160,114418,1,0,0:0:0:0:
224,160,114697,1,8,0:0:0:0:
224,160,114836,1,8,0:0:0:0:
224,160,114976,1,0,0:0:0:0:
224,160,115255,1,8,0:0:0:0:
224,160,115534,1,12,0:0:0:0:
224,160,115813,1,4,0:0:0:0:
224,160,115953,1,4,0:0:0:0:
224,160,116092,1,12,0:0:0:0:
224,160,116371,1,0,0:0:0:0:
224,160,116650,1,0,0:0:0:0:
224,160,116929,1,8,0:0:0:0:
224,160,117209,1,12,0:0:0:0:
256,160,117767,1,12,0:0:0:0:
256,160,118046,1,4,0:0:0:0:
256,160,118185,1,4,0:0:0:0:
256,160,118325,1,12,0:0:0:0:
256,160,118604,1,8,0:0:0:0:
256,160,118883,1,0,0:0:0:0:
256,160,119162,1,8,0:0:0:0:
256,160,119302,1,8,0:0:0:0:
256,160,119441,1,0,0:0:0:0:
256,160,119999,1,12,0:0:0:0:
256,160,120278,1,4,0:0:0:0:
256,160,120418,1,4,0:0:0:0:
256,160,120557,1,12,0:0:0:0:
256,160,120836,1,8,0:0:0:0:
256,160,121115,1,0,0:0:0:0:
256,160,121395,1,0,0:0:0:0:
235,160,121534,1,8,0:0:0:0:
224,160,121674,1,0,0:0:0:0:
224,160,122232,1,12,0:0:0:0:
224,160,122511,1,4,0:0:0:0:
224,160,122650,1,4,0:0:0:0:
224,160,122790,1,12,0:0:0:0:
224,160,123069,1,8,0:0:0:0:
224,160,123348,1,8,0:0:0:0:
224,160,123627,1,8,0:0:0:0:
224,160,123767,1,8,0:0:0:0:
224,160,123906,1,0,0:0:0:0:
224,160,124185,1,8,0:0:0:0:
224,160,124464,1,12,0:0:0:0:
224,160,124743,1,4,0:0:0:0:
224,160,124883,1,4,0:0:0:0:
224,160,125022,1,12,0:0:0:0:
224,160,125860,1,8,0:0:0:0:
224,160,126139,1,12,0:0:0:0:
192,256,126697,1,8,0:0:0:0:
192,224,126976,1,8,0:0:0:0:
192,224,127115,1,0,0:0:0:0:
192,224,127255,1,8,0:0:0:0:
192,192,127813,1,8,0:0:0:0:
192,192,128092,1,0,0:0:0:0:
199,196,128232,1,0,0:0:0:0:
192,192,128371,1,8,0:0:0:0:
192,192,128929,1,8,0:0:0:0:
192,192,129209,1,8,0:0:0:0:
192,192,129348,1,0,0:0:0:0:
192,192,129488,1,8,0:0:0:0:
192,192,129767,1,8,0:0:0:0:
192,224,130046,1,8,0:0:0:0:
160,224,130325,1,0,0:0:0:0:
160,224,130604,1,8,0:0:0:0:
256,224,131162,1,8,0:0:0:0:
256,224,131441,1,8,0:0:0:0:
256,224,131581,1,0,0:0:0:0:
256,224,131720,1,8,0:0:0:0:
192,256,132278,1,0,0:0:0:0:
192,224,132557,1,8,0:0:0:0:
192,224,132697,1,8,0:0:0:0:
192,224,132836,1,8,0:0:0:0:
192,224,133115,1,0,0:0:0:0:
192,192,133395,1,8,0:0:0:0:
192,192,133674,1,0,0:0:0:0:
192,192,133953,1,8,0:0:0:0:
192,192,134511,1,8,0:0:0:0:
192,192,134790,1,0,0:0:0:0:
192,192,134929,1,8,0:0:0:0:
192,192,135069,1,8,0:0:0:0:
192,224,135627,1,8,0:0:0:0:
160,224,135906,1,8,0:0:0:0:
160,224,136046,1,0,0:0:0:0:
160,224,136185,1,8,0:0:0:0:
192,224,136464,1,8,0:0:0:0:
256,224,136743,1,8,0:0:0:0:
256,224,137022,1,0,0:0:0:0:
256,224,137302,1,8,0:0:0:0:
192,256,137860,1,8,0:0:0:0:
192,224,138139,1,8,0:0:0:0:
192,224,138278,1,0,0:0:0:0:
192,224,138418,1,8,0:0:0:0:
192,224,138697,1,8,0:0:0:0:
192,192,138976,1,0,0:0:0:0:
192,192,139115,1,0,0:0:0:0:
192,224,139255,1,8,0:0:0:0:
192,192,139534,1,0,0:0:0:0:
192,192,140092,1,8,0:0:0:0:
192,192,140371,1,0,0:0:0:0:
192,192,140511,1,0,0:0:0:0:
192,192,140650,1,8,0:0:0:0:
192,224,141209,1,0,0:0:0:0:
160,224,141488,1,8,0:0:0:0:
160,224,141627,1,0,0:0:0:0:
160,224,141767,1,8,0:0:0:0:
256,224,142325,1,8,0:0:0:0:
256,224,142604,1,0,0:0:0:0:
247,224,142743,1,0,0:0:0:0:
256,224,142883,1,8,0:0:0:0:
224,224,143162,1,8,0:0:0:0:
224,192,143441,1,8,0:0:0:0:
224,160,143720,1,0,0:0:0:0:
224,160,143860,1,0,0:0:0:0:
224,160,143999,1,12,0:0:0:0:
192,224,144557,1,8,0:0:0:0:
192,224,144836,1,0,0:0:0:0:
192,224,145115,1,8,0:0:0:0:
192,224,145395,1,8,0:0:0:0:
192,224,145674,1,8,0:0:0:0:
192,224,145953,1,0,0:0:0:0:
192,224,146232,1,8,0:0:0:0:
224,224,146790,1,8,0:0:0:0:
224,224,147069,1,0,0:0:0:0:
192,224,147348,1,8,0:0:0:0:
192,224,147627,1,0,0:0:0:0:
192,160,147906,1,8,0:0:0:0:
192,192,148046,1,0,0:0:0:0:
192,192,148185,1,8,0:0:0:0:
192,192,148464,1,8,0:0:0:0:
192,192,149022,1,8,0:0:0:0:
192,192,149302,1,0,0:0:0:0:
192,192,149581,1,8,0:0:0:0:
192,192,149860,1,8,0:0:0:0:
192,192,150139,1,8,0:0:0:0:
192,192,150418,1,0,0:0:0:0:
192,192,150697,1,8,0:0:0:0:
192,192,151255,1,8,0:0:0:0:
192,192,151534,1,0,0:0:0:0:
192,192,151813,1,8,0:0:0:0:
192,192,152092,1,0,0:0:0:0:
192,192,152371,1,8,0:0:0:0:
192,192,152511,1,0,0:0:0:0:
192,192,152650,1,8,0:0:0:0:
192,192,152929,1,8,0:0:0:0:
192,192,153488,1,8,0:0:0:0:
192,192,153767,1,0,0:0:0:0:
192,192,153906,1,8,0:0:0:0:
192,192,154046,1,8,0:0:0:0:
192,192,154325,1,0,0:0:0:0:
192,192,154604,1,0,0:0:0:0:
192,192,154883,1,8,0:0:0:0:
192,192,155162,1,0,0:0:0:0:
192,192,155720,1,8,0:0:0:0:
192,192,155999,1,0,0:0:0:0:
192,192,156139,1,0,0:0:0:0:
192,192,156278,1,8,0:0:0:0:
192,192,156557,1,0,0:0:0:0:
192,192,156836,1,8,0:0:0:0:
192,192,157115,1,8,0:0:0:0:
192,192,157395,1,0,0:0:0:0:
192,192,157953,1,0,0:0:0:0:
192,192,158232,1,8,0:0:0:0:
192,192,158371,1,0,0:0:0:0:
192,192,158511,1,8,0:0:0:0:
192,192,158790,1,0,0:0:0:0:
192,192,159069,1,0,0:0:0:0:
192,192,159348,1,8,0:0:0:0:
192,192,159627,1,0,0:0:0:0:
192,192,160185,1,8,0:0:0:0:
192,192,160464,1,8,0:0:0:0:
192,192,160604,1,8,0:0:0:0:
192,192,160743,1,8,0:0:0:0:
192,192,161022,1,0,0:0:0:0:
192,192,161302,1,0,0:0:0:0:
192,192,161581,1,8,0:0:0:0:
192,192,161720,1,8,0:0:0:0:
192,192,161860,1,4,0:0:0:0:
